osu file format v14

[General]
AudioFilename: audio.mp3
AudioLeadIn: 0
PreviewTime: 206222
Countdown: 0
SampleSet: Soft
StackLeniency: 0.4
Mode: 0
LetterboxInBreaks: 0
WidescreenStoryboard: 0

[Editor]
Bookmarks: 87707,141173,193450
DistanceSpacing: 1.4
BeatDivisor: 8
GridSize: 32
TimelineZoom: 1.8

[Metadata]
Title:Welcome to Tally Hall
TitleUnicode:Welcome to Tally Hall
Artist:Tally Hall
ArtistUnicode:Tally Hall
Creator:Nowaie
Version:Rapping Like an English Chap
Source:
Tags:dtm9 Nowa Shii Shiitsuin Calliecube obamacube smokebloke English Hip hop Hip-Hop indie rock jazz Marvin's Marvelous Mechanical Museum
BeatmapID:3085269
BeatmapSetID:1506202

[Difficulty]
HPDrainRate:5
CircleSize:4
OverallDifficulty:9
ApproachRate:9
SliderMultiplier:2
SliderTickRate:1

[Events]
//Background and Video events
0,0,"MMMM.jpg",0,0
//Break Periods
//Storyboard Layer 0 (Background)
//Storyboard Layer 1 (Fail)
//Storyboard Layer 2 (Pass)
//Storyboard Layer 3 (Foreground)
//Storyboard Layer 4 (Overlay)
//Storyboard Sound Samples

[TimingPoints]
28302,594.059405940594,4,2,1,50,1,0
49124,612.244897959184,4,2,1,50,1,0
49124,-133.333333333333,4,2,1,50,0,0
49736,-133.333333333333,4,2,1,50,0,0
49812,-133.333333333333,4,2,1,5,0,0
52064,594.059405940594,4,2,1,50,1,0
52064,-181.818181818181,4,2,1,50,0,0
58004,-181.818181818182,4,2,1,30,0,0
59193,-133.333333333333,4,2,1,40,0,0
68698,-79.9999999999999,4,2,1,60,0,0
74638,-100,4,2,1,60,0,0
75232,-79.9999999999999,4,2,1,60,0,0
86519,-100,4,2,1,60,0,0
87707,-76.9230769230769,4,2,1,70,0,0
95282,-76.9230769230769,4,2,1,70,0,0
96024,600,4,2,1,70,1,0
96624,588.235294117647,4,2,1,70,1,0
97212,594.059405940594,4,2,1,70,1,0
98401,-166.666666666667,4,2,1,60,0,0
98995,-166.666666666667,4,2,1,20,0,0
101965,-166.666666666667,4,2,1,50,0,0
108797,-166.666666666667,4,2,1,30,0,0
109985,-50,4,2,1,60,0,0
110282,-50,4,2,1,90,0,0
111173,-50,4,2,1,60,0,0
111470,-100,4,2,1,60,0,0
118599,-76.9230769230769,4,2,1,60,0,0
120975,-66.6666666666667,4,2,1,60,0,0
122163,-76.9230769230769,4,2,1,60,0,0
125727,-76.9230769230769,4,2,1,70,0,0
135232,-66.6666666666667,4,2,1,70,0,0
144143,-100,4,2,1,50,0,0
144440,-76.9230769230769,4,2,1,50,0,0
145331,-50,4,2,1,70,0,0
145405,-50,4,2,1,20,0,0
148896,-50,4,2,1,60,0,0
149490,-100,4,2,1,60,0,0
151272,-133.333333333333,4,2,1,60,0,0
151866,-71.4285714285714,4,2,1,60,0,0
152460,-83.3333333333333,4,2,1,60,0,0
153945,-100,4,2,1,60,0,0
158995,-66.6666666666667,4,2,1,60,0,0
161519,-83.3333333333333,4,2,1,60,0,0
161965,-52.6315789473684,4,2,1,60,0,0
162262,-66.6666666666667,4,2,1,60,0,0
164490,-133.333333333333,4,2,1,60,0,0
164935,-68.9655172413793,4,2,1,60,0,0
165529,-52.6315789473684,4,2,1,60,0,0
166272,-50,4,2,1,60,0,0
167014,-83.3333333333333,4,2,1,60,0,0
168202,-83.3333333333333,4,2,1,60,0,0
168500,-133.333333333333,4,2,1,50,0,0
172955,-100,4,2,1,50,0,0
173252,-133.333333333333,4,2,1,50,0,0
175331,-83.3333333333333,4,2,1,50,0,0
175628,-55.5555555555556,4,2,1,70,0,0
176222,-83.3333333333333,4,2,1,70,0,0
178004,-38.4615384615385,4,2,1,80,0,0
180084,-66.6666666666667,4,2,1,80,0,0
180381,-38.4615384615385,4,2,1,80,0,0
181123,-100,4,2,1,80,0,0
181717,-50,4,2,1,80,0,0
183054,-50,4,2,1,50,0,0
183945,-50,4,2,1,60,0,0
185139,582.52427184466,4,2,1,80,1,0
186303,600,4,2,1,80,1,0
186303,-50,4,2,1,70,0,0
186903,-100,4,2,1,50,0,0
187509,594.059405940594,4,2,1,80,1,1
187509,-34.4827586206897,4,2,1,80,0,1
188101,-40,4,2,1,80,0,1
188696,-34.4827586206897,4,2,1,80,0,1
188993,-40,4,2,1,80,0,1
189587,-33.3333333333333,4,2,1,80,0,1
190478,-43.4782608695652,4,2,1,80,0,1
191072,-34.4827586206897,4,2,1,80,0,1
191963,-100,4,2,1,80,0,1
192260,-34.4827586206897,4,2,1,80,0,1
192854,-40,4,2,1,80,0,1
193448,-28.5714285714286,4,2,1,80,0,1
193745,-40,4,2,1,80,0,1
194340,-33.3333333333333,4,2,1,80,0,1
195230,-43.4782608695652,4,2,1,80,0,1
195379,-38.4615384615385,4,2,1,80,0,1
195824,-34.4827586206897,4,2,1,80,0,1
196716,-100,4,2,1,80,0,1
197013,-83.3333333333333,4,2,1,70,0,0
197606,-52.6315789473684,4,2,1,70,0,0
198200,-43.4782608695652,4,2,1,70,0,0
199389,-55.5555555555556,4,2,1,70,0,0
200280,-79.9999999999999,4,2,1,70,0,0
200577,-45.4545454545455,4,2,1,70,0,0
201468,-100,4,2,1,70,0,0
201765,-83.3333333333333,4,2,1,70,0,0
202359,-52.6315789473684,4,2,1,70,0,0
202953,-43.4782608695652,4,2,1,70,0,0
204142,-55.5555555555556,4,2,1,70,0,0
205033,-79.9999999999999,4,2,1,70,0,0
205330,-45.4545454545455,4,2,1,70,0,0
206221,-133.333333333333,4,2,1,70,0,0
206518,-40,4,2,1,80,0,1
207111,-166.666666666667,4,2,1,80,0,1
207705,-40,4,2,1,80,0,1
208299,-133.333333333333,4,2,1,80,0,1
208894,-33.3333333333333,4,2,1,80,0,1
209785,-83.3333333333333,4,2,1,80,0,1
210082,-35.7142857142857,4,2,1,80,0,1
210973,-100,4,2,1,80,0,1
211270,-40,4,2,1,80,0,1
211864,-133.333333333333,4,2,1,80,0,1
212458,-40,4,2,1,80,0,1
213052,-133.333333333333,4,2,1,80,0,1
213646,-33.3333333333333,4,2,1,80,0,1
214389,-55.5555555555556,4,2,1,80,0,1
215428,-66.6666666666667,4,2,1,80,0,1
216023,-40,4,2,1,60,0,0
225527,-50,4,2,1,60,0,0
226121,-66.6666666666667,4,2,1,60,0,0
227309,-37.037037037037,4,2,1,60,0,0
227903,-50,4,2,1,60,0,0
229686,-76.9230769230769,4,2,1,60,0,0
230280,-40,4,2,1,60,0,0
232804,-80,4,2,1,60,0,0
235032,-76.9230769230769,4,2,1,50,0,0
243351,594.059405940594,4,2,1,50,1,0
245727,-100,4,2,1,70,0,0
246618,-100,4,2,1,50,0,0
246915,-100,4,2,1,70,0,0
247806,-64.5161290322581,4,2,1,50,0,0
248103,-40,4,2,1,80,0,1
248400,-32.258064516129,4,2,1,80,0,1
248697,-133.333333333333,4,2,1,80,0,1
249291,-34.4827586206897,4,2,1,80,0,1
250479,-66.6666666666667,4,2,1,80,0,1
250776,-38.4615384615385,4,2,1,80,0,1
251667,-58.8235294117647,4,2,1,80,0,1
252410,-181.818181818181,4,2,1,80,0,1
252855,-50,4,2,1,80,0,1
253152,-32.258064516129,4,2,1,80,0,1
253449,-133.333333333333,4,2,1,80,0,1
254043,-34.4827586206897,4,2,1,80,0,1
255231,-55.5555555555556,4,2,1,80,0,1
255528,-38.4615384615385,4,2,1,80,0,1
255974,-66.6666666666667,4,2,1,80,0,1
256420,555.555555555556,4,2,1,80,1,1
256420,-50,4,2,1,80,0,1
256975,598.503740648379,4,2,0,70,1,0
261763,594.059405940594,4,2,0,70,1,0
266515,618.556701030928,4,2,0,70,1,0
267752,586.79706601467,4,2,0,70,1,0
271265,600,4,2,0,70,1,0
274715,-83.3333333333333,4,2,0,20,0,0

[Colours]
Combo1 : 24,228,183
Combo2 : 230,0,230
Combo3 : 18,124,255
Combo4 : 255,128,64

[HitObjects]
130,188,40183,6,0,L|55:198,2,75,2|2|2,3:2|0:0|0:0,0:0:0:0:
192,245,40777,2,0,L|183:310,2,50,8|2|2,0:0|0:0|0:0,0:0:0:0:
208,161,41371,5,2,3:2:0:0:
265,96,41668,1,0,3:2:0:0:
409,164,41965,1,8,0:0:0:0:
474,105,42188,1,0,3:2:0:0:
474,105,42262,1,0,3:2:0:0:
393,246,42559,6,0,P|399:278|427:312,2,75,2|2|2,3:2|0:0|0:0,0:0:0:0:
485,210,43153,2,0,P|499:230|506:254,2,50,8|2|2,0:0|0:0|0:0,0:0:0:0:
409,164,43747,5,2,3:2:0:0:
380,246,44044,1,0,3:2:0:0:
201,182,44341,1,8,0:0:0:0:
230,264,44638,1,0,3:2:0:0:
230,264,44737,2,0,P|215:278|185:291,1,33.3333333333333
130,236,44935,6,0,P|89:259|67:298,2,75,2|2|2,3:2|0:0|0:0,0:0:0:0:
213,284,45529,2,0,P|217:308|232:328,2,50,8|2|2,0:0|0:0|0:0,0:0:0:0:
331,188,46123,5,2,3:2:0:0:
304,272,46420,1,0,3:2:0:0:
377,53,46717,5,8,0:0:0:0:
404,137,46915,1,0,3:2:0:0:
404,137,47014,1,0,3:2:0:0:
469,72,47311,6,0,P|500:58|544:62,2,75,2|2|2,3:2|0:0|0:0,0:0:0:0:
436,205,47905,5,10,0:0:0:0:
404,137,48054,1,2,0:0:0:0:
330,125,48202,1,2,0:0:0:0:
123,373,48500,5,10,3:2:0:0:
103,300,49124,6,0,L|111:250,1,37.5000014305115,2|2,0:0|0:0,0:0:0:0:
179,278,49430,2,0,L|173:315,1,37.5000014305115,2|2,0:0|0:0,0:0:0:0:
51,202,49736,6,0,B|35:148|35:148|3:151|3:151|12:135|41:154|71:128,1,150.000005722046,2|0,0:0|0:0,0:0:0:0:
172,147,52064,2,0,B|132:140|122:188|141:210|179:163|179:163|187:199|230:194|230:194|263:146|246:86|246:86|276:139|277:212|277:212|335:201|344:107|344:107|363:187|315:236|315:236|369:254|404:235|404:235|367:269|373:305|418:330|463:296|463:296|412:374|320:348,1,1100.00003356934,2|0,0:0|0:0,0:0:0:0:
323,349,58599,6,0,P|315:339|304:330,1,27.5000008392334,2|2,0:0|0:0,0:0:0:0:
298,338,58896,2,0,P|308:346|317:357,1,27.5000008392334,2|2,0:0|0:0,0:0:0:0:
205,358,59193,6,0,P|202:328|212:292,2,56.2500021457673,2|2|2,3:2|0:0|0:0,0:0:0:0:
127,278,59787,2,0,P|138:253|152:238,1,37.5000014305115,2|0,3:2|3:2,0:0:0:0:
222,223,60084,2,0,P|247:213|267:212,1,37.5000014305115,2|0,0:0|0:0,0:0:0:0:
365,277,60381,5,2,3:2:0:0:
431,231,60579,1,2,3:2:0:0:
431,231,60678,2,0,P|444:258|445:276,1,37.5000014305115,2|0,3:2|0:0,0:0:0:0:
406,344,60975,2,0,P|365:357|324:346,1,75.0000028610231,2|0,3:2|0:0,0:0:0:0:
212,202,61569,5,2,3:2:0:0:
252,140,61717,2,0,L|245:108,2,18.7500007152558,2|2|2,0:0|0:0|0:0,0:0:0:0:
208,213,62014,6,0,P|168:205|141:182,1,75.0000028610231,2|0,3:2|0:0,0:0:0:0:
84,128,62460,2,0,P|73:142|68:169,1,37.5000014305115,2|2,3:2|3:2,0:0:0:0:
30,229,62757,2,0,P|34:247|45:262,3,37.5000014305115,2|0|2|2,3:2|0:0|3:2|0:0,0:0:0:0:
89,325,63351,5,2,3:2:0:0:
156,290,63500,1,2,3:2:0:0:
216,336,63648,1,2,3:2:0:0:
410,312,63945,5,2,3:2:0:0:
410,312,64094,2,0,L|397:227,1,75.0000028610231,0|0,3:2|3:2,0:0:0:0:
323,208,64539,2,0,L|311:133,1,75.0000028610231,2|0,3:2|0:0,0:0:0:0:
348,67,64985,1,0,3:2:0:0:
293,18,65133,1,2,3:2:0:0:
200,78,65430,6,0,L|236:85,1,37.5000014305115,0|0,3:2|0:0,0:0:0:0:
311,133,65727,2,0,L|405:144,2,75.0000028610231,0|0|2,3:2|0:0|3:2,0:0:0:0:
193,197,66618,6,0,P|185:216|183:254,1,37.5000014305115,2|0,0:0|3:2,0:0:0:0:
122,282,66915,2,0,P|138:294|174:306,2,37.5000014305115,2|0|0,3:2|0:0|0:0,0:0:0:0:
185,372,67361,1,0,3:2:0:0:
185,372,67509,2,0,P|201:359|222:327,1,37.5000014305115,2|0,0:0|0:0,0:0:0:0:
288,334,67806,2,0,P|280:314|254:286,1,37.5000014305115,0|0,3:2|0:0,0:0:0:0:
182,232,68103,1,0,3:2:0:0:
182,232,68698,6,0,P|150:201|141:156,2,62.5,2|0|2,3:2|0:0|0:0,0:0:0:0:
265,234,69143,1,2,3:2:0:0:
223,100,69292,2,0,P|216:130|221:160,1,62.5,10|0,0:0|0:0,0:0:0:0:
345,221,69589,1,2,0:0:0:0:
392,151,69737,1,2,0:0:0:0:
477,161,69886,6,0,P|504:193|486:274,1,125,2|0,3:2|0:0,0:0:0:0:
397,291,70331,1,0,3:2:0:0:
345,221,70480,1,8,0:0:0:0:
257,381,70777,1,0,0:0:0:0:
90,321,71074,6,0,P|73:286|75:244,1,62.5,2|2,3:2|0:0,0:0:0:0:
0,211,71371,2,0,P|8:181|27:156,1,62.5,2|0,0:0|3:2,0:0:0:0:
14,69,71668,2,0,P|41:53|71:49,1,62.5,10|0,0:0|0:0,0:0:0:0:
162,120,71965,5,2,3:2:0:0:
225,183,72113,1,2,3:2:0:0:
312,151,72262,1,2,3:2:0:0:
292,19,72559,6,0,P|262:44|247:80,1,62.5,0|0,3:2|3:2,0:0:0:0:
312,151,72856,2,0,P|361:115|445:124,1,125,10|2,0:0|0:0,0:0:0:0:
494,177,73301,1,0,3:2:0:0:
469,261,73450,6,0,P|419:297|357:297,1,125,2|0,3:2|0:0,0:0:0:0:
281,249,73896,1,2,3:2:0:0:
332,370,74044,2,0,P|288:341|274:311,1,62.5,10|0,0:0|0:0,0:0:0:0:
281,249,74341,1,2,3:2:0:0:
192,350,74490,5,0,3:2:0:0:
192,350,74564,1,0,3:2:0:0:
192,350,74638,2,0,P|198:293|179:241,1,100,2|0,3:2|0:0,0:0:0:0:
68,184,75084,1,0,3:2:0:0:
97,310,75232,1,8,0:0:0:0:
145,118,75678,5,0,3:2:0:0:
76,175,75826,2,0,L|3:163,2,62.5,2|2|0,3:2|0:0|0:0,0:0:0:0:
188,250,76272,5,2,3:2:0:0:
296,136,76420,1,8,0:0:0:0:
344,211,76568,2,0,L|417:222,2,62.5,2|2|0,0:0|3:2|3:2,0:0:0:0:
273,265,77014,5,2,3:2:0:0:
296,136,77163,1,8,0:0:0:0:
289,128,77460,5,0,0:0:0:0:
353,297,77608,1,8,0:0:0:0:
498,186,77757,1,10,0:0:0:0:
406,217,77905,5,2,3:2:0:0:
447,279,78054,1,0,3:2:0:0:
438,352,78202,1,2,3:2:0:0:
197,317,78500,5,2,3:2:0:0:
238,379,78649,1,0,3:2:0:0:
237,249,78797,2,0,P|255:220|256:178,2,62.5,10|0|0,0:0|0:0|3:2,0:0:0:0:
91,187,79242,5,10,0:0:0:0:
176,187,79391,2,0,P|171:156|154:130,1,62.5,2|0,0:0|0:0,0:0:0:0:
70,103,79688,2,0,P|41:113|19:135,1,62.5,0|0,3:2|0:0,0:0:0:0:
185,192,79985,1,10,0:0:0:0:
335,287,80282,5,0,3:2:0:0:
423,259,80430,1,0,3:2:0:0:
423,259,80504,1,0,3:2:0:0:
423,259,80579,2,0,L|431:195,1,62.5,2|0,3:2|0:0,0:0:0:0:
330,279,80876,2,0,L|322:341,1,62.5,0|0,0:0|3:2,0:0:0:0:
257,153,81173,5,10,0:0:0:0:
185,192,81321,1,0,0:0:0:0:
121,147,81470,1,0,0:0:0:0:
190,115,81618,1,0,3:2:0:0:
190,115,81693,1,0,3:2:0:0:
190,115,81767,1,0,3:2:0:0:
394,348,82064,5,0,3:2:0:0:
473,315,82212,1,0,3:2:0:0:
340,285,82361,1,10,0:0:0:0:
179,381,82658,6,0,L|164:296,1,62.5
248,212,82955,2,0,L|237:273,1,62.5,2|2,3:2|0:0,0:0:0:0:
160,315,83252,1,2,0:0:0:0:
91,275,83401,1,0,3:2:0:0:
88,127,83549,6,0,P|112:110|143:106,1,62.5,10|0,0:0|0:0,0:0:0:0:
222,140,83846,1,0,0:0:0:0:
151,193,83995,1,0,3:2:0:0:
151,193,84069,1,0,3:2:0:0:
151,193,84143,1,2,3:2:0:0:
77,128,84292,1,2,0:0:0:0:
2,171,84440,2,0,P|-3:203|9:237,1,62.5,2|0,0:0|0:0,0:0:0:0:
227,217,84737,6,0,P|232:185|220:151,1,62.5,10|0,0:0|0:0,0:0:0:0:
171,95,85034,1,0,0:0:0:0:
221,35,85183,1,0,3:2:0:0:
221,35,85257,1,0,3:2:0:0:
221,35,85331,1,2,3:2:0:0:
298,48,85480,1,2,0:0:0:0:
354,110,85628,1,2,0:0:0:0:
431,97,85777,1,2,3:2:0:0:
502,218,85925,6,0,L|513:153,1,62.5,10|0,0:0|0:0,0:0:0:0:
434,103,86222,1,0,3:2:0:0:
412,245,86371,1,8,0:0:0:0:
343,307,86519,2,0,L|352:356,3,50,0|0|0|0,0:0|3:2|0:0|3:2,0:0:0:0:
211,193,87113,5,10,0:0:0:0:
412,245,87262,1,10,0:0:0:0:
246,282,87410,1,2,3:2:0:0:
246,282,87707,6,0,P|291:227|303:167,1,129.999994049073,2|2,3:2|0:0,0:0:0:0:
246,116,88153,1,2,3:2:0:0:
395,175,88301,2,0,P|369:108|324:68,1,129.999994049073,10|2,0:0|0:0,0:0:0:0:
240,109,88747,1,2,3:2:0:0:
153,55,88895,5,2,3:2:0:0:
157,76,89192,1,0,3:2:0:0:
52,169,89490,1,10,0:0:0:0:
56,147,89787,1,0,3:2:0:0:
149,46,90083,6,0,P|185:102|185:177,1,129.999994049073,2|2,3:2|0:0,0:0:0:0:
119,221,90529,1,2,3:2:0:0:
272,219,90678,2,0,P|327:186|359:130,1,129.999994049073,10|2,0:0|0:0,0:0:0:0:
246,32,91124,1,2,3:2:0:0:
268,125,91272,1,2,3:2:0:0:
367,128,91866,5,10,0:0:0:0:
350,211,92014,1,2,0:0:0:0:
335,295,92163,1,2,0:0:0:0:
226,316,92311,1,0,3:2:0:0:
229,327,92385,1,0,3:2:0:0:
235,336,92460,6,0,P|233:263|207:195,1,129.999994049073,2|2,3:2|0:0,0:0:0:0:
162,144,92905,1,2,3:2:0:0:
147,297,93054,2,0,P|118:229|70:175,1,129.999994049073,10|2,0:0|0:0,0:0:0:0:
5,151,93499,1,2,3:2:0:0:
8,265,93648,5,2,3:2:0:0:
11,253,93945,1,0,3:2:0:0:
162,144,94242,1,10,0:0:0:0:
165,132,94539,1,0,3:2:0:0:
323,16,94836,6,0,P|360:52|366:117,1,97.4999955368044,2|2,3:2|0:0,0:0:0:0:
269,104,95281,5,2,3:2:0:0:
475,100,95430,2,0,P|468:131|449:157,1,64.9999970245363,10|0,0:0|0:0,0:0:0:0:
403,250,95727,2,0,P|372:259|340:256,1,64.9999970245363,2|0,3:2|3:2,0:0:0:0:
281,217,95950,1,0,3:2:0:0:
281,217,96024,1,2,3:2:0:0:
117,365,96474,5,2,3:2:0:0:
48,234,96624,1,10,0:0:0:0:
67,209,96771,1,2,3:2:0:0:
98,211,96918,1,2,3:2:0:0:
117,365,97212,5,4,3:2:0:0:
117,365,97806,1,2,3:2:0:0:
184,106,98103,1,2,3:2:0:0:
18,327,98401,6,0,P|51:278|108:268,1,119.999996337891,2|0,3:2|0:0,0:0:0:0:
193,348,101965,1,2,0:0:0:0:
193,348,102113,1,2,0:0:0:0:
90,333,102410,2,0,P|96:299|119:273,1,59.9999981689454,2|2,0:0|0:0,0:0:0:0:
193,348,102856,2,0,P|171:337|160:324,1,29.9999990844727,2|0,0:0|0:0,0:0:0:0:
111,279,103153,2,0,P|106:241|114:212,1,59.9999981689454,2|0,0:0|0:0,0:0:0:0:
173,165,103747,1,2,0:0:0:0:
287,344,104341,5,2,0:0:0:0:
287,344,104489,1,2,0:0:0:0:
350,291,104638,2,0,L|340:254,1,29.9999990844727,2|0,0:0|0:0,0:0:0:0:
449,361,104935,2,0,L|430:292,1,59.9999981689454,2|2,0:0|0:0,0:0:0:0:
401,199,105381,1,2,0:0:0:0:
401,199,105529,1,2,0:0:0:0:
371,377,106123,5,2,0:0:0:0:
371,377,106272,1,2,0:0:0:0:
371,377,106420,1,2,0:0:0:0:
283,345,106717,6,0,L|209:360,1,59.9999981689454,2|2,0:0|0:0,0:0:0:0:
140,368,107163,2,0,L|147:322,1,29.9999990844727,2|0,0:0|0:0,0:0:0:0:
72,335,107460,2,0,L|79:289,1,29.9999990844727,2|2,0:0|0:0,0:0:0:0:
4,305,107757,1,2,0:0:0:0:
136,257,108054,1,2,0:0:0:0:
11,194,108351,1,2,0:0:0:0:
11,194,108500,1,2,0:0:0:0:
140,161,108797,5,2,0:0:0:0:
159,176,108945,1,2,0:0:0:0:
178,167,109094,1,2,0:0:0:0:
238,205,109391,1,2,0:0:0:0:
310,177,109688,1,2,0:0:0:0:
401,234,109985,6,0,P|430:243|400:222,1,100,2|0,0:0|0:0,0:0:0:0:
305,258,110282,5,2,0:0:0:0:
228,115,110430,1,2,0:0:0:0:
106,233,110579,1,2,0:0:0:0:
0,0,110876,1,2,0:0:0:0:
480,384,111173,5,0,3:2:0:0:
477,371,111247,1,0,3:2:0:0:
475,359,111321,1,0,3:2:0:0:
472,347,111395,1,0,3:2:0:0:
470,334,111470,2,0,L|453:257,1,50,2|2,3:2|0:0,0:0:0:0:
390,237,111767,1,0,0:0:0:0:
457,150,111915,1,2,3:2:0:0:
353,309,112064,6,0,P|319:279|313:216,1,100,10|2,0:0|0:0,0:0:0:0:
349,149,112509,1,0,3:2:0:0:
349,149,112584,1,0,3:2:0:0:
349,149,112658,1,2,3:2:0:0:
214,270,112955,1,0,0:0:0:0:
139,233,113103,1,0,3:2:0:0:
49,358,113252,2,0,L|59:294,2,50,8|0|0,0:0|0:0|0:0,0:0:0:0:
35,174,113846,5,2,3:2:0:0:
91,125,113995,1,2,0:0:0:0:
75,51,114143,1,2,0:0:0:0:
19,100,114292,1,2,0:0:0:0:
105,198,114440,1,2,3:2:0:0:
206,77,114589,2,0,P|228:78|264:102,1,50,10|0,0:0|0:0,0:0:0:0:
265,246,114886,5,0,0:0:0:0:
207,160,115034,1,2,3:2:0:0:
237,176,115108,1,0,3:2:0:0:
270,171,115183,2,0,P|294:159|310:136,1,50,0|0,3:2|3:2,0:0:0:0:
361,18,115480,5,0,3:2:0:0:
512,86,115628,1,2,0:0:0:0:
378,106,115777,1,2,3:2:0:0:
444,139,115925,2,0,L|452:199,1,50,2|0,0:0|0:0,0:0:0:0:
467,322,116222,5,2,3:2:0:0:
467,322,116371,2,0,L|459:262,1,50,2|0,3:2|0:0,0:0:0:0:
450,188,116668,1,2,3:2:0:0:
367,289,116816,2,0,L|244:273,1,100,10|2,0:0|0:0,0:0:0:0:
188,302,117262,1,0,3:2:0:0:
188,302,117336,1,0,3:2:0:0:
188,302,117410,1,2,3:2:0:0:
148,168,117707,5,0,0:0:0:0:
124,242,117856,1,0,3:2:0:0:
276,199,118004,2,0,L|342:183,1,50,8|0,0:0|3:2,0:0:0:0:
408,204,118301,2,0,L|474:188,1,50,0|0,0:0|3:2,0:0:0:0:
512,60,118599,6,0,L|502:124,2,64.9999970245363,2|2|0,3:2|0:0|0:0,0:0:0:0:
456,192,119044,1,2,3:2:0:0:
391,54,119193,6,0,L|405:127,1,64.9999970245363,10|0,0:0|0:0,0:0:0:0:
463,196,119490,1,2,3:2:0:0:
416,272,119638,1,8,0:0:0:0:
326,270,119787,1,2,3:2:0:0:
225,145,119935,5,8,0:0:0:0:
94,185,120084,1,8,0:0:0:0:
173,206,120232,1,0,3:2:0:0:
281,336,120381,5,10,0:0:0:0:
171,217,120529,1,10,0:0:0:0:
42,255,120678,1,2,3:2:0:0:
420,280,120975,6,0,L|452:109,1,150.000005722046,6|0,0:0|0:0,0:0:0:0:
503,59,121420,1,2,3:2:0:0:
363,136,121569,1,10,0:0:0:0:
137,51,121866,1,2,3:2:0:0:
22,250,122163,6,0,P|18:305|42:346,1,97.4999955368044,2|0,3:2|0:0,0:0:0:0:
140,272,122608,5,0,3:2:0:0:
14,143,122757,1,10,0:0:0:0:
140,373,123054,1,0,0:0:0:0:
348,286,123351,5,2,3:2:0:0:
348,286,123425,1,0,3:2:0:0:
348,286,123500,1,2,3:2:0:0:
422,261,123648,1,0,3:2:0:0:
465,328,123797,1,2,3:2:0:0:
512,159,123945,5,10,0:0:0:0:
422,261,124094,1,0,3:2:0:0:
324,186,124242,1,2,3:2:0:0:
157,367,124391,5,8,0:0:0:0:
90,291,124539,1,10,0:0:0:0:
259,356,124688,1,8,0:0:0:0:
324,186,124836,1,8,0:0:0:0:
154,122,124985,1,8,0:0:0:0:
207,262,125133,5,2,3:2:0:0:
221,247,125281,1,2,3:2:0:0:
245,251,125430,1,2,3:2:0:0:
259,356,125727,6,0,P|312:342|349:272,1,129.999994049073,6|2,3:2|0:0,0:0:0:0:
319,191,126173,1,2,3:2:0:0:
465,294,126321,2,0,P|412:311|343:272,1,129.999994049073,10|2,0:0|0:0,0:0:0:0:
319,191,126767,1,2,0:0:0:0:
415,195,126915,5,2,3:2:0:0:
411,216,127212,1,0,3:2:0:0:
268,256,127510,1,10,0:0:0:0:
264,278,127807,1,0,3:2:0:0:
182,320,127955,1,0,3:2:0:0:
182,320,128029,1,0,3:2:0:0:
182,320,128103,6,0,P|142:250|148:183,1,129.999994049073,2|2,3:2|0:0,0:0:0:0:
204,146,128548,1,2,3:2:0:0:
125,45,128697,2,0,P|86:71|87:168,1,129.999994049073,10|2,0:0|0:0,0:0:0:0:
142,202,129142,1,2,3:2:0:0:
204,146,129291,1,2,3:2:0:0:
330,272,129886,5,10,0:0:0:0:
414,290,130034,1,2,0:0:0:0:
443,211,130183,1,2,0:0:0:0:
351,176,130331,1,0,3:2:0:0:
354,187,130405,1,0,3:2:0:0:
360,196,130480,6,0,P|373:126|332:55,1,129.999994049073,2|2,3:2|0:0,0:0:0:0:
271,58,130925,1,2,3:2:0:0:
384,1,131074,2,0,P|321:45|250:59,1,129.999994049073,10|2,0:0|0:0,0:0:0:0:
199,16,131519,1,2,3:2:0:0:
133,86,131668,5,2,3:2:0:0:
136,74,131965,1,0,3:2:0:0:
3,10,132262,1,10,0:0:0:0:
6,22,132559,1,0,3:2:0:0:
136,74,132856,6,0,L|115:181,1,97.4999955368044,2|2,3:2|0:0,0:0:0:0:
101,258,133301,5,2,3:2:0:0:
196,335,133450,2,0,L|174:244,1,64.9999970245363,10|0,0:0|0:0,0:0:0:0:
101,258,133747,1,2,3:2:0:0:
237,212,133896,1,8,0:0:0:0:
127,170,134044,5,2,3:2:0:0:
139,158,134193,1,0,3:2:0:0:
238,225,134341,1,8,0:0:0:0:
345,187,134490,1,8,0:0:0:0:
418,323,134638,5,10,0:0:0:0:
477,269,134787,1,2,3:2:0:0:
462,247,134935,1,2,0:0:0:0:
440,244,135084,1,2,0:0:0:0:
186,350,135232,6,0,P|146:348|89:257,1,150.000005722046,6|0,3:2|0:0,0:0:0:0:
175,263,135678,1,2,3:2:0:0:
25,332,135826,2,0,P|44:259|58:185,1,150.000005722046,10|2,0:0|0:0,0:0:0:0:
220,56,136420,6,0,P|239:128|253:202,1,150.000005722046,2|0,3:2|0:0,0:0:0:0:
194,361,137014,1,8,0:0:0:0:
253,202,137311,1,0,3:2:0:0:
326,154,137460,1,0,3:2:0:0:
326,154,137534,1,0,3:2:0:0:
326,154,137608,6,0,P|376:164|417:249,1,150.000005722046,2|0,3:2|0:0,0:0:0:0:
370,319,138054,1,2,3:2:0:0:
187,272,138202,2,0,P|265:248|333:241,1,150.000005722046,10|2,0:0|0:0,0:0:0:0:
374,326,138647,1,2,3:2:0:0:
336,233,138797,6,0,P|261:241|190:263,1,150.000005722046,2|0,3:2|0:0,0:0:0:0:
0,384,139391,2,0,P|47:326|105:278,1,150.000005722046,10|0,0:0|0:0,0:0:0:0:
190,263,139836,1,0,3:2:0:0:
250,321,139985,5,2,3:2:0:0:
367,240,140133,2,0,P|355:204|330:177,1,75.0000028610231,2|0,0:0|0:0,0:0:0:0:
284,248,140430,1,2,3:2:0:0:
425,324,140579,2,0,P|453:270|447:183,1,150.000005722046,10|2,0:0|0:0,0:0:0:0:
287,41,141173,6,0,P|361:44|423:85,1,150.000005722046,2|0,3:2|0:0,0:0:0:0:
367,249,141767,2,0,P|292:246|231:205,1,150.000005722046,10|0,0:0|0:0,0:0:0:0:
111,46,142361,6,0,P|65:51|20:103,1,112.500004291535,2|2,3:2|0:0,0:0:0:0:
126,175,142806,5,2,3:2:0:0:
197,112,142955,1,10,0:0:0:0:
394,174,143252,1,2,3:2:0:0:
485,362,143549,6,0,P|434:339|374:254,1,150.000005722046,2|0,3:2|0:0,0:0:0:0:
219,109,144143,6,0,P|185:92|152:92,1,50,10|2,0:0|0:0,0:0:0:0:
95,113,144440,2,0,P|64:133|59:149,2,32.4999985122681,2|2|0,0:0|0:0|0:0,0:0:0:0:
64,232,144737,5,2,0:0:0:0:
56,246,145331,6,0,B|74:264|74:264|77:238,1,50
41,147,148896,1,8,0:0:0:0:
137,96,149044,1,8,0:0:0:0:
181,184,149193,1,8,0:0:0:0:
85,235,149341,1,8,0:0:0:0:
187,170,149490,6,0,P|230:178|264:222,1,100,2|0,3:2|0:0,0:0:0:0:
218,285,149935,1,2,3:2:0:0:
332,183,150084,2,0,P|340:217|334:250,1,50,10|0,0:0|0:0,0:0:0:0:
263,220,150381,1,0,0:0:0:0:
389,336,150529,6,0,P|430:308|453:251,1,100,10|0,0:0|0:0,0:0:0:0:
512,214,150975,2,0,P|511:189|500:163,1,50,0|0,3:2|0:0,0:0:0:0:
348,103,151272,6,0,P|295:107|250:58,1,112.500004291535,8|0,0:0|0:0,0:0:0:0:
250,55,151792,1,0,3:2:0:0:
251,41,151866,6,0,P|276:113|279:181,1,139.999995727539,2|0,3:2|0:0,0:0:0:0:
276,255,152311,1,2,3:2:0:0:
365,181,152460,2,0,P|311:206|283:258,1,119.999996337891,8|0,0:0|0:0,0:0:0:0:
391,291,152905,1,0,3:2:0:0:
391,291,152980,1,0,3:2:0:0:
391,291,153054,1,2,3:2:0:0:
206,137,153500,5,2,3:2:0:0:
81,180,153648,1,10,0:0:0:0:
155,201,153797,1,2,3:2:0:0:
206,137,153945,2,0,P|207:96|195:70,1,50,2|0,3:2|0:0,0:0:0:0:
48,90,154242,6,0,P|50:139|69:185,1,100,2|0,3:2|0:0,0:0:0:0:
160,195,154688,1,0,3:2:0:0:
270,297,154836,1,10,0:0:0:0:
171,268,155133,5,2,3:2:0:0:
316,237,155282,1,8,0:0:0:0:
365,356,155430,2,0,L|389:250,1,100,2|0,3:2|0:0,0:0:0:0:
436,38,156024,1,8,0:0:0:0:
512,115,156470,5,0,3:2:0:0:
512,115,156544,1,0,3:2:0:0:
512,115,156618,2,0,P|454:126|406:147,1,100,2|0,3:2|0:0,0:0:0:0:
348,189,157064,1,0,3:2:0:0:
327,9,157212,2,0,P|341:56|348:106,1,100,10|0,0:0|0:0,0:0:0:0:
255,172,157658,5,0,3:2:0:0:
255,172,157732,1,0,3:2:0:0:
255,172,157806,1,0,3:2:0:0:
204,85,157955,1,0,3:2:0:0:
103,61,158103,1,0,3:2:0:0:
34,81,158252,1,0,3:2:0:0:
175,8,158400,5,8,0:0:0:0:
89,135,158548,1,8,0:0:0:0:
109,217,158697,1,0,3:2:0:0:
54,274,158845,1,0,3:2:0:0:
120,228,158995,6,0,P|203:247|252:315,1,150.000005722046,2|0,3:2|0:0,0:0:0:0:
131,369,159440,1,0,3:2:0:0:
253,285,159589,2,0,P|274:321|321:323,1,75.0000028610231,10|0,0:0|0:0,0:0:0:0:
387,351,159886,2,0,P|418:331|425:295,1,75.0000028610231,2|0,3:2|3:2,0:0:0:0:
420,281,160108,1,0,3:2:0:0:
406,268,160183,6,0,P|353:256|288:161,1,150.000005722046,2|0,3:2|0:0,0:0:0:0:
315,113,160628,1,2,3:2:0:0:
177,191,160777,5,10,0:0:0:0:
109,163,160925,1,0,0:0:0:0:
41,189,161074,1,0,3:2:0:0:
31,261,161222,1,0,3:2:0:0:
116,364,161371,5,2,3:2:0:0:
31,261,161519,2,0,P|65:267|92:290,1,59.9999981689454,2|0,0:0|0:0,0:0:0:0:
31,346,161816,5,2,3:2:0:0:
216,288,161965,2,0,P|269:277|317:275,1,94.9999974632264,10|0,0:0|0:0,0:0:0:0:
421,319,162262,1,2,3:2:0:0:
353,352,162410,1,0,3:2:0:0:
353,352,162485,1,0,3:2:0:0:
353,352,162559,6,0,P|435:348|503:308,1,150.000005722046,2|0,3:2|0:0,0:0:0:0:
512,234,163004,1,0,3:2:0:0:
337,153,163153,6,0,P|357:183|388:204,1,75.0000028610231,10|2,0:0|0:0,0:0:0:0:
463,176,163450,1,2,3:2:0:0:
488,93,163599,1,0,3:2:0:0:
488,93,163673,1,0,3:2:0:0:
488,93,163747,6,0,P|442:98|377:76,1,112.500004291535,2|0,3:2|0:0,0:0:0:0:
374,63,164044,1,0,3:2:0:0:
254,1,164193,1,2,3:2:0:0:
183,111,164341,1,10,0:0:0:0:
253,144,164490,6,0,P|267:101|299:83,1,75.0000028610231,2|0,3:2|3:2,0:0:0:0:
302,88,164861,1,0,3:2:0:0:
308,95,164935,6,0,P|248:177|236:249,1,145.000004425049,2|0,3:2|0:0,0:0:0:0:
295,271,165381,1,0,3:2:0:0:
123,283,165529,6,0,P|177:279|239:384,1,189.999994926453,10|0,0:0|0:0,0:0:0:0:
146,384,165975,1,2,3:2:0:0:
148,373,166049,1,0,3:2:0:0:
155,365,166123,1,2,3:2:0:0:
213,284,166272,2,0,P|210:245|158:193,1,100,2|0,3:2|0:0,0:0:0:0:
80,193,166569,1,0,3:2:0:0:
155,365,166717,5,10,0:0:0:0:
302,313,166866,1,0,3:2:0:0:
326,163,167014,2,0,P|312:136|289:117,1,59.9999981689454,0|0,3:2|0:0,0:0:0:0:
238,379,167311,5,2,3:2:0:0:
28,246,167460,1,8,0:0:0:0:
75,174,167608,1,0,0:0:0:0:
159,214,167757,1,8,0:0:0:0:
159,214,167831,1,8,0:0:0:0:
159,214,167905,1,10,0:0:0:0:
77,384,168054,1,8,0:0:0:0:
133,338,168202,6,0,B|116:311|116:311|89:314,1,59.9999981689454,2|0,0:0|0:0,0:0:0:0:
28,246,168500,5,0,3:2:0:0:
162,219,168797,1,0,3:2:0:0:
227,324,169094,1,8,0:0:0:0:
349,285,169391,5,0,3:2:0:0:
395,351,169539,1,0,3:2:0:0:
475,328,169688,1,0,3:2:0:0:
447,199,169985,5,0,3:2:0:0:
395,351,170282,1,8,0:0:0:0:
272,260,170579,1,0,3:2:0:0:
152,359,170876,6,0,P|147:340|145:322,1,37.5000014305115,2|2,3:2|0:0,0:0:0:0:
68,309,171173,2,0,P|73:291|81:273,1,37.5000014305115,2|2,3:2|0:0,0:0:0:0:
16,148,171470,5,10,0:0:0:0:
111,95,171618,1,2,0:0:0:0:
26,47,171767,1,2,0:0:0:0:
104,195,171915,1,10,0:0:0:0:
211,124,172064,6,0,P|223:99|224:80,1,37.5000014305115,2|2,3:2|0:0,0:0:0:0:
313,73,172361,2,0,P|308:54|299:38,1,37.5000014305115,2|2,3:2|0:0,0:0:0:0:
376,197,172658,1,10,0:0:0:0:
512,122,172955,6,0,P|484:146|447:148,1,75,0|0,3:2|0:0,0:0:0:0:
440,140,173252,2,0,P|412:115|375:112,1,75,0|0,3:2|3:2,0:0:0:0:
298,205,173846,1,8,0:0:0:0:
407,274,174143,5,0,0:0:0:0:
507,192,174292,1,8,3:2:0:0:
479,258,174440,1,0,3:2:0:0:
298,205,174737,1,0,3:2:0:0:
195,348,175034,1,8,0:0:0:0:
121,380,175183,1,0,0:0:0:0:
45,350,175331,2,0,P|31:319|31:277,1,59.9999981689454,0|0,3:2|0:0,0:0:0:0:
89,158,175628,6,0,P|110:216|116:301,1,134.999995880127,8|0,3:2|2:0,2:0:0:0:
300,370,176074,5,0,3:2:0:0:
412,237,176222,2,0,P|404:265|391:293,1,59.9999981689454,8|0,3:2|0:0,0:0:0:0:
442,384,176519,5,0,3:2:0:0:
452,377,176594,1,0,3:2:0:0:
460,370,176668,1,8,3:2:0:0:
468,361,176742,1,8,3:2:0:0:
474,352,176816,1,8,3:2:0:0:
408,227,176965,1,8,0:0:0:0:
486,271,177113,1,0,3:2:0:0:
425,130,177262,5,8,0:0:0:0:
453,136,177336,1,8,0:0:0:0:
477,155,177410,1,8,0:0:0:0:
265,299,177559,1,8,3:2:0:0:
152,263,177707,1,0,3:2:0:0:
88,312,177856,1,0,3:2:0:0:
408,227,178004,6,0,P|312:200|227:66,1,259.999988098145,6|0,3:2|0:0,0:0:0:0:
237,59,178450,2,0,P|254:86|256:118,1,64.9999970245363,2|2,3:2|0:0,0:0:0:0:
152,263,178599,5,10,0:0:0:0:
78,231,178747,1,2,3:2:0:0:
163,257,178896,1,2,3:2:0:0:
454,135,179193,6,0,P|358:162|273:296,1,259.999988098145,2|0,3:2|0:0,0:0:0:0:
285,302,179638,2,0,P|312:273|302:227,1,64.9999970245363,2|2,3:2|0:0,0:0:0:0:
235,132,179787,5,10,0:0:0:0:
224,59,179935,1,2,3:2:0:0:
225,130,180084,2,0,L|236:47,1,75.0000028610231,2|0,3:2|0:0,0:0:0:0:
410,282,180381,6,0,P|349:314|254:301,1,129.999994049073,6|2,3:2|0:0,0:0:0:0:
139,109,180678,1,2,3:2:0:0:
52,181,180826,1,2,3:2:0:0:
229,145,180975,1,10,0:0:0:0:
153,203,181123,2,0,P|138:180|140:108,1,100,2|0,3:2|0:0,0:0:0:0:
343,182,181569,5,2,3:2:0:0:
262,234,181717,2,0,P|289:192|334:173,1,100,2|0,3:2|0:0,0:0:0:0:
503,273,182014,1,2,3:2:0:0:
500,282,182163,5,10,0:0:0:0:
416,299,182311,1,0,3:2:0:0:
343,255,182460,1,0,3:2:0:0:
31,356,182757,5,6,3:2:0:0:
46,351,183054,1,0,3:2:0:0:
115,315,183351,1,0,3:2:0:0:
162,232,183648,1,0,3:2:0:0:
3,55,183945,5,2,3:2:0:0:
31,202,184242,1,0,3:2:0:0:
200,311,184539,1,0,3:2:0:0:
512,247,184836,1,0,3:2:0:0:
385,0,185139,5,10,3:2:0:0:
347,91,185284,1,10,3:2:0:0:
409,168,185430,1,10,3:2:0:0:
371,259,185575,1,10,3:2:0:0:
130,158,185721,5,10,3:2:0:0:
347,91,185867,1,10,3:2:0:0:
100,318,186012,5,10,3:2:0:0:
42,73,186158,1,10,3:2:0:0:
191,302,186303,6,0,P|192:326|182:368,2,50,10|0|0,3:2|0:0|0:0,0:0:0:0:
189,360,186903,6,2,B|282:367|252:305|357:305,1,175,2|0,0:0|0:0,0:1:0:0:
434,361,187509,6,0,L|-8:308,1,435.000013275147,4|0,3:2|0:0,0:0:0:0:
69,143,188103,6,0,P|123:170|157:240,1,125,10|0,0:0|0:0,0:0:0:0:
2,309,188401,1,0,3:2:0:0:
61,240,188549,1,8,0:0:0:0:
274,314,188698,6,0,P|300:257|261:111,1,217.500006637573,2|0,3:2|0:0,0:0:0:0:
266,102,188995,6,0,P|288:124|305:159,1,62.5,2|0,3:2|0:0,0:0:0:0:
427,82,189143,2,0,P|390:30|328:-2,2,125,2|8|0,3:2|0:0|0:0,0:0:0:0:
410,316,189589,5,2,3:2:0:0:
510,241,189737,1,10,0:0:0:0:
274,314,189886,6,0,B|200:333|161:273|161:273|124:215|47:228,1,225.000008583069,2|0,3:2|0:0,0:0:0:0:
0,305,190183,2,0,B|24:353|74:329|74:329|33:324|11:281,1,150.000005722046,2|0,3:2|0:0,0:0:0:0:
30,150,190480,6,0,P|6:166|-6:191,1,57.5000010967255,10|0,0:0|0:0,0:0:0:0:
82,225,190628,2,0,P|137:190|242:217,1,172.500003290176,2|0,3:2|0:0,0:0:0:0:
326,245,190925,1,8,0:0:0:0:
243,67,191074,6,0,P|247:172|325:244,1,217.500006637573,2|0,3:2|0:0,0:0:0:0:
400,213,191371,1,2,0:0:0:0:
329,369,191519,1,2,3:2:0:0:
494,316,191668,5,8,0:0:0:0:
325,244,191816,1,8,0:0:0:0:
417,372,191965,2,0,P|414:335|392:305,1,75,0|0,3:2|0:0,0:0:0:0:
494,316,192262,6,0,P|247:300|160:116,1,435.000013275147,2|0,3:2|0:0,0:0:0:0:
261,0,192856,6,0,P|205:27|174:81,1,125,10|0,0:0|0:0,0:0:0:0:
283,127,193152,1,0,3:2:0:0:
363,38,193301,1,8,0:0:0:0:
162,154,193449,6,0,B|96:135|48:214|87:242|87:242|102:178|166:161,1,262.500002503395,2|0,3:2|0:0,0:0:0:0:
224,315,193746,6,0,P|200:294|189:265,1,62.5,2|0,3:2|0:0,0:0:0:0:
275,127,193895,2,0,P|259:186|280:244,2,125,2|8|0,3:2|0:0|3:2,0:0:0:0:
485,231,194340,5,2,3:2:0:0:
386,286,194490,1,2,3:2:0:0:
437,75,194637,6,0,P|398:150|377:291,1,225.000008583069,2|0,3:2|0:0,0:0:0:0:
419,382,194934,2,0,B|460:370|457:321|457:321|444:353|399:373,1,150.000005722046,2|0,3:2|0:0,0:0:0:0:
152,269,195231,6,0,P|164:243|188:227,1,57.5000010967255,10|0,0:0|0:0,0:0:0:0:
398,384,195380,2,0,P|303:376|233:288,1,194.999991073609,2|0,3:2|0:0,0:0:0:0:
283,212,195677,1,8,0:0:0:0:
56,274,195825,6,0,P|98:176|197:137,1,217.500006637573,2|0,3:2|0:0,0:0:0:0:
319,284,196122,1,2,3:2:0:0:
195,222,196272,1,2,3:2:0:0:
371,218,196419,5,8,0:0:0:0:
142,280,196569,1,8,0:0:0:0:
303,357,196716,2,0,P|340:359|370:339,1,75,0|0,3:2|0:0,0:0:0:0:
449,326,197013,6,0,P|369:296|367:212,1,179.999994506836,2|0,3:2|0:0,0:0:0:0:
500,87,197608,2,0,P|452:195|444:313,1,237.499993658066,10|0,0:0|0:0,0:0:0:0:
497,380,198054,1,0,3:2:0:0:
367,212,198202,6,0,P|319:181|245:191,1,115.000002193451,2|0,3:2|0:0,0:0:0:0:
95,289,198500,1,2,3:2:0:0:
166,174,198648,1,2,3:2:0:0:
117,384,198797,2,0,P|167:357|196:288,1,115.000002193451,8|0,0:0|0:0,0:0:0:0:
69,158,199094,5,2,3:2:0:0:
193,307,199242,1,0,3:2:0:0:
170,177,199391,6,0,P|189:128|249:104,1,89.9999972534181,2|0,3:2|0:0,0:0:0:0:
298,49,199688,2,0,P|350:54|388:106,1,89.9999972534181,2|0,3:2|0:0,0:0:0:0:
363,287,199985,5,10,0:0:0:0:
307,129,200133,1,2,3:2:0:0:
391,180,200282,2,0,P|415:176|464:122,1,93.75,2|0,0:0|0:0,0:0:0:0:
454,122,200579,6,0,P|361:192|378:311,1,220.000006713867,2|0,3:2|0:0,0:0:0:0:
483,287,201024,6,0,P|457:297|438:317,1,55.0000016784668,2|0,3:2|3:2,0:0:0:0:
497,367,201173,5,10,0:0:0:0:
387,189,201321,1,8,0:0:0:0:
281,308,201470,2,0,P|244:324|202:316,1,75,0|0,3:2|0:0,0:0:0:0:
196,305,201767,6,0,P|180:221|97:205,1,179.999994506836,2|0,3:2|0:0,0:0:0:0:
77,343,202361,2,0,P|153:254|267:232,1,237.499993658066,10|0,0:0|0:0,0:0:0:0:
349,266,202807,1,8,0:0:0:0:
261,121,202955,6,0,P|250:179|277:245,1,115.000002193451,2|0,3:2|0:0,0:0:0:0:
425,215,203251,1,2,3:2:0:0:
349,266,203400,1,2,3:2:0:0:
431,135,203548,2,0,P|386:97|331:86,1,115.000002193451,8|0,0:0|0:0,0:0:0:0:
213,344,203845,6,0,P|184:340|158:327,1,57.5000010967255,2|0,3:2|0:0,0:0:0:0:
107,383,203994,2,0,P|89:360|79:333,1,57.5000010967255,2|0,3:2|0:0,0:0:0:0:
55,139,204142,2,0,P|9:215|5:304,1,179.999994506836,10|0,3:2|0:0,0:0:0:0:
305,314,204737,2,0,P|306:225|265:146,1,179.999994506836,10|0,3:2|3:2,0:0:0:0:
153,92,205183,1,10,0:0:0:0:
218,52,205331,1,2,3:2:0:0:
222,35,205480,1,0,3:2:0:0:
106,0,205628,5,10,3:2:0:0:
61,131,205777,1,10,3:2:0:0:
201,263,205925,1,10,3:2:0:0:
385,173,206074,1,10,3:2:0:0:
493,246,206221,2,0,P|508:279|508:311,1,56.2500021457673,0|0,3:2|0:0,0:0:0:0:
503,306,206519,6,0,L|349:283,1,125,6|0,3:2|0:0,0:0:0:0:
202,279,206816,2,0,L|78:260,1,125,6|0,3:2|0:0,0:0:0:0:
27,196,207113,6,0,B|37:179|68:181|68:181|42:188|30:203,1,89.9999972534181,2|0,0:0|0:0,0:0:0:0:
80,281,207707,6,0,P|134:285|221:247,1,125,6|0,3:2|0:0,0:0:0:0:
324,217,208004,2,0,P|347:168|342:73,1,125,6|0,3:2|0:0,0:0:0:0:
293,25,208301,6,0,P|317:8|368:13,1,75.0000028610231,2|2,0:0|0:0,0:0:0:0:
349,98,208747,1,2,0:0:0:0:
512,35,208896,6,0,P|428:59|377:184,1,225.000008583069,6|0,3:2|0:0,0:0:0:0:
466,227,209193,2,0,P|526:164|508:30,1,225.000008583069,2|0,3:2|0:0,0:0:0:0:
361,9,209490,5,10,0:0:0:0:
294,160,209638,1,2,3:2:0:0:
154,57,209787,2,0,P|197:50|236:71,1,89.9999972534181,2|0,3:2|0:0,0:0:0:0:
294,160,210084,6,0,P|193:178|137:263,1,209.999993591309,6|0,3:2|0:0,0:0:0:0:
155,353,210381,1,2,3:2:0:0:
68,160,210529,1,2,3:2:0:0:
240,332,210678,5,10,0:0:0:0:
288,166,210826,1,2,3:2:0:0:
397,246,210975,2,0,P|423:274|422:312,1,75,2|0,0:0|0:0,0:0:0:0:
408,327,211272,6,0,P|337:299|310:223,1,125,6|0,3:2|0:0,0:0:0:0:
197,179,211569,2,0,P|217:105|290:70,1,125,6|0,3:2|0:0,0:0:0:0:
391,65,211866,6,0,P|415:65|386:59,1,112.500004291535,2|0,0:0|0:0,0:0:0:0:
382,165,212460,6,0,P|354:236|278:263,1,125,6|0,3:2|0:0,0:0:0:0:
214,342,212757,2,0,P|143:314|116:238,1,125,6|0,3:2|0:0,0:0:0:0:
79,193,213054,6,0,P|49:209|35:251,1,75.0000028610231,2|2,0:0|0:0,0:0:0:0:
119,274,213500,1,2,0:0:0:0:
202,99,213648,6,0,B|242:75|298:90|323:141|323:141|340:189|380:191,1,225.000008583069,6|0,3:2|0:0,0:0:0:0:
462,166,213945,2,0,B|422:143|366:158|341:209|341:209|324:257|284:259,1,225.000008583069,2|0,3:2|0:0,0:0:0:0:
247,178,214242,5,10,0:0:0:0:
371,318,214391,2,0,P|406:290|426:250,2,89.9999972534181,2|0|2,3:2|0:0|3:2,0:0:0:0:
247,178,214836,5,6,3:2:0:0:
451,384,215430,6,0,L|429:222,1,150.000005722046,8|0,0:0|0:0,0:0:0:0:
506,132,215876,2,0,L|496:189,1,37.5000014305115,0|0,3:2|3:2,0:0:0:0:
437,224,216024,5,0,3:2:0:0:
433,212,216470,5,0,3:2:0:0:
297,254,216618,1,8,0:0:0:0:
332,331,216915,5,0,3:2:0:0:
176,286,217064,1,0,3:2:0:0:
176,286,217138,1,0,3:2:0:0:
176,286,217212,1,0,3:2:0:0:
239,380,217658,5,0,3:2:0:0:
297,177,217806,1,8,0:0:0:0:
221,85,218103,5,0,3:2:0:0:
275,10,218252,1,0,3:2:0:0:
275,10,218326,1,0,3:2:0:0:
275,10,218401,1,0,3:2:0:0:
297,177,218846,5,0,3:2:0:0:
275,10,218995,1,8,0:0:0:0:
369,151,219291,5,0,3:2:0:0:
250,115,219439,1,0,3:2:0:0:
131,79,219588,1,0,3:2:0:0:
82,187,220034,5,0,3:2:0:0:
250,115,220183,1,8,0:0:0:0:
131,79,220480,5,0,3:2:0:0:
201,239,220628,1,0,3:2:0:0:
201,239,220702,1,0,3:2:0:0:
201,239,220777,1,0,3:2:0:0:
271,194,221222,5,0,3:2:0:0:
200,370,221371,1,8,0:0:0:0:
75,326,221668,5,0,3:2:0:0:
215,363,221965,1,0,3:2:0:0:
270,304,222410,5,0,3:2:0:0:
430,269,222559,1,8,0:0:0:0:
326,359,222856,5,0,3:2:0:0:
379,215,223004,1,0,3:2:0:0:
379,215,223079,1,0,3:2:0:0:
379,215,223153,1,0,3:2:0:0:
430,269,223450,5,0,3:2:0:0:
305,235,223599,1,0,3:2:0:0:
180,201,223747,1,8,0:0:0:0:
16,298,224044,5,0,3:2:0:0:
137,262,224193,1,0,3:2:0:0:
137,262,224267,1,0,3:2:0:0:
137,262,224341,1,0,3:2:0:0:
0,223,224490,1,8,0:0:0:0:
162,336,224787,5,0,3:2:0:0:
307,154,224935,1,8,0:0:0:0:
374,375,225084,1,8,0:0:0:0:
285,255,225232,1,0,3:2:0:0:
285,255,225529,6,0,P|229:154|230:57,1,200,6|0,3:2|0:0,0:0:0:0:
296,0,225975,1,0,3:2:0:0:
144,150,226123,6,0,P|169:178|233:184,1,75.0000028610231,10|0,0:0|0:0,0:0:0:0:
284,254,226420,2,0,P|321:246|351:220,1,75.0000028610231,0|0,3:2|3:2,0:0:0:0:
467,222,226717,6,0,P|380:195|342:62,1,225.000008583069,2|0,3:2|0:0,0:0:0:0:
440,34,227311,6,0,P|391:220|382:314,1,270.000001029968,12|0,0:0|0:0,0:0:0:0:
406,379,227757,1,0,3:2:0:0:
138,246,227905,6,0,P|195:239|246:281,1,100,2|0,3:2|0:0,0:0:0:0:
291,326,228202,1,0,3:2:0:0:
382,296,228351,1,0,3:2:0:0:
0,313,228500,6,0,P|57:320|108:278,1,100,10|0,0:0|0:0,0:0:0:0:
147,237,228796,1,0,3:2:0:0:
222,269,228944,1,0,3:2:0:0:
352,369,229093,5,2,3:2:0:0:
404,148,229241,1,8,0:0:0:0:
413,155,229539,5,0,3:2:0:0:
330,116,229688,2,0,P|313:88|310:53,1,64.9999970245363,8|0,3:2|0:0,0:0:0:0:
428,4,229985,2,0,P|411:31|408:63,1,64.9999970245363,0|0,3:2|0:0,0:0:0:0:
459,221,230282,6,0,P|421:106|310:56,1,250,2|0,3:2|0:0,0:0:0:0:
235,104,230727,1,0,3:2:0:0:
181,266,230876,6,0,P|124:291|64:281,1,125,10|0,0:0|0:0,0:0:0:0:
46,136,231173,1,0,3:2:0:0:
110,199,231321,1,0,3:2:0:0:
201,180,231470,1,2,3:2:0:0:
61,43,231618,1,8,0:0:0:0:
110,199,231915,5,0,3:2:0:0:
242,108,232064,1,8,0:0:0:0:
338,219,232212,1,8,0:0:0:0:
412,189,232361,1,0,3:2:0:0:
460,249,232509,1,0,3:2:0:0:
363,382,232658,5,2,3:2:0:0:
412,189,232806,2,0,L|434:92,1,62.5,8|0,0:0|0:0,0:0:0:0:
338,219,233103,5,0,3:2:0:0:
302,33,233251,1,10,3:2:0:0:
229,14,233400,1,0,3:2:0:0:
164,62,233548,1,0,3:2:0:0:
157,49,233697,1,0,3:2:0:0:
243,136,233845,5,10,3:2:0:0:
200,306,233994,1,0,3:2:0:0:
30,266,234142,1,0,3:2:0:0:
73,96,234291,1,0,3:2:0:0:
200,217,234439,5,8,3:2:0:0:
154,142,234588,1,0,3:2:0:0:
78,187,234736,1,0,3:2:0:0:
124,261,234885,1,0,3:2:0:0:
280,267,235033,6,0,P|338:286|409:338,1,129.999994049073,2|2,3:2|0:0,0:0:0:0:
320,366,235480,1,2,3:2:0:0:
438,259,235628,2,0,P|456:310|379:318,1,129.999994049073,10|2,0:0|0:0,0:0:0:0:
320,366,236074,1,2,3:2:0:0:
207,216,236222,5,2,3:2:0:0:
203,238,236519,1,0,3:2:0:0:
97,319,236816,1,10,0:0:0:0:
101,341,237113,1,0,3:2:0:0:
178,363,237410,6,0,P|197:301|202:236,1,129.999994049073,2|2,3:2|0:0,0:0:0:0:
152,167,237856,1,2,3:2:0:0:
295,239,238004,2,0,P|289:174|269:112,1,129.999994049073,10|2,0:0|0:0,0:0:0:0:
183,86,238450,1,2,3:2:0:0:
150,174,238599,5,2,3:2:0:0:
314,23,239193,1,10,0:0:0:0:
433,136,239712,1,0,3:2:0:0:
433,136,239787,6,0,P|437:194|359:189,1,129.999994049073,2|2,3:2|0:0,0:0:0:0:
355,132,240232,1,2,3:2:0:0:
372,296,240381,2,0,P|312:275|286:218,1,129.999994049073,10|2,0:0|0:0,0:0:0:0:
377,207,240826,1,2,3:2:0:0:
223,285,240975,5,2,3:2:0:0:
220,274,241272,1,0,3:2:0:0:
80,262,241569,1,10,0:0:0:0:
87,253,241866,1,0,3:2:0:0:
29,123,242163,6,0,P|79:104|137:124,1,97.4999955368044,2|2,3:2|0:0,0:0:0:0:
219,189,242608,5,2,3:2:0:0:
242,39,242757,2,0,P|264:73|266:113,1,64.9999970245363,10|0,0:0|0:0,0:0:0:0:
323,193,243054,2,0,P|316:224|297:250,1,64.9999970245363,2|0,3:2|0:0,0:0:0:0:
100,384,243351,5,4,3:2:0:0:
42,329,243796,1,8,0:0:0:0:
12,245,244242,1,8,0:0:0:0:
24,132,244687,1,8,0:0:0:0:
122,0,245133,1,8,0:0:0:0:
74,55,245430,6,0,L|84:94,3,25,8|8|8|8,0:0|0:0|0:0|0:0,0:0:0:0:
25,132,245727,5,8,3:2:0:0:
67,198,245875,1,0,3:2:0:0:
155,89,246024,1,8,3:2:0:0:
157,167,246172,1,0,3:2:0:0:
290,298,246321,5,8,3:2:0:0:
424,249,246469,1,8,3:2:0:0:
341,228,246618,1,0,3:2:0:0:
372,317,246766,1,0,3:2:0:0:
405,161,246915,5,8,3:2:0:0:
371,328,247063,1,8,3:2:0:0:
233,126,247212,1,8,3:2:0:0:
301,382,247360,1,8,3:2:0:0:
508,287,247509,5,8,3:2:0:0:
424,263,247657,1,0,3:2:0:0:
504,274,247806,2,0,B|481:267|465:275|465:275|446:282|424:273,1,77.5000005912781,0|0,3:2|0:0,0:0:0:0:
133,87,248103,6,0,P|188:84|249:135,1,125,6|0,3:2|0:0,0:0:0:0:
378,342,248400,2,0,P|433:346|513:271,1,155.000001182556,6|0,3:2|0:0,0:0:0:0:
436,135,248697,6,0,P|405:117|398:91,1,56.2500021457673,10|0,0:0|0:0,0:0:0:0:
429,29,248994,1,8,0:0:0:0:
459,38,249068,1,8,0:0:0:0:
484,55,249142,1,8,0:0:0:0:
503,80,249217,1,8,0:0:0:0:
512,110,249291,6,0,P|502:177|426:211,1,145.000004425049,6|0,3:2|0:0,0:0:0:0:
244,101,249588,2,0,P|255:31|317:0,1,145.000004425049,6|0,3:2|0:0,0:0:0:0:
438,211,249885,5,8,0:0:0:0:
408,209,249959,1,8,0:0:0:0:
379,213,250033,1,8,0:0:0:0:
352,222,250107,1,8,0:0:0:0:
326,233,250182,1,8,0:0:0:0:
302,249,250256,1,8,0:0:0:0:
280,268,250330,1,8,0:0:0:0:
261,289,250404,1,8,0:0:0:0:
246,313,250479,6,0,P|217:349|166:361,1,75.0000028610231,6|0,3:2|0:0,0:0:0:0:
89,146,250776,2,0,P|158:167|176:276,1,194.999991073609,6|0,3:2|0:0,0:0:0:0:
102,289,251073,5,8,0:0:0:0:
203,66,251222,1,2,3:2:0:0:
42,204,251519,5,0,3:2:0:0:
279,173,251667,2,0,B|326:160|359:188|359:188|392:222|437:210,1,170.000003242493,14|0,0:0|0:0,0:0:0:0:
507,149,252113,1,0,3:2:0:0:
310,252,252261,1,10,0:0:0:0:
444,304,252410,2,0,P|482:293|506:267,1,68.7500020980836,2|0,3:2|0:0,0:0:0:0:
512,279,252855,6,0,P|469:312|423:310,1,100,6|0,3:2|0:0,0:0:0:0:
209,232,253152,2,0,P|185:140|219:74,1,155.000001182556,6|0,3:2|0:0,0:0:0:0:
428,28,253450,5,8,0:0:0:0:
441,57,253524,1,8,0:0:0:0:
444,90,253598,1,8,0:0:0:0:
435,121,253672,1,8,0:0:0:0:
416,148,253747,1,8,0:0:0:0:
389,167,253821,1,8,0:0:0:0:
358,175,253895,1,8,0:0:0:0:
325,173,253969,1,8,0:0:0:0:
296,159,254044,6,0,P|273:101|191:73,1,145.000004425049,6|0,3:2|0:0,0:0:0:0:
0,235,254341,2,0,P|61:244|126:187,1,145.000004425049,6|0,3:2|0:0,0:0:0:0:
45,67,254638,5,0,3:2:0:0:
27,71,254712,1,0,3:2:0:0:
12,81,254786,1,0,3:2:0:0:
3,97,254860,1,0,3:2:0:0:
0,114,254935,1,0,3:2:0:0:
4,132,255009,1,0,3:2:0:0:
14,147,255083,1,0,3:2:0:0:
29,157,255157,1,0,3:2:0:0:
46,160,255232,6,0,P|87:163|138:211,1,89.9999972534181,6|0,3:2|0:0,0:0:0:0:
204,365,255529,2,0,P|267:368|348:261,1,194.999991073609,6|0,3:2|0:0,0:0:0:0:
301,215,255826,1,10,0:0:0:0:
497,375,255974,6,0,P|494:303|469:195,1,150.000005722046,14|0,3:2|0:0,0:0:0:0:
327,65,256420,6,0,B|229:37|184:129|184:129|134:237|24:175,1,350,14|0,3:2|0:0,0:0:0:0:
26,114,256975,5,8,0:0:0:0:
26,114,258172,1,8,0:0:0:0:
26,114,259369,1,8,0:0:0:0:
26,114,260566,1,8,0:0:0:0:
26,114,261763,1,8,0:0:0:0:
26,114,262951,1,8,0:0:0:0:
26,114,264139,1,8,0:0:0:0:
26,114,265327,1,8,0:0:0:0:
26,114,266515,1,8,0:0:0:0:
26,114,267752,1,8,0:0:0:0:
26,114,268925,1,8,0:0:0:0:
26,114,270099,1,8,0:0:0:0:
26,114,271265,1,8,0:0:0:0:
26,114,272465,1,8,0:0:0:0:
26,114,273665,1,8,0:0:0:0:
256,192,274715,12,0,276665,0:0:0:0:
