osu file format v14

[General]
AudioFilename: audio.mp3
AudioLeadIn: 0
PreviewTime: 3947
Countdown: 0
SampleSet: Normal
StackLeniency: 0.2
Mode: 1
LetterboxInBreaks: 0
WidescreenStoryboard: 1

[Editor]
DistanceSpacing: 1.3
BeatDivisor: 8
GridSize: 32
TimelineZoom: 2.999999

[Metadata]
Title:Nokia Shqip
TitleUnicode:Nokia Shqip
Artist:Tali
ArtistUnicode:Tali
Creator:Genjuro
Version:Oni
Source:
Tags:electronic instrumental folk novelty taiko albanian ringtone
BeatmapID:2497491
BeatmapSetID:1113843

[Difficulty]
HPDrainRate:8.5
CircleSize:2
OverallDifficulty:5.5
ApproachRate:10
SliderMultiplier:1.4
SliderTickRate:1

[Events]
//Background and Video events
0,0,"bg.jpg",0,65
//Break Periods
//Storyboard Layer 0 (Background)
//Storyboard Layer 1 (Fail)
//Storyboard Layer 2 (Pass)
//Storyboard Layer 3 (Foreground)
//Storyboard Layer 4 (Overlay)
//Storyboard Sound Samples

[TimingPoints]
325,857.142857142857,4,1,0,5,1,0
325,-66.6666666666667,4,1,0,5,0,0
1110,-66.6666666666667,4,1,0,10,0,0
1967,-66.6666666666667,4,1,0,15,0,0
2824,-66.6666666666667,4,1,0,20,0,0
3503,444.444444444444,4,1,0,20,1,0
3503,-128.572714298572,4,1,0,20,0,0
3891,-128.572714298572,4,1,0,25,0,0
4336,-128.572714298572,4,1,0,30,0,0
4780,-128.572714298572,4,1,0,35,0,0
5225,-114.285714285714,4,1,0,40,0,0
5502,-112.290914317541,4,1,0,40,0,0
5669,-110.364556202047,4,1,0,50,0,0
5836,-109.425951458648,4,1,0,50,0,0
5947,-108.503176973022,4,1,0,50,0,0
6114,-106.70354341127,4,1,0,60,0,0
6391,-104.962633302544,4,1,0,60,0,0
6502,-104.113308596011,4,1,0,60,0,0
6558,-103.277618500739,4,1,0,70,0,0
6836,-101.645849596669,4,1,0,70,0,0
7002,-101.645849596669,4,1,0,100,0,0
7058,-100,4,1,0,100,0,1
31947,-100,4,1,0,100,0,0

[HitObjects]
256,192,325,5,8,0:0:0:0:
256,192,467,1,8,0:0:0:0:
256,192,610,1,0,0:0:0:0:
256,192,896,1,0,0:0:0:0:
256,192,1182,1,8,0:0:0:0:
256,192,1325,1,8,0:0:0:0:
256,192,1467,1,0,0:0:0:0:
256,192,1753,1,0,0:0:0:0:
256,192,2039,1,8,0:0:0:0:
256,192,2182,1,8,0:0:0:0:
256,192,2325,1,0,0:0:0:0:
256,192,2610,1,0,0:0:0:0:
256,192,2896,1,8,0:0:0:0:
256,192,3503,12,0,5058,0:0:0:0:
256,192,5280,5,0,0:0:0:0:
256,192,5502,1,8,0:0:0:0:
256,192,5725,1,0,0:0:0:0:
256,192,5836,1,0,0:0:0:0:
256,192,5947,1,8,0:0:0:0:
256,192,6169,1,0,0:0:0:0:
256,192,6391,1,8,0:0:0:0:
256,192,6502,1,8,0:0:0:0:
256,192,6614,1,0,0:0:0:0:
256,192,6836,1,8,0:0:0:0:
256,192,7058,1,4,0:0:0:0:
256,192,7502,1,8,0:0:0:0:
256,192,7725,1,8,0:0:0:0:
256,192,7836,1,8,0:0:0:0:
256,192,7947,1,0,0:0:0:0:
256,192,8058,1,8,0:0:0:0:
256,192,8391,1,0,0:0:0:0:
256,192,8614,1,8,0:0:0:0:
256,192,8836,1,0,0:0:0:0:
256,192,9058,1,8,0:0:0:0:
256,192,9280,1,0,0:0:0:0:
256,192,9391,1,8,0:0:0:0:
256,192,9502,1,0,0:0:0:0:
256,192,9725,1,8,0:0:0:0:
256,192,9836,1,8,0:0:0:0:
256,192,9947,1,0,0:0:0:0:
256,192,10058,1,0,0:0:0:0:
256,192,10169,1,8,0:0:0:0:
256,192,10391,1,4,0:0:0:0:
256,192,10614,1,12,0:0:0:0:
256,192,10836,1,0,0:0:0:0:
256,192,11058,1,8,0:0:0:0:
256,192,11169,1,0,0:0:0:0:
256,192,11280,1,8,0:0:0:0:
256,192,11391,1,0,0:0:0:0:
256,192,11502,1,8,0:0:0:0:
256,192,11725,1,0,0:0:0:0:
256,192,11947,1,8,0:0:0:0:
256,192,12058,1,8,0:0:0:0:
256,192,12169,1,0,0:0:0:0:
256,192,12280,1,8,0:0:0:0:
256,192,12391,1,8,0:0:0:0:
256,192,12614,1,0,0:0:0:0:
256,192,12836,1,8,0:0:0:0:
256,192,12947,1,8,0:0:0:0:
256,192,13058,1,8,0:0:0:0:
256,192,13169,1,8,0:0:0:0:
256,192,13280,1,0,0:0:0:0:
256,192,13502,1,8,0:0:0:0:
256,192,13614,1,0,0:0:0:0:
256,192,13725,1,8,0:0:0:0:
256,192,13947,1,8,0:0:0:0:
256,192,14058,1,0,0:0:0:0:
256,192,14614,1,8,0:0:0:0:
256,192,14725,1,8,0:0:0:0:
256,192,15058,1,0,0:0:0:0:
256,192,15280,1,8,0:0:0:0:
256,192,15391,1,0,0:0:0:0:
256,192,15502,1,8,0:0:0:0:
256,192,15725,1,8,0:0:0:0:
256,192,15836,1,8,0:0:0:0:
256,192,15947,1,0,0:0:0:0:
256,192,16169,1,8,0:0:0:0:
256,192,16280,1,8,0:0:0:0:
256,192,16391,1,0,0:0:0:0:
256,192,16502,1,0,0:0:0:0:
256,192,16614,1,8,0:0:0:0:
256,192,16836,1,0,0:0:0:0:
256,192,16947,1,0,0:0:0:0:
256,192,17058,1,8,0:0:0:0:
256,192,17169,1,0,0:0:0:0:
256,192,17280,1,8,0:0:0:0:
256,192,17502,1,4,0:0:0:0:
256,192,17725,1,12,0:0:0:0:
256,192,17947,1,0,0:0:0:0:
256,192,18169,1,0,0:0:0:0:
256,192,18391,1,0,0:0:0:0:
256,192,18614,1,8,0:0:0:0:
256,192,19058,1,8,0:0:0:0:
256,192,19280,1,4,0:0:0:0:
256,192,19502,1,12,0:0:0:0:
256,192,19725,1,8,0:0:0:0:
256,192,19947,1,0,0:0:0:0:
256,192,20169,1,8,0:0:0:0:
256,192,20391,1,8,0:0:0:0:
256,192,20540,1,8,0:0:0:0:
256,192,20688,1,0,0:0:0:0:
256,192,20836,1,0,0:0:0:0:
256,192,21280,1,0,0:0:0:0:
256,192,21428,1,0,0:0:0:0:
256,192,21577,1,0,0:0:0:0:
256,192,21725,1,8,0:0:0:0:
256,192,21873,1,8,0:0:0:0:
256,192,22021,1,8,0:0:0:0:
256,192,22169,1,0,0:0:0:0:
256,192,22465,1,8,0:0:0:0:
256,192,22614,1,0,0:0:0:0:
256,192,22947,1,8,0:0:0:0:
256,192,23058,1,0,0:0:0:0:
256,192,23169,1,0,0:0:0:0:
256,192,23280,1,0,0:0:0:0:
256,192,23391,1,8,0:0:0:0:
256,192,23614,1,0,0:0:0:0:
256,192,23725,1,8,0:0:0:0:
256,192,24058,1,0,0:0:0:0:
256,192,24169,1,8,0:0:0:0:
256,192,24280,1,0,0:0:0:0:
256,192,24391,1,8,0:0:0:0:
256,192,24614,1,4,0:0:0:0:
256,192,24836,1,12,0:0:0:0:
256,192,25058,1,0,0:0:0:0:
256,192,25280,1,0,0:0:0:0:
256,192,25502,1,0,0:0:0:0:
256,192,25725,1,8,0:0:0:0:
256,192,26169,1,8,0:0:0:0:
256,192,26391,1,4,0:0:0:0:
256,192,26614,1,12,0:0:0:0:
256,192,26836,1,0,0:0:0:0:
256,192,27058,1,8,0:0:0:0:
256,192,27169,1,8,0:0:0:0:
256,192,27280,1,0,0:0:0:0:
256,192,27502,1,8,0:0:0:0:
256,192,27651,1,0,0:0:0:0:
256,192,27799,1,8,0:0:0:0:
256,192,27947,1,0,0:0:0:0:
256,192,28540,1,0,0:0:0:0:
256,192,28688,1,0,0:0:0:0:
256,192,28836,1,8,0:0:0:0:
256,192,28984,1,8,0:0:0:0:
256,192,29132,1,8,0:0:0:0:
256,192,29280,1,0,0:0:0:0:
256,192,29428,1,8,0:0:0:0:
256,192,29873,1,8,0:0:0:0:
256,192,30021,1,0,0:0:0:0:
256,192,30169,1,8,0:0:0:0:
256,192,30317,1,8,0:0:0:0:
256,192,30465,1,8,0:0:0:0:
256,192,30614,1,0,0:0:0:0:
256,192,30836,1,8,0:0:0:0:
256,192,31058,1,0,0:0:0:0:
256,192,31280,1,8,0:0:0:0:
256,192,31391,1,0,0:0:0:0:
256,192,31502,1,8,0:0:0:0:
256,192,31725,1,4,0:0:0:0:
256,192,31947,1,12,0:0:0:0:
