osu file format v14

[General]
AudioFilename: audio.mp3
AudioLeadIn: 0
PreviewTime: 3947
Countdown: 0
SampleSet: Normal
StackLeniency: 0.2
Mode: 1
LetterboxInBreaks: 0
WidescreenStoryboard: 1

[Editor]
DistanceSpacing: 1.3
BeatDivisor: 1
GridSize: 32
TimelineZoom: 2.999999

[Metadata]
Title:Nokia Shqip
TitleUnicode:Nokia Shqip
Artist:Tali
ArtistUnicode:Tali
Creator:Genjuro
Version:Kantan
Source:
Tags:electronic instrumental folk novelty taiko albanian ringtone
BeatmapID:2510149
BeatmapSetID:1113843

[Difficulty]
HPDrainRate:10
CircleSize:2
OverallDifficulty:3
ApproachRate:10
SliderMultiplier:1.4
SliderTickRate:1

[Events]
//Background and Video events
0,0,"bg.jpg",0,65
//Break Periods
//Storyboard Layer 0 (Background)
//Storyboard Layer 1 (Fail)
//Storyboard Layer 2 (Pass)
//Storyboard Layer 3 (Foreground)
//Storyboard Layer 4 (Overlay)
//Storyboard Sound Samples

[TimingPoints]
325,857.142857142857,4,1,0,5,1,0
325,-51.8518902606595,4,1,0,5,0,0
1110,-51.8518902606595,4,1,0,10,0,0
1967,-51.8518902606595,4,1,0,15,0,0
2824,-51.8518902606595,4,1,0,20,0,0
3503,444.444444444444,4,1,0,20,1,0
3503,-100,4,1,0,20,0,0
3891,-100,4,1,0,25,0,0
4336,-100,4,1,0,30,0,0
4780,-100,4,1,0,35,0,0
5225,-100,4,1,0,40,0,0
5669,-100,4,1,0,50,0,0
6114,-100,4,1,0,60,0,0
6558,-100,4,1,0,70,0,0
7002,-100,4,1,0,100,0,0
7058,-100,4,1,0,100,0,1
31947,-100,4,1,0,100,0,0

[HitObjects]
256,192,325,5,8,0:0:0:0:
256,192,610,1,0,0:0:0:0:
256,192,1182,1,8,0:0:0:0:
256,192,1467,1,0,0:0:0:0:
256,192,2039,1,8,0:0:0:0:
256,192,2325,1,0,0:0:0:0:
256,192,2610,1,0,0:0:0:0:
256,192,2896,1,8,0:0:0:0:
256,192,3503,12,0,4836,0:0:0:0:
256,192,5280,5,0,0:0:0:0:
256,192,5725,1,0,0:0:0:0:
256,192,6169,1,8,0:0:0:0:
256,192,7058,1,4,0:0:0:0:
256,192,8391,1,8,0:0:0:0:
256,192,8836,1,0,0:0:0:0:
256,192,9280,1,8,0:0:0:0:
256,192,9725,1,8,0:0:0:0:
256,192,10614,1,0,0:0:0:0:
256,192,11502,1,8,0:0:0:0:
256,192,11947,1,8,0:0:0:0:
256,192,12391,1,0,0:0:0:0:
256,192,12836,1,0,0:0:0:0:
256,192,13280,1,8,0:0:0:0:
256,192,14169,1,0,0:0:0:0:
256,192,15502,1,8,0:0:0:0:
256,192,15947,1,0,0:0:0:0:
256,192,16391,1,8,0:0:0:0:
256,192,16836,1,8,0:0:0:0:
256,192,17725,1,0,0:0:0:0:
256,192,19502,1,0,0:0:0:0:
256,192,19947,1,8,0:0:0:0:
256,192,20391,1,8,0:0:0:0:
256,192,21280,1,0,0:0:0:0:
256,192,21725,1,8,0:0:0:0:
256,192,22169,1,0,0:0:0:0:
256,192,22614,1,0,0:0:0:0:
256,192,23058,1,8,0:0:0:0:
256,192,23947,1,8,0:0:0:0:
256,192,24836,1,0,0:0:0:0:
256,192,26614,1,8,0:0:0:0:
256,192,27058,1,0,0:0:0:0:
256,192,27502,1,8,0:0:0:0:
256,192,28391,1,0,0:0:0:0:
256,192,28836,1,8,0:0:0:0:
256,192,29280,1,0,0:0:0:0:
256,192,30169,1,8,0:0:0:0:
256,192,30614,1,0,0:0:0:0:
256,192,31058,1,8,0:0:0:0:
256,192,31502,1,8,0:0:0:0:
256,192,31947,1,0,0:0:0:0:
