osu file format v14

[General]
AudioFilename: audio.mp3
AudioLeadIn: 0
PreviewTime: -1
Countdown: 1
SampleSet: Normal
StackLeniency: 0.7
Mode: 1
LetterboxInBreaks: 0
WidescreenStoryboard: 0

[Editor]
DistanceSpacing: 0.6
BeatDivisor: 4
GridSize: 32
TimelineZoom: 1

[Metadata]
Title:Katamari On The Wings
TitleUnicode:塊オンザウィングス
Artist:Takuya Ohashi
ArtistUnicode:大橋卓弥
Creator:kvgyubh
Version:katamari
Source:
Tags:
BeatmapID:1714898
BeatmapSetID:817826

[Difficulty]
HPDrainRate:5
CircleSize:5
OverallDifficulty:5
ApproachRate:5
SliderMultiplier:1.4
SliderTickRate:1

[Events]
//Background and Video events
0,0,"hqdefault.jpg",0,0
//Break Periods
//Storyboard Layer 0 (Background)
//Storyboard Layer 1 (Fail)
//Storyboard Layer 2 (Pass)
//Storyboard Layer 3 (Foreground)
//Storyboard Sound Samples

[TimingPoints]
436.724081634552,566.040263405456,4,1,0,100,1,0
20814,-100,4,1,0,100,0,1
47842,-100,4,1,0,100,0,0
97795,-100,4,1,0,100,0,1
135720,-100,4,1,0,100,0,0

[HitObjects]
256,194,2700,5,0,0:0:0:0:
254,192,4965,1,8,0:0:0:0:
251,192,7229,1,0,0:0:0:0:
251,192,7653,1,0,0:0:0:0:
251,192,8078,1,0,0:0:0:0:
251,192,8502,1,0,0:0:0:0:
251,192,8927,1,2,0:0:0:0:
251,192,9210,1,2,0:0:0:0:
251,192,9493,1,4,0:0:0:0:
251,192,9917,1,4,0:0:0:0:
251,192,10342,1,4,0:0:0:0:
251,192,10766,1,4,0:0:0:0:
251,192,11191,1,6,0:0:0:0:
251,192,11474,1,6,0:0:0:0:
251,192,11757,1,0,0:0:0:0:
251,192,12040,1,0,0:0:0:0:
251,192,12182,1,0,0:0:0:0:
251,192,12465,1,0,0:0:0:0:
251,192,12606,1,2,0:0:0:0:
251,192,12889,1,0,0:0:0:0:
251,192,13031,1,0,0:0:0:0:
248,196,13314,1,0,0:0:0:0:
248,196,13455,1,2,0:0:0:0:
247,197,13738,1,2,0:0:0:0:
247,197,14021,1,0,0:0:0:0:
248,196,14304,1,0,0:0:0:0:
248,196,14446,1,0,0:0:0:0:
247,197,14729,1,0,0:0:0:0:
247,197,14870,1,2,0:0:0:0:
248,196,15153,1,0,0:0:0:0:
248,196,15295,1,0,0:0:0:0:
248,196,15436,1,2,0:0:0:0:
247,197,15578,1,0,0:0:0:0:
247,197,15719,1,2,0:0:0:0:
248,196,16002,1,2,0:0:0:0:
256,192,16285,12,0,19682,0:0:0:0:
256,194,20814,5,0,0:0:0:0:
256,194,21097,1,0,0:0:0:0:
256,194,21380,1,2,0:0:0:0:
256,194,21663,1,0,0:0:0:0:
256,194,21804,1,2,0:0:0:0:
256,194,21946,1,0,0:0:0:0:
256,194,22087,1,0,0:0:0:0:
256,194,22370,1,0,0:0:0:0:
256,194,22653,1,0,0:0:0:0:
256,194,22795,1,2,0:0:0:0:
256,194,22936,1,0,0:0:0:0:
256,194,23078,1,0,0:0:0:0:
256,194,23361,1,0,0:0:0:0:
256,194,23644,1,2,0:0:0:0:
256,194,23927,1,0,0:0:0:0:
256,194,24068,1,0,0:0:0:0:
256,194,24351,1,0,0:0:0:0:
256,194,24493,1,0,0:0:0:0:
256,194,24634,1,0,0:0:0:0:
256,194,24776,1,2,0:0:0:0:
256,194,25059,1,2,0:0:0:0:
256,194,25200,1,2,0:0:0:0:
256,194,25342,1,0,0:0:0:0:
256,194,25625,1,0,0:0:0:0:
256,194,25908,1,2,0:0:0:0:
256,194,26191,1,0,0:0:0:0:
256,194,26333,1,2,0:0:0:0:
256,194,26474,1,0,0:0:0:0:
256,194,26616,1,0,0:0:0:0:
256,194,26899,1,0,0:0:0:0:
256,194,27182,1,0,0:0:0:0:
256,194,27323,1,2,0:0:0:0:
256,194,27465,1,0,0:0:0:0:
256,194,27606,1,0,0:0:0:0:
256,194,27889,1,0,0:0:0:0:
256,194,28172,1,2,0:0:0:0:
256,194,28455,1,0,0:0:0:0:
256,194,28597,1,0,0:0:0:0:
256,194,28738,1,2,0:0:0:0:
256,194,28880,1,0,0:0:0:0:
256,194,29163,1,0,0:0:0:0:
256,194,29304,1,2,0:0:0:0:
256,194,29587,1,2,0:0:0:0:
256,194,29729,1,2,0:0:0:0:
256,194,29870,1,0,0:0:0:0:
256,194,30153,1,0,0:0:0:0:
256,194,30436,1,2,0:0:0:0:
256,194,30719,1,0,0:0:0:0:
256,194,30861,1,2,0:0:0:0:
256,194,31002,1,0,0:0:0:0:
256,194,31144,1,0,0:0:0:0:
256,194,31427,1,0,0:0:0:0:
256,194,31710,1,0,0:0:0:0:
256,194,31851,1,2,0:0:0:0:
256,194,31993,1,0,0:0:0:0:
256,194,32134,1,0,0:0:0:0:
256,194,32417,1,0,0:0:0:0:
256,194,32701,1,2,0:0:0:0:
256,194,32984,1,0,0:0:0:0:
256,194,33125,1,0,0:0:0:0:
256,194,33267,1,2,0:0:0:0:
256,194,33408,1,0,0:0:0:0:
256,194,33691,1,0,0:0:0:0:
256,194,33833,1,2,0:0:0:0:
256,194,33974,1,0,0:0:0:0:
256,194,34116,1,2,0:0:0:0:
256,194,34257,1,0,0:0:0:0:
256,194,34399,1,0,0:0:0:0:
256,194,34682,1,0,0:0:0:0:
253,188,34965,1,2,0:0:0:0:
256,194,35248,1,0,0:0:0:0:
256,194,35389,1,2,0:0:0:0:
256,194,35531,1,0,0:0:0:0:
256,194,35672,1,0,0:0:0:0:
256,198,35955,1,0,0:0:0:0:
256,194,36238,1,0,0:0:0:0:
256,194,36380,1,2,0:0:0:0:
256,194,36521,1,0,0:0:0:0:
256,194,36663,1,0,0:0:0:0:
257,193,36946,1,0,0:0:0:0:
256,194,37229,1,2,0:0:0:0:
256,194,37512,1,0,0:0:0:0:
256,194,37653,1,0,0:0:0:0:
257,193,37795,1,2,0:0:0:0:
257,193,37936,1,0,0:0:0:0:
256,194,38219,1,0,0:0:0:0:
256,194,38361,1,2,0:0:0:0:
257,193,38927,1,0,0:0:0:0:
256,194,39210,1,0,0:0:0:0:
257,193,39493,1,2,0:0:0:0:
257,193,39776,1,0,0:0:0:0:
257,193,39918,1,2,0:0:0:0:
256,194,40059,1,0,0:0:0:0:
256,194,40201,1,2,0:0:0:0:
257,193,40342,1,0,0:0:0:0:
257,193,40625,1,2,0:0:0:0:
257,193,40908,1,2,0:0:0:0:
256,194,41050,1,2,0:0:0:0:
256,194,41191,1,0,0:0:0:0:
257,193,41474,1,2,0:0:0:0:
257,193,41757,1,0,0:0:0:0:
256,194,42040,1,2,0:0:0:0:
256,194,42182,1,2,0:0:0:0:
257,193,42323,1,0,0:0:0:0:
257,193,42465,1,2,0:0:0:0:
257,193,42606,1,0,0:0:0:0:
256,194,42889,1,2,0:0:0:0:
251,192,43314,2,2,L|289:192,10,35
259,191,45719,1,6,0:0:0:0:
259,191,46285,1,6,0:0:0:0:
252,192,46852,1,4,0:0:0:0:
252,192,47135,1,4,0:0:0:0:
252,192,47418,1,4,0:0:0:0:
252,192,47842,1,4,0:0:0:0:
252,192,48267,1,0,0:0:0:0:
250,200,48550,1,8,0:0:0:0:
250,200,48691,1,0,0:0:0:0:
250,200,48974,1,0,0:0:0:0:
249,200,49116,1,8,0:0:0:0:
248,205,49399,1,0,0:0:0:0:
248,205,49682,1,2,0:0:0:0:
248,205,49823,1,0,0:0:0:0:
248,205,50106,1,0,0:0:0:0:
248,205,50248,1,2,0:0:0:0:
248,205,50531,1,0,0:0:0:0:
249,198,50814,1,2,0:0:0:0:
249,198,50955,1,0,0:0:0:0:
249,198,51238,1,0,0:0:0:0:
249,198,51380,1,2,0:0:0:0:
249,198,51663,1,0,0:0:0:0:
249,198,51946,1,2,0:0:0:0:
249,198,52229,1,0,0:0:0:0:
249,198,52370,1,0,0:0:0:0:
249,198,52512,1,2,0:0:0:0:
249,198,52795,1,0,0:0:0:0:
249,198,52936,1,0,0:0:0:0:
249,198,53078,1,2,0:0:0:0:
249,198,53361,1,0,0:0:0:0:
249,198,53502,1,0,0:0:0:0:
249,198,53644,1,2,0:0:0:0:
249,198,53927,1,0,0:0:0:0:
249,198,54069,1,0,0:0:0:0:
249,198,54210,1,2,0:0:0:0:
249,198,54493,1,0,0:0:0:0:
249,198,54635,1,0,0:0:0:0:
249,198,54776,1,2,0:0:0:0:
249,198,55059,1,0,0:0:0:0:
249,198,55342,1,2,0:0:0:0:
249,198,55484,1,0,0:0:0:0:
249,198,55625,1,0,0:0:0:0:
249,198,55767,1,0,0:0:0:0:
249,198,55908,1,2,0:0:0:0:
249,198,56191,1,0,0:0:0:0:
249,198,56333,1,0,0:0:0:0:
249,198,56474,1,2,0:0:0:0:
249,198,56616,1,2,0:0:0:0:
249,198,57040,1,0,0:0:0:0:
249,198,57323,1,0,0:0:0:0:
249,198,57465,1,0,0:0:0:0:
245,193,57606,1,0,0:0:0:0:
245,194,57748,1,2,0:0:0:0:
251,193,58031,1,2,0:0:0:0:
251,193,58172,1,0,0:0:0:0:
251,193,58456,1,2,0:0:0:0:
251,193,58597,1,0,0:0:0:0:
245,193,58880,1,2,0:0:0:0:
245,193,59021,1,0,0:0:0:0:
251,193,59304,1,0,0:0:0:0:
251,193,59587,1,0,0:0:0:0:
245,193,59729,1,0,0:0:0:0:
245,193,59870,1,2,0:0:0:0:
245,193,60012,1,2,0:0:0:0:
243,193,60295,1,2,0:0:0:0:
243,193,60436,1,0,0:0:0:0:
245,193,60720,1,0,0:0:0:0:
245,193,61003,1,2,0:0:0:0:
243,193,61286,1,0,0:0:0:0:
243,193,61427,1,0,0:0:0:0:
245,193,61569,1,2,0:0:0:0:
245,193,61852,1,0,0:0:0:0:
245,193,61993,1,0,0:0:0:0:
243,193,62135,1,0,0:0:0:0:
243,193,62276,1,2,0:0:0:0:
242,187,62559,1,2,0:0:0:0:
242,187,62701,1,0,0:0:0:0:
242,187,62984,1,2,0:0:0:0:
242,187,63125,1,0,0:0:0:0:
242,187,63408,1,2,0:0:0:0:
242,187,63550,1,0,0:0:0:0:
242,187,63833,1,0,0:0:0:0:
238,193,64116,1,0,0:0:0:0:
238,193,64257,1,0,0:0:0:0:
238,193,64399,1,2,0:0:0:0:
238,193,64540,1,2,0:0:0:0:
238,193,64823,1,2,0:0:0:0:
238,193,64965,1,0,0:0:0:0:
235,201,65248,1,2,0:0:0:0:
235,201,65531,1,0,0:0:0:0:
235,201,65672,1,2,0:0:0:0:
250,193,66097,1,0,0:0:0:0:
250,193,66380,1,0,0:0:0:0:
250,193,66521,1,0,0:0:0:0:
250,193,66663,1,0,0:0:0:0:
250,193,66804,1,2,0:0:0:0:
250,193,67087,1,2,0:0:0:0:
250,193,67229,1,0,0:0:0:0:
250,193,67512,1,2,0:0:0:0:
250,193,67654,1,0,0:0:0:0:
250,193,67937,1,2,0:0:0:0:
250,193,68078,1,0,0:0:0:0:
253,200,68361,1,0,0:0:0:0:
253,200,68644,1,0,0:0:0:0:
253,200,68786,1,0,0:0:0:0:
253,200,68927,1,2,0:0:0:0:
253,198,69069,1,2,0:0:0:0:
246,201,69352,1,2,0:0:0:0:
246,201,69493,1,0,0:0:0:0:
247,196,69776,1,0,0:0:0:0:
247,196,70059,1,2,0:0:0:0:
246,201,70342,1,0,0:0:0:0:
246,201,70484,1,0,0:0:0:0:
244,200,70625,1,2,0:0:0:0:
247,196,70908,1,0,0:0:0:0:
247,196,71050,1,0,0:0:0:0:
243,193,71191,1,0,0:0:0:0:
243,193,71333,1,2,0:0:0:0:
239,195,71616,1,2,0:0:0:0:
239,195,71757,1,0,0:0:0:0:
239,195,72040,1,2,0:0:0:0:
243,193,72182,1,0,0:0:0:0:
239,195,72465,1,2,0:0:0:0:
239,195,72606,1,0,0:0:0:0:
239,195,72889,1,0,0:0:0:0:
239,199,73172,1,0,0:0:0:0:
239,195,73314,1,0,0:0:0:0:
239,195,73455,1,2,0:0:0:0:
239,195,73597,1,2,0:0:0:0:
239,195,73738,1,0,0:0:0:0:
239,199,74021,1,4,0:0:0:0:
244,197,74587,1,4,0:0:0:0:
244,197,75012,1,6,0:0:0:0:
255,197,75437,1,0,0:0:0:0:
255,197,75720,1,2,0:0:0:0:
255,197,76003,1,0,0:0:0:0:
255,197,76144,1,2,0:0:0:0:
261,197,76427,1,2,0:0:0:0:
261,197,76569,1,0,0:0:0:0:
261,197,76710,1,0,0:0:0:0:
261,197,76852,1,2,0:0:0:0:
259,193,77135,1,0,0:0:0:0:
261,197,77276,1,0,0:0:0:0:
261,197,77418,1,0,0:0:0:0:
261,197,77701,1,2,0:0:0:0:
259,193,77984,1,0,0:0:0:0:
251,192,78267,1,2,0:0:0:0:
251,192,78408,1,0,0:0:0:0:
251,192,78550,1,0,0:0:0:0:
251,192,78833,1,2,0:0:0:0:
251,192,78974,1,0,0:0:0:0:
251,192,79257,1,0,0:0:0:0:
251,192,79399,1,2,0:0:0:0:
251,192,79682,1,0,0:0:0:0:
251,192,79823,1,0,0:0:0:0:
251,192,79965,1,0,0:0:0:0:
260,191,80248,1,2,0:0:0:0:
260,191,80531,1,0,0:0:0:0:
260,191,80672,1,2,0:0:0:0:
260,191,80814,1,0,0:0:0:0:
260,191,80955,1,0,0:0:0:0:
260,191,81097,1,0,0:0:0:0:
260,191,81380,1,2,0:0:0:0:
260,191,81663,1,0,0:0:0:0:
260,191,81805,1,2,0:0:0:0:
260,191,81946,1,0,0:0:0:0:
260,191,82229,1,2,0:0:0:0:
256,186,82512,1,2,0:0:0:0:
256,186,82654,1,0,0:0:0:0:
256,186,82937,1,0,0:0:0:0:
252,191,83220,1,0,0:0:0:0:
252,191,83361,1,2,0:0:0:0:
252,191,83503,1,0,0:0:0:0:
256,186,83644,1,2,0:0:0:0:
256,186,83786,1,0,0:0:0:0:
256,186,83927,1,0,0:0:0:0:
252,191,84069,1,0,0:0:0:0:
252,191,84210,1,2,0:0:0:0:
246,186,84493,1,0,0:0:0:0:
246,186,84776,1,2,0:0:0:0:
246,186,84918,1,0,0:0:0:0:
246,186,85201,1,6,0:0:0:0:
251,191,85484,1,0,0:0:0:0:
251,191,85625,1,2,0:0:0:0:
251,191,85767,1,0,0:0:0:0:
251,191,85908,1,2,0:0:0:0:
251,191,86050,1,0,0:0:0:0:
251,191,86191,1,0,0:0:0:0:
251,191,86333,1,2,0:0:0:0:
251,191,86474,1,0,0:0:0:0:
251,191,86757,1,0,0:0:0:0:
251,191,87040,1,0,0:0:0:0:
251,191,87182,1,2,0:0:0:0:
251,191,87465,1,2,0:0:0:0:
251,191,87606,1,0,0:0:0:0:
251,191,87889,1,0,0:0:0:0:
251,191,88172,1,2,0:0:0:0:
251,191,88455,1,0,0:0:0:0:
251,191,88597,1,0,0:0:0:0:
251,191,88739,1,2,0:0:0:0:
251,191,89164,1,2,0:0:0:0:
251,191,89305,1,2,0:0:0:0:
251,191,89588,1,0,0:0:0:0:
256,197,90012,1,8,0:0:0:0:
255,197,90437,1,0,0:0:0:0:
251,191,90578,1,0,0:0:0:0:
254,190,91003,1,2,0:0:0:0:
254,190,91427,1,0,0:0:0:0:
251,191,91569,1,2,0:0:0:0:
254,190,91852,1,0,0:0:0:0:
240,193,92276,1,8,0:0:0:0:
248,189,92701,1,8,0:0:0:0:
236,193,92843,1,0,0:0:0:0:
240,193,93125,2,0,L|291:188,7,35
256,199,94682,1,4,0:0:0:0:
256,199,94965,1,6,0:0:0:0:
241,199,97795,1,0,0:0:0:0:
241,199,98078,1,0,0:0:0:0:
241,199,98361,1,8,0:0:0:0:
245,196,98644,1,0,0:0:0:0:
245,196,98786,1,2,0:0:0:0:
243,190,98927,1,0,0:0:0:0:
243,190,99069,1,0,0:0:0:0:
243,189,99352,1,0,0:0:0:0:
243,189,99635,1,0,0:0:0:0:
243,189,99776,1,2,0:0:0:0:
243,190,99918,1,0,0:0:0:0:
243,190,100059,1,0,0:0:0:0:
243,189,100342,1,0,0:0:0:0:
243,189,100625,1,2,0:0:0:0:
243,190,100908,1,0,0:0:0:0:
243,190,101050,1,0,0:0:0:0:
243,189,101333,1,0,0:0:0:0:
243,189,101474,1,0,0:0:0:0:
243,189,101616,1,0,0:0:0:0:
243,190,101757,1,2,0:0:0:0:
243,190,102040,1,2,0:0:0:0:
243,189,102182,1,2,0:0:0:0:
243,189,102323,1,0,0:0:0:0:
243,189,102606,1,0,0:0:0:0:
243,190,102890,1,2,0:0:0:0:
243,189,103173,1,0,0:0:0:0:
243,189,103314,1,2,0:0:0:0:
243,189,103456,1,0,0:0:0:0:
243,189,103597,1,0,0:0:0:0:
243,190,103880,1,0,0:0:0:0:
243,189,104163,1,0,0:0:0:0:
243,189,104305,1,2,0:0:0:0:
243,189,104446,1,0,0:0:0:0:
243,189,104588,1,0,0:0:0:0:
243,190,104871,1,0,0:0:0:0:
243,189,105154,1,2,0:0:0:0:
243,189,105437,1,0,0:0:0:0:
243,189,105578,1,0,0:0:0:0:
243,190,105720,1,2,0:0:0:0:
243,190,105861,1,0,0:0:0:0:
243,189,106144,1,0,0:0:0:0:
243,189,106286,1,2,0:0:0:0:
243,189,106569,1,2,0:0:0:0:
243,190,106710,1,2,0:0:0:0:
243,190,106852,1,0,0:0:0:0:
246,192,107135,1,0,0:0:0:0:
246,192,107418,1,2,0:0:0:0:
243,190,107701,1,0,0:0:0:0:
243,190,107842,1,2,0:0:0:0:
246,192,107984,1,0,0:0:0:0:
246,192,108125,1,0,0:0:0:0:
246,192,108408,1,0,0:0:0:0:
243,190,108691,1,0,0:0:0:0:
243,190,108833,1,2,0:0:0:0:
246,192,108974,1,0,0:0:0:0:
246,192,109116,1,0,0:0:0:0:
246,192,109399,1,0,0:0:0:0:
247,192,109682,1,2,0:0:0:0:
246,192,109965,1,0,0:0:0:0:
246,192,110107,1,0,0:0:0:0:
246,192,110248,1,2,0:0:0:0:
246,192,110390,1,0,0:0:0:0:
251,195,110673,1,0,0:0:0:0:
251,195,110814,1,2,0:0:0:0:
251,195,110956,1,0,0:0:0:0:
251,195,111097,1,2,0:0:0:0:
251,195,111239,1,0,0:0:0:0:
251,195,111380,1,0,0:0:0:0:
256,191,111663,1,0,0:0:0:0:
256,191,111946,1,2,0:0:0:0:
256,191,112229,1,0,0:0:0:0:
256,191,112371,1,2,0:0:0:0:
256,191,112512,1,0,0:0:0:0:
256,191,112654,1,0,0:0:0:0:
256,191,112937,1,0,0:0:0:0:
256,191,113220,1,0,0:0:0:0:
256,191,113361,1,2,0:0:0:0:
256,191,113503,1,0,0:0:0:0:
256,191,113644,1,0,0:0:0:0:
258,195,113927,1,0,0:0:0:0:
258,195,114210,1,2,0:0:0:0:
258,195,114493,1,0,0:0:0:0:
258,195,114635,1,0,0:0:0:0:
258,195,114776,1,2,0:0:0:0:
258,195,114918,1,0,0:0:0:0:
258,195,115201,1,0,0:0:0:0:
258,195,115342,1,2,0:0:0:0:
258,195,115908,1,0,0:0:0:0:
258,195,116191,1,0,0:0:0:0:
258,195,116474,1,2,0:0:0:0:
258,195,116757,1,0,0:0:0:0:
258,195,116899,1,2,0:0:0:0:
258,195,117041,1,0,0:0:0:0:
258,195,117182,1,2,0:0:0:0:
258,195,117324,1,0,0:0:0:0:
256,186,117607,1,2,0:0:0:0:
256,188,117890,1,2,0:0:0:0:
256,188,118031,1,2,0:0:0:0:
256,188,118173,1,0,0:0:0:0:
256,186,118456,1,2,0:0:0:0:
256,188,118739,1,0,0:0:0:0:
256,188,119022,1,2,0:0:0:0:
256,188,119163,1,2,0:0:0:0:
256,186,119305,1,0,0:0:0:0:
256,186,119446,1,2,0:0:0:0:
256,188,119588,1,0,0:0:0:0:
256,188,119871,1,2,0:0:0:0:
256,186,120295,2,2,L|300:189,11,35
252,191,122701,1,6,0:0:0:0:
252,191,123267,1,6,0:0:0:0:
252,191,123833,1,4,0:0:0:0:
252,191,124116,1,4,0:0:0:0:
252,191,124399,1,4,0:0:0:0:
256,192,124824,12,4,127229,0:0:0:0:
256,190,129493,5,6,0:0:0:0:
256,190,129776,1,6,0:0:0:0:
256,190,130059,1,6,0:0:0:0:
256,190,130342,1,6,0:0:0:0:
256,190,130625,1,4,0:0:0:0:
251,196,131192,1,6,0:0:0:0:
250,195,131616,1,4,0:0:0:0:
246,193,132041,1,2,0:0:0:0:
242,193,132324,1,2,0:0:0:0:
242,193,132465,1,2,0:0:0:0:
242,193,132607,1,0,0:0:0:0:
246,193,132748,1,0,0:0:0:0:
246,193,132890,1,2,0:0:0:0:
246,193,133031,1,2,0:0:0:0:
242,193,133173,1,0,0:0:0:0:
242,193,133314,1,0,0:0:0:0:
242,193,133456,1,2,0:0:0:0:
246,193,133739,1,2,0:0:0:0:
246,193,133880,1,2,0:0:0:0:
246,193,134022,1,0,0:0:0:0:
242,193,134163,1,2,0:0:0:0:
242,193,134305,1,0,0:0:0:0:
246,193,134588,1,2,0:0:0:0:
246,193,134871,1,0,0:0:0:0:
246,193,135012,1,2,0:0:0:0:
246,193,135437,1,6,0:0:0:0:
