osu file format v14

[General]
AudioFilename: Kuusou Forest Jin feat. Takumi Yoshida (Full).mp3
AudioLeadIn: 0
PreviewTime: -1
Countdown: 1
SampleSet: Normal
StackLeniency: 0.7
Mode: 0
LetterboxInBreaks: 0
WidescreenStoryboard: 1

[Editor]
DistanceSpacing: 1
BeatDivisor: 2
GridSize: 4
TimelineZoom: 1

[Metadata]
Title:Kuusou Forest
TitleUnicode:Kuusou Forest
Artist:Takumi Yoshida
ArtistUnicode:Takumi Yoshida
Creator:GalaxySkys_
Version:Easy
Source:Kagerou Project
Tags:Souzou forest, Imagination forest, yuikonnu, yuiko, takumi yoshida, kageproject
BeatmapID:1368845
BeatmapSetID:642992

[Difficulty]
HPDrainRate:0
CircleSize:2
OverallDifficulty:0
ApproachRate:0
SliderMultiplier:0.8
SliderTickRate:2

[Events]
//Background and Video events
0,0,"KUUSOU FOREST.jpg",0,0
//Break Periods
//Storyboard Layer 0 (Background)
//Storyboard Layer 1 (Fail)
//Storyboard Layer 2 (Pass)
//Storyboard Layer 3 (Foreground)
//Storyboard Sound Samples

[TimingPoints]
1182.89792896736,353.24891112419,4,1,0,100,1,0
68949,-100,4,1,0,100,0,1
91537,-100,4,1,0,100,0,0

[Colours]
Combo1 : 32,143,255
Combo2 : 0,255,64
Combo3 : 79,255,206
Combo4 : 0,255,255

[HitObjects]
76,228,1182,6,0,P|64:268|148:344,1,160,4|4,0:0|0:0,0:0:0:0:
256,348,2242,1,8,0:0:0:0:
188,240,2595,6,0,B|260:236|260:236|296:224|296:224|352:228,1,160,4|0,0:0|0:0,0:0:0:0:
416,160,3655,1,8,0:0:0:0:
328,112,4008,2,0,L|248:112,1,80
236,208,4715,2,0,B|166:204|130:192|124:196,2,80,2|0|0,0:0|0:0|0:0,0:0:0:0:
88,184,6834,6,0,P|72:264|120:348,1,160,2|0,0:0|0:0,0:0:0:0:
192,368,7894,1,8,0:0:0:0:
292,352,8247,2,0,L|300:260,1,80,2|8,0:0|0:0,0:0:0:0:
388,264,8954,2,0,L|380:172,1,80,0|8,0:0|0:0,0:0:0:0:
388,80,9660,1,0,0:0:0:0:
256,84,12486,2,0,P|180:64|104:97,1,160,2|0,0:0|0:0,0:0:0:0:
68,176,13546,1,8,0:0:0:0:
176,208,13899,1,0,0:0:0:0:
76,296,14253,6,0,P|128:292|168:300,1,80,2|8,0:0|0:0,0:0:0:0:
252,324,14959,1,0,0:0:0:0:
344,296,15312,6,0,P|352:252|332:132,1,160,0|0,1:0|0:3,0:0:0:0:
324,48,16372,1,0,0:0:0:0:
228,76,16725,6,0,B|144:112|72:128,1,160,4|8,0:0|0:0,0:0:0:0:
176,216,18138,2,0,P|222:275|183:364,1,160,10|8,0:0|0:0,0:0:0:0:
67,365,19198,1,8,0:0:0:0:
103,284,19551,6,0,L|286:272,1,160,10|8,0:0|0:0,0:0:0:0:
352,332,20611,1,8,0:0:0:0:
352,332,20964,1,0,0:0:0:0:
400,36,23790,6,0,B|336:76|260:60|260:60|220:80,1,160,10|8,0:0|0:0,0:0:0:0:
160,120,24850,1,8,0:0:0:0:
84,180,25203,2,0,P|64:260|128:324,1,160,10|8,0:0|0:0,0:0:0:0:
196,264,26263,1,8,0:0:0:0:
264,340,26616,6,0,B|316:364|364:332|364:332|404:344|440:328,1,160,10|8,0:0|0:0,0:0:0:0:
368,232,27676,1,0,0:0:0:0:
368,232,28029,1,0,0:0:0:0:
196,172,29089,6,0,P|140:200|108:232,1,80,6|8,0:0|0:0,0:0:0:0:
72,288,29796,1,8,0:0:0:0:
164,324,30149,2,0,P|220:300|344:324,1,160,10|10,0:0|0:0,0:0:0:0:
420,348,31209,1,8,0:0:0:0:
404,260,31562,6,0,L|376:80,1,160,10|8,0:0|0:0,0:0:0:0:
224,96,32975,2,0,P|148:108|64:168,1,160,10|8,0:0|0:0,0:0:0:0:
104,240,34035,1,0,0:0:0:0:
160,320,34388,6,0,P|256:316|332:304,1,160,14|8,0:0|0:0,0:0:0:0:
352,220,35448,1,0,0:0:0:0:
436,176,35801,2,0,P|366:123|283:146,1,160,10|10,0:0|0:0,0:0:0:0:
180,124,36861,1,0,0:0:0:0:
116,248,37214,6,0,B|156:228|200:236|200:236|240:260|292:244,1,160,4|8,0:0|0:0,0:0:0:0:
372,304,38274,1,0,0:0:0:0:
424,212,38627,2,0,P|320:180|316:180,1,80
260,176,39333,1,0,0:0:0:0:
256,284,39687,6,0,B|212:252|156:268|156:268|120:256|80:276,1,160,4|8,0:0|0:0,0:0:0:0:
164,176,40746,1,0,0:0:0:0:
76,184,41100,2,0,P|52:108|92:8,1,160,10|0,0:0|0:0,0:0:0:0:
160,72,42159,1,8,0:0:0:0:
248,100,42513,2,0,P|328:96|404:144,2,160
468,224,46222,2,0,P|400:224|340:256,1,120,4|8,0:0|0:0,0:0:0:0:
272,308,47105,2,0,P|196:328|176:316,1,80,8|4,0:0|0:0,0:0:0:0:
112,276,47811,6,0,L|132:184,1,80,8|8,0:0|0:0,0:0:0:0:
232,236,48518,2,0,L|224:120,1,80
328,164,49224,2,0,L|280:60,1,80
208,72,49931,2,0,L|128:224,1,160,4|8,0:0|0:0,0:0:0:0:
244,240,50990,1,0,0:3:0:0:
360,292,51344,6,0,L|376:196,1,80,4|8,0:0|0:0,0:0:0:0:
404,132,52050,2,0,P|344:116|312:124,1,80,0|8,0:0|0:0,0:0:0:0:
224,88,52757,2,0,P|168:80|76:160,2,160,2|2|8,0:0|0:0|0:0,0:0:0:0:
188,168,54700,6,0,L|128:312,1,120,0|8,0:0|0:0,0:0:0:0:
256,240,55583,2,0,L|268:332,1,80,0|8,0:0|0:0,0:0:0:0:
356,340,56289,2,0,P|412:308|472:200,2,160,2|4|8,0:0|0:0|0:0,0:0:0:0:
267,329,58055,6,0,B|211:333|211:333|175:329,1,80,4|8,0:0|0:0,0:0:0:0:
88,320,58762,2,0,P|76:292|88:232,1,80,0|8,0:0|0:0,0:0:0:0:
136,160,59468,2,0,P|147:117|134:74,1,80,2|8,0:0|0:0,0:0:0:0:
212,24,60175,2,0,L|304:32,1,80,0|8,0:0|0:0,0:0:0:0:
296,140,60881,1,0,0:0:0:0:
396,104,61235,6,0,B|404:104|396:140|408:152|388:196|420:244,1,120,6|0,0:0|0:0,0:0:0:0:
348,312,62294,6,0,P|328:304|268:260,2,80,6|8|0,0:0|0:0|0:0,0:0:0:0:
256,164,63354,2,0,P|300:172|352:160,1,80,0|8,0:0|0:0,0:0:0:0:
364,88,64061,2,0,P|408:60|464:64,2,80,2|2|8,0:0|0:0|0:0,0:0:0:0:
272,48,65120,6,0,L|264:140,1,80,0|8,0:0|0:0,0:0:0:0:
232,220,66004,2,0,L|468:204,1,200,0|8,0:0|0:0,0:0:0:0:
352,304,67240,2,0,B|404:296|420:296,4,40,2|6|8|0|0,0:0|0:0|0:0|0:0|0:0,0:0:0:0:
251,307,69006,6,0,P|187:303|163:315,1,80,4|8,0:0|0:0,0:0:0:0:
76,332,69713,2,0,P|80:280|72:240,1,80,0|8,0:0|0:0,0:0:0:0:
64,152,70419,2,0,P|60:100|68:60,1,80,2|8,0:0|0:0,0:0:0:0:
148,28,71126,2,0,B|184:20|184:20|232:32,1,80,0|8,0:0|0:0,0:0:0:0:
320,64,71832,6,0,P|368:120|356:220,1,160,4|0,0:0|0:0,0:0:0:0:
432,300,72892,1,8,0:0:0:0:
312,304,73245,1,6,0:0:0:0:
196,256,73598,6,0,P|180:320|184:344,2,80,4|4|4,0:0|0:0|0:0,0:0:0:0:
112,176,74658,2,0,L|220:156,1,80,0|2,0:0|0:0,0:0:0:0:
244,84,75365,2,0,L|328:92,1,80,2|2,0:0|0:0,0:0:0:0:
420,136,76071,6,0,P|384:204|380:240,3,80,4|8|0|0,0:0|0:0|0:0|0:0,0:0:0:0:
480,224,77484,1,8,0:0:0:0:
408,280,77837,2,0,B|344:292|344:292|304:316|304:316|236:328,1,160,10|8,0:0|0:0,0:0:0:0:
136,308,78897,1,8,0:0:0:0:
76,240,79250,6,0,P|80:192|108:136,2,80,10|8|0,0:0|0:0|0:0,0:0:0:0:
180,220,80310,1,8,0:0:0:0:
160,124,80663,2,0,P|208:128|252:124,1,80,10|2,0:0|0:0,0:0:0:0:
344,104,81370,2,0,P|336:160|296:188,1,80,2|2,0:0|0:0,0:0:0:0:
296,260,82076,6,0,P|324:328|344:348,2,80,4|8|10,0:0|0:0|0:0,0:0:0:0:
208,300,83136,2,0,P|160:308|128:292,1,80,8|8,0:0|0:0,0:0:0:0:
144,184,83843,2,0,P|200:212|248:196,1,80
312,248,84549,2,0,P|340:212|348:156,1,80
324,88,85256,1,0,0:0:0:0:
216,48,85609,6,0,B|104:80,2,80,10|8|0,0:0|0:0|0:0,0:0:0:0:
284,124,86669,2,0,L|196:164,1,80
100,152,87375,1,14,0:0:0:0:
88,240,87728,2,0,P|176:264|192:268,1,80
296,248,88435,2,0,L|276:344,1,80
256,192,88965,12,4,91612,0:0:0:0:
