osu file format v14

[General]
AudioFilename: audio.mp3
AudioLeadIn: 0
PreviewTime:91465
Countdown: 0
SampleSet: Soft
StackLeniency: 0.7
Mode: 0
LetterboxInBreaks: 0
WidescreenStoryboard: 1

[Editor]
Bookmarks: 65092,116857
DistanceSpacing: 1
BeatDivisor: 4
GridSize: 32
TimelineZoom: 1

[Metadata]
Title:Amazing Artist!!
TitleUnicode:Amazing Artist!!
Artist:Takumi Ozawa
ArtistUnicode:尾澤拓実
Creator:Hey lululu
Version:Normal
Source:マギアレコード 魔法少女まどか☆マギカ外伝
Tags:オリジナル・サウンドトラックIII Magia Record: Puella Magi Madoka Magica Side Story original soundtrack ost Blu-ray&DVD 第4巻 熱病のドッペル Old Dorothy アリナ・グレイ Alina Gray anime instrumental electronic Silent Rock ArThasCD assassincread lu^3 Orchestra Orchestral
BeatmapID:2575381
BeatmapSetID:1235246

[Difficulty]
HPDrainRate:4
CircleSize:3.5
OverallDifficulty:5
ApproachRate:4
SliderMultiplier:1.1
SliderTickRate:1

[Events]
//Background and Video events
0,0,"BG2.jpg",0,0
//Break Periods
2,65292,70047
2,71567,76321
//Storyboard Layer 0 (Background)
//Storyboard Layer 1 (Fail)
//Storyboard Layer 2 (Pass)
//Storyboard Layer 3 (Foreground)
//Storyboard Layer 4 (Overlay)
//Storyboard Sound Samples

[TimingPoints]
779,392.156862745098,4,2,1,60,1,0
27445,-100,4,2,1,60,0,0
38818,-100,4,2,1,60,0,0
39994,-100,4,2,1,65,0,0
45877,-100,4,2,1,65,0,0
46269,-100,4,2,1,65,0,0
71367,-100,4,2,1,50,0,0
77641,-400,4,2,1,50,0,0
80779,-400,4,2,1,50,0,0
83916,-100,4,2,1,55,0,0
87053,-100,4,2,1,55,0,0
88622,-100,4,2,1,55,0,0
89406,-100,4,2,1,60,0,0
91465,-100,4,2,1,5,0,0
91563,-100,4,2,1,60,0,0
103916,-100,4,2,1,60,0,0
104308,-100,4,2,1,60,0,0
118426,-100,4,2,1,50,0,0
119994,-100,4,2,1,40,0,0
120778,-100,4,2,1,45,0,0
121563,-100,4,2,1,50,0,0
122347,-100,4,2,1,55,0,0
123131,-100,4,2,1,60,0,0

[Colours]
Combo1 : 221,81,81
Combo2 : 0,145,72
Combo3 : 115,210,135
Combo4 : 99,140,234

[HitObjects]
6,91,14896,6,0,L|12:146,1,55,4|2,3:0|0:2,0:0:0:0:
24,199,15288,2,0,L|138:189,1,110,2|0,3:2|3:2,0:0:0:0:
192,186,15877,1,2,0:2:0:0:
192,186,16073,2,0,L|179:257,1,55,2|2,3:2|0:2,0:0:0:0:
166,292,16465,2,0,P|205:316|274:308,1,110,0|2,3:2|3:2,0:0:0:0:
327,219,17249,2,0,L|308:100,1,110,0|2,3:2|3:2,0:0:0:0:
369,18,18033,6,0,P|425:25|468:68,2,110,2|2|0,3:2|3:2|3:2,0:0:0:0:
285,90,19210,1,2,3:2:0:0:
206,13,19602,2,0,L|87:36,1,110,2|0,3:2|3:2,0:0:0:0:
11,101,20386,2,0,P|36:150|24:213,1,110,2|0,3:2|3:2,0:0:0:0:
8,254,20975,1,0,0:0:0:0:
34,301,21171,6,0,L|92:314,1,55,2|2,3:2|0:0,0:0:0:0:
134,341,21563,2,0,P|188:325|245:323,1,110,2|0,3:2|3:2,0:0:0:0:
288,361,22151,1,2,0:0:0:0:
288,361,22347,2,0,L|303:309,1,55,2|2,3:2|0:0,0:0:0:0:
311,253,22739,2,0,P|290:206|303:143,1,110,0|2,3:2|3:2,0:0:0:0:
370,65,23524,2,0,L|490:81,1,110,0|2,3:2|3:2,0:0:0:0:
488,185,24308,5,2,3:2:0:0:
409,261,24700,1,0,3:2:0:0:
320,196,25092,2,0,L|210:181,1,110,2|0,3:2|3:2,0:0:0:0:
103,158,25877,2,0,P|92:109|118:51,1,110,2|0,3:2|3:2,0:0:0:0:
212,6,26661,2,0,L|266:12,1,55,2|2,3:2|0:2,0:0:0:0:
309,46,27053,2,0,L|363:52,1,55,2|2,3:2|3:2,0:0:0:0:
417,62,27445,6,0,P|432:130|418:188,1,110.000003356934,4|0,3:0|3:2,0:0:0:0:
378,268,28229,2,0,L|315:284,1,55.0000016784668,2|2,3:2|3:2,0:0:0:0:
274,304,28622,2,0,P|234:265|173:258,1,110.000003356934,2|0,3:2|3:2,0:0:0:0:
131,252,29210,1,2,0:0:0:0:
131,252,29406,2,0,L|112:192,1,55.0000016784668,2|2,3:2|3:2,0:0:0:0:
73,162,29798,2,0,P|61:112|87:48,1,110.000003356934,2|2,3:2|3:2,0:0:0:0:
181,18,30582,6,0,L|239:25,1,55.0000016784668,2|2,3:2|0:0,0:0:0:0:
290,32,30975,2,0,B|311:85|311:85|293:150,1,110.000003356934,2|0,3:2|3:2,0:0:0:0:
277,190,31563,1,2,0:0:0:0:
277,190,31759,2,0,L|350:200,1,55.0000016784668,2|2,3:2|0:0,0:0:0:0:
390,203,32151,1,0,3:2:0:0:
443,299,32543,2,0,L|499:288,2,55.0000016784668,2|2|2,3:2|0:0|3:2,0:0:0:0:
368,380,33328,1,2,3:2:0:0:
276,319,33720,6,0,P|227:325|150:300,1,110.000003356934,4|0,3:1|3:2,0:0:0:0:
116,213,34504,2,0,L|119:154,1,55.0000016784668,2|2,3:2|3:2,0:0:0:0:
163,126,34896,2,0,P|217:120|270:134,1,110.000003356934,2|0,3:2|3:2,0:0:0:0:
313,175,35484,1,2,0:0:0:0:
313,175,35680,2,0,L|382:167,1,55.0000016784668,2|2,3:2|3:2,0:0:0:0:
422,170,36073,2,0,P|436:104|411:47,1,110.000003356934,2|2,3:2|3:2,0:0:0:0:
329,6,36857,6,0,L|256:22,1,55.0000016784668,2|2,3:2|0:0,0:0:0:0:
239,59,37249,2,0,L|111:40,1,110.000003356934,2|0,3:2|3:2,0:0:0:0:
83,55,37837,1,2,0:0:0:0:
83,55,38033,2,0,P|65:87|63:118,1,55.0000016784668,2|2,3:2|0:0,0:0:0:0:
67,159,38426,1,0,3:2:0:0:
131,248,38818,6,0,L|209:237,1,55,6|2,3:2|3:2,0:0:0:0:
219,283,39210,2,0,L|297:294,1,55,2|6,3:2|3:2,0:0:0:0:
314,326,39602,1,2,3:2:0:0:
415,282,39994,6,0,P|431:221|408:137,1,110,4|0,3:0|3:2,0:0:0:0:
384,138,40582,2,0,L|311:153,1,55,2|0,0:1|3:2,0:0:0:0:
253,69,41171,2,0,P|215:91|116:87,2,110,2|0|0,3:1|3:2|3:2,0:0:0:0:
285,25,42151,1,2,0:0:0:0:
285,25,42347,2,0,L|413:51,1,110,2|0,3:1|3:2,0:0:0:0:
429,87,42935,1,2,0:0:0:0:
464,128,43131,6,0,P|442:193|427:261,1,110,2|2,3:1|3:2,0:0:0:0:
429,343,43916,2,0,P|384:312|307:310,1,110,0|2,3:1|3:2,0:0:0:0:
277,321,44504,1,0,0:0:0:0:
277,321,44700,2,0,B|239:348|239:348|152:330,1,110,0|2,3:2|3:2,0:0:0:0:
91,265,45484,1,2,3:2:0:0:
172,190,45877,2,0,L|233:203,1,55,2|0,3:1|3:1,0:0:0:0:
272,173,46269,6,0,P|288:115|271:40,1,110,2|2,3:1|3:2,0:0:0:0:
179,27,47053,1,0,3:2:0:0:
76,66,47445,2,0,L|55:10,2,55,2|0|0,3:2|0:0|3:2,0:0:0:0:
58,174,48229,2,0,P|81:224|87:295,1,110,2|2,3:2|3:2,0:0:0:0:
188,335,49014,5,2,3:1:0:0:
188,335,49210,2,0,P|239:359|322:353,2,110,0|2|0,0:0|0:0|3:2,0:0:0:0:
178,280,50190,1,0,3:2:0:0:
264,208,50582,2,0,L|273:150,1,55,0|0,3:2|3:2,0:0:0:0:
235,120,50975,1,2,3:1:0:0:
235,120,51171,2,0,P|179:121|123:82,1,110,2|2,0:0|3:1,0:0:0:0:
109,45,51759,1,0,3:2:0:0:
10,93,52151,2,0,L|22:154,1,55,0|2,3:2|3:1,0:0:0:0:
50,195,52543,6,0,L|33:317,2,110,4|0|0,3:0|3:2|3:2,0:0:0:0:
124,113,53720,1,2,3:1:0:0:
124,113,53916,2,0,B|177:129|177:129|259:107,1,110,2|2,0:0|0:0,0:0:0:0:
282,98,54504,1,0,3:2:0:0:
366,168,54896,2,0,L|341:304,1,110,0|0,3:1|3:2,0:0:0:0:
282,366,55680,6,0,B|233:373|233:373|164:339,1,110,2|0,3:2|3:2,0:0:0:0:
158,294,56269,2,0,L|187:165,1,110,2|0,3:1|0:0,0:0:0:0:
197,133,56857,1,0,3:2:0:0:
290,74,57249,2,0,P|332:95|417:82,1,110,2|0,3:2|3:2,0:0:0:0:
439,61,57837,2,0,P|486:131|441:218,1,165,2|2,3:1|3:1,0:0:0:0:
416,231,58622,1,2,3:2:0:0:
381,274,58818,6,0,L|366:393,2,110,2|2|2,3:1|3:2|3:2,0:0:0:0:
345,175,59994,1,2,3:2:0:0:
345,175,60190,2,0,P|276:156|193:214,1,165,2|0,0:1|3:2,0:0:0:0:
94,232,61171,2,0,P|28:222|0:174,1,110,2|2,3:2|3:2,0:0:0:0:
4,83,61955,6,0,L|131:59,1,110,2|0,3:2|3:1,0:0:0:0:
163,82,62543,1,2,3:1:0:0:
163,82,62739,2,0,P|203:139|199:198,1,110,0|0,3:2|3:2,0:0:0:0:
234,283,63524,2,0,B|176:271|176:271|110:300,2,110,2|0|0,3:1|3:2|3:2,0:0:0:0:
302,368,64700,2,0,L|361:356,1,55,0|0,3:2|3:2,0:0:0:0:
408,341,65092,5,4,0:1:0:0:
408,341,71367,5,4,0:1:0:0:
408,341,77641,5,4,3:0:0:0:
256,192,77837,12,2,82347,0:0:0:0:
189,317,83916,5,4,3:0:0:0:
394,237,84700,1,4,3:2:0:0:
312,36,85484,1,4,3:1:0:0:
105,111,86269,1,4,3:2:0:0:
189,317,87053,1,4,3:1:0:0:
448,147,88622,6,0,P|468:212|455:280,1,110,4|0,3:0|3:2,0:0:0:0:
362,294,89406,2,0,P|342:229|355:161,1,110,0|0,3:2|3:2,0:0:0:0:
362,135,89994,1,2,0:0:0:0:
498,41,90582,1,2,3:2:0:0:
166,52,91759,6,0,L|94:70,1,55,4|2,3:0|0:2,0:0:0:0:
87,114,92151,2,0,L|116:231,1,110,2|0,3:2|3:2,0:0:0:0:
126,274,92739,1,2,0:2:0:0:
126,274,92935,2,0,L|202:299,1,55,2|2,3:2|0:2,0:0:0:0:
227,315,93328,2,0,P|282:283|330:286,1,110,0|2,3:2|3:2,0:0:0:0:
393,197,94112,2,0,P|447:197|492:227,1,110,0|2,3:2|3:2,0:0:0:0:
505,336,94896,6,0,L|378:357,2,110,2|2|0,3:2|3:2|3:2,0:0:0:0:
492,227,96073,1,2,3:2:0:0:
444,128,96465,2,0,P|469:66|488:-3,1,110,2|0,3:2|3:2,0:0:0:0:
372,13,97249,2,0,L|225:36,1,110,2|0,3:2|3:2,0:0:0:0:
228,72,97837,1,0,0:0:0:0:
178,95,98033,6,0,L|107:85,1,55,2|2,3:2|0:0,0:0:0:0:
80,53,98426,2,0,P|25:84|7:155,1,110,2|0,3:2|3:2,0:0:0:0:
52,164,99014,1,2,0:0:0:0:
52,164,99210,2,0,L|60:224,1,55,2|2,3:2|0:0,0:0:0:0:
81,268,99602,1,0,3:2:0:0:
188,246,99994,1,2,3:2:0:0:
280,306,100386,2,0,L|396:340,1,110,0|2,3:2|3:2,0:0:0:0:
434,239,101171,6,0,B|411:198|411:198|424:119,1,110,2|0,3:2|3:2,0:0:0:0:
427,81,101759,1,0,0:0:0:0:
427,81,101955,2,0,L|296:57,1,110,2|0,3:2|3:2,0:0:0:0:
209,53,102739,2,0,P|221:127|209:194,1,110,2|0,3:2|3:2,0:0:0:0:
158,254,103524,2,0,L|234:271,1,55,2|2,3:2|0:2,0:0:0:0:
242,311,103916,2,0,L|318:328,1,55,2|2,3:2|3:2,0:0:0:0:
344,349,104308,6,0,P|370:339|422:335,1,55,4|2,3:0|3:2,0:0:0:0:
450,344,104700,2,0,P|484:284|480:220,1,110,2|0,3:2|3:2,0:0:0:0:
429,149,105484,2,0,L|357:158,1,55,2|2,3:2|0:0,0:0:0:0:
332,191,105877,2,0,L|222:166,1,110,2|2,3:2|3:2,0:0:0:0:
175,184,106465,1,2,3:2:0:0:
175,184,106661,2,0,P|158:159|160:110,1,55,2|2,3:2|0:0,0:0:0:0:
175,84,107053,1,2,3:2:0:0:
272,22,107445,6,0,L|348:39,1,55,2|2,3:2|0:0,0:0:0:0:
376,55,107837,2,0,L|393:174,1,110,2|2,3:2|3:2,0:0:0:0:
398,218,108426,1,2,0:0:0:0:
398,218,108622,2,0,L|381:283,1,55,2|2,3:2|0:0,0:0:0:0:
365,323,109014,1,2,3:2:0:0:
263,365,109406,2,0,L|203:349,1,55,2|2,3:2|0:0,0:0:0:0:
158,331,109798,2,0,L|199:199,1,110,2|2,3:2|3:2,0:0:0:0:
247,214,110386,1,2,0:0:0:0:
283,173,110582,6,0,P|291:149|290:108,1,55,4|2,3:1|0:0,0:0:0:0:
237,110,110975,2,0,P|214:61|225:-12,1,110,2|0,3:2|3:2,0:0:0:0:
327,7,111759,2,0,L|403:21,1,55,2|2,3:2|0:0,0:0:0:0:
411,62,112151,2,0,P|498:77|520:116,1,110,2|2,3:2|3:2,0:0:0:0:
503,147,112739,1,2,3:2:0:0:
503,147,112935,2,0,L|480:213,1,55,2|2,3:2|0:0,0:0:0:0:
470,252,113328,1,2,3:2:0:0:
377,311,113720,6,0,L|261:327,1,110,2|2,3:2|3:2,0:0:0:0:
222,353,114308,1,0,0:0:0:0:
222,353,114504,2,0,P|188:313|210:244,1,110,2|2,3:2|3:2,0:0:0:0:
177,151,115288,6,0,L|244:133,1,55,2|0,3:2|0:0,0:0:0:0:
281,117,115680,2,0,L|295:170,1,55,2|0,3:2|0:0,0:0:0:0:
337,205,116073,2,0,L|404:187,1,55,2|0,3:2|0:0,0:0:0:0:
440,169,116465,2,0,L|454:222,1,55,2|0,3:2|3:2,0:0:0:0:
467,275,116857,5,4,0:1:0:0:
256,192,117053,12,0,123131,0:0:0:0:
