osu file format v14

[General]
AudioFilename: audio.mp3
AudioLeadIn: 0
PreviewTime: -1
Countdown: 1
SampleSet: Normal
StackLeniency: 0.7
Mode: 0
LetterboxInBreaks: 0
WidescreenStoryboard: 1

[Editor]
DistanceSpacing: 0.1
BeatDivisor: 4
GridSize: 32
TimelineZoom: 1.4

[Metadata]
Title:Meguru Mono
TitleUnicode:メグルモノ
Artist:Takuma Terashima
ArtistUnicode:Takuma Terashima
Creator:LOLEnigMatic
Version:tech mapper owo
Source:転生したらスライムだった件
Tags:
BeatmapID:2034101
BeatmapSetID:971504

[Difficulty]
HPDrainRate:5
CircleSize:3.7
OverallDifficulty:7.3
ApproachRate:9.3
SliderMultiplier:2
SliderTickRate:1

[Events]
//Background and Video events
0,0,"jveeuP91SdbEIOSmeY8OSjPv0Yd.jpg",0,0
//Break Periods
2,215323,225668
//Storyboard Layer 0 (Background)
//Storyboard Layer 1 (Fail)
//Storyboard Layer 2 (Pass)
//Storyboard Layer 3 (Foreground)
//Storyboard Layer 4 (Overlay)
//Storyboard Sound Samples

[TimingPoints]
1136,346.820809248555,4,1,0,100,1,0
1136,-166.666666666667,4,1,0,100,0,0
10673,-100,4,1,0,100,0,0
188419,-50,4,1,0,100,0,1
189633,-58.8235294117647,4,1,0,100,0,1
191800,-50,4,1,0,100,0,1
192494,-58.8235294117647,4,1,0,100,0,1
193448,-66.6666666666667,4,1,0,100,0,1
194575,-58.8235294117647,4,1,0,100,0,1
196222,-66.6666666666667,4,1,0,100,0,1
196742,-100,4,1,0,100,0,1
200644,-100,4,1,0,100,0,0
200731,-58.8235294117647,4,1,0,100,0,1
202292,-76.9230769230769,4,1,0,100,0,1
203592,-54.054054054054,4,1,0,100,0,1
205066,-100,4,1,0,100,0,1
210615,-100,4,1,0,100,0,0
214430,-200,4,1,0,100,0,0

[HitObjects]
193,88,188419,6,0,B|173:150|173:150|188:223|188:223|175:312,1,200
239,339,188679,1,0,0:0:0:0:
239,339,188766,2,0,P|281:353|277:301,1,100
281,240,189026,6,0,B|301:178|301:178|286:105|286:105|299:16,1,200
121,138,189459,1,0,0:0:0:0:
136,155,189546,1,0,0:0:0:0:
151,235,189719,2,0,B|200:239|200:239|227:268|227:268|309:263,1,170.000003242493
402,199,190153,5,0,0:0:0:0:
387,182,190240,1,0,0:0:0:0:
385,109,190413,2,0,B|336:105|336:105|309:76|309:76|227:81,1,170.000003242493
174,202,190846,5,0,0:0:0:0:
142,182,190933,1,0,0:0:0:0:
123,203,191020,1,0,0:0:0:0:
135,232,191107,1,0,0:0:0:0:
163,231,191193,2,0,B|196:233|196:233|241:274|242:276|330:253|322:218,1,170.000003242493
293,96,191540,2,0,P|251:82|255:134,1,106.250002026558
320,193,191800,2,0,B|295:246|295:246|226:266|262:272|207:322|207:322|135:326|135:326|87:302,1,300
58,26,192234,5,0,0:0:0:0:
83,46,192320,1,0,0:0:0:0:
77,124,192494,2,0,B|137:181|137:181|162:183|138:143|178:179|210:254,1,170.000003242493
309,301,192927,5,0,0:0:0:0:
296,274,193013,1,0,0:0:0:0:
322,189,193187,2,0,B|261:131|261:131|236:129|260:169|220:133|188:58,1,170.000003242493
101,162,193448,2,0,P|91:212|129:275,1,75.0000028610231
168,276,193621,2,0,P|178:226|140:163,1,75.0000028610231
180,123,193794,2,0,P|216:117|252:127,1,75.0000028610231
275,228,193968,2,0,B|344:261|344:261|370:180,1,150.000005722046
372,115,194315,5,0,0:0:0:0:
343,127,194401,1,0,0:0:0:0:
297,54,194575,2,0,B|302:54|262:69|258:96|258:96|259:127|259:127|223:135|227:161|206:176|180:202,1,170.000003242493
157,261,195008,5,0,0:0:0:0:
186,249,195094,1,0,0:0:0:0:
229,331,195268,2,0,B|223:330|264:316|268:289|268:289|267:258|267:258|303:250|299:224|320:209|346:183,1,170.000003242493
374,114,195702,5,0,0:0:0:0:
345,126,195788,1,0,0:0:0:0:
297,54,195962,2,0,B|302:54|262:69|258:96|258:96|259:127|259:127|223:135|227:161|206:176|180:202,1,170.000003242493
187,266,196222,2,0,P|217:307|240:315,1,75.0000028610231
333,303,196396,2,0,P|307:266|279:253,1,75.0000028610231
242,188,196569,2,0,P|262:155|309:139,1,75.0000028610231
358,66,196742,6,0,L|459:65,1,100
309,130,197089,2,0,L|209:130,1,100
369,189,197436,2,0,L|470:188,1,100
314,258,197783,2,0,L|214:258,1,100
383,317,198130,2,0,L|433:316,3,50
314,248,198477,2,0,L|264:249,3,50
384,177,198823,2,0,L|434:176,3,50
326,106,199170,2,0,L|276:107,3,50
395,141,199517,6,0,P|401:215|375:292,1,150
302,313,199864,2,0,P|299:268|307:244,1,50
235,213,200037,2,0,P|224:242|218:274,1,50
131,285,200557,6,0,P|115:298|65:289,1,50
113,208,200731,2,0,B|92:148|92:148|113:99|113:99|169:81|217:95,1,170.000003242493
252,96,201078,1,0,0:0:0:0:
370,169,201251,1,0,0:0:0:0:
348,208,201338,1,0,0:0:0:0:
376,251,201511,2,0,B|343:262|343:262|295:312|295:312|244:313|221:298,1,170.000003242493
173,249,201771,1,0,0:0:0:0:
138,168,201945,1,0,0:0:0:0:
151,132,202031,1,0,0:0:0:0:
188,108,202118,2,0,B|217:83|217:83|231:84|260:115,1,85.0000016212464
226,180,202292,6,0,B|262:208|281:211|296:212|298:227|300:235|336:259,1,129.999994049073
418,217,202552,2,0,B|387:196|385:188|383:173|368:172|349:169|313:141,1,129.999994049073
250,95,202812,2,0,P|259:39|311:60,1,129.999994049073
329,145,203072,2,0,B|308:175|300:177|285:179|284:194|281:213|253:249,1,129.999994049073
173,285,203332,2,0,P|117:275|138:223,1,129.999994049073
215,213,203592,6,0,B|243:167|240:123|240:123|251:97|251:97|224:40,1,184.999999294281
164,93,203852,2,0,B|136:139|139:183|139:183|128:209|128:209|155:266,1,184.999999294281
238,307,204112,1,0,0:0:0:0:
265,315,204199,1,0,0:0:0:0:
332,265,204286,6,0,B|305:209|305:209|316:183|316:183|313:139|341:93,1,184.999999294281
402,41,204546,2,0,B|428:96|428:96|417:122|417:122|420:166|392:212,1,184.999999294281
417,274,204806,5,0,0:0:0:0:
398,310,204893,1,0,0:0:0:0:
362,326,204979,1,0,0:0:0:0:
322,329,205066,2,0,P|276:329|224:299,1,100
166,214,205413,1,0,0:0:0:0:
166,214,205586,2,0,P|211:177|252:175,1,100
324,226,205933,1,0,0:0:0:0:
324,226,206107,2,0,P|279:263|238:265,1,100
119,232,206453,5,0,0:0:0:0:
225,56,206627,1,0,0:0:0:0:
258,232,206800,1,0,0:0:0:0:
137,54,206974,1,0,0:0:0:0:
168,302,207147,2,0,P|234:325|287:322,1,100
334,275,207407,2,0,P|268:252|215:255,1,100
178,188,207667,2,0,P|189:157|216:133,1,50
267,50,207841,5,0,0:0:0:0:
267,50,207927,1,0,0:0:0:0:
267,50,208014,2,0,P|296:94|308:144,1,100
226,124,208361,5,0,0:0:0:0:
226,124,208447,1,0,0:0:0:0:
226,124,208534,2,0,P|195:171|185:218,1,100
293,185,208881,5,0,0:0:0:0:
293,185,208967,1,0,0:0:0:0:
293,185,209054,2,0,P|324:232|334:279,1,100
247,253,209401,5,0,0:0:0:0:
247,253,209487,1,0,0:0:0:0:
247,253,209574,2,0,P|216:300|206:347,1,100
299,336,209922,2,0,P|339:294|345:249,1,100
273,182,210268,2,0,P|285:124|327:100,1,100
405,89,210615,6,0,P|393:147|351:171,1,100
243,251,210962,1,0,0:0:0:0:
181,194,211136,2,0,P|151:154|157:99,1,100
247,64,211482,1,0,0:0:0:0:
247,64,211656,1,0,0:0:0:0:
327,180,213216,5,0,0:0:0:0:
327,180,213303,1,0,0:0:0:0:
327,180,213390,2,0,P|325:248|293:280,1,100
221,298,213737,5,0,0:0:0:0:
221,298,213910,2,0,P|223:230|255:198,1,100
263,131,214257,1,0,0:0:0:0:
263,131,214430,2,0,P|202:55|95:50,1,200
319,70,226222,5,0,0:0:0:0:
