osu file format v14

[General]
AudioFilename: Mahouka Koukou no Rettousei OST - Code Break.mp3
AudioLeadIn: 0
PreviewTime: 93819
Countdown: 0
SampleSet: Soft
StackLeniency: 0.7
Mode: 0
LetterboxInBreaks: 0
WidescreenStoryboard: 0

[Editor]
DistanceSpacing: 1
BeatDivisor: 4
GridSize: 4
TimelineZoom: 1

[Metadata]
Title:Code Break
TitleUnicode:Code Break
Artist:Taku Iwasaki/LotusJuice
ArtistUnicode:Taku Iwasaki/LotusJuice
Creator:Heldrith
Version:Pre-Intermediate
Source:Mahouka Koukou no Rettousei [魔法科高校の劣等生]
Tags:Mahouka Koukou no Rettousei mahōka kōkō no rettōsei Taku Iwasaki LotusJuice Lotus Juice Code Break 魔法科高校の劣等生 OST soundtrack the irregular at magic high school
BeatmapID:790158
BeatmapSetID:332746

[Difficulty]
HPDrainRate:3
CircleSize:2.5
OverallDifficulty:2.5
ApproachRate:3
SliderMultiplier:1.1
SliderTickRate:1

[Events]
//Background and Video events
0,0,"The Irregular At Magic High School.jpg",0,0
Video,0,"Mahouka Koukou no Rettousei AMV by CrashAMV.avi"
//Break Periods
2,80255,92379
2,135309,145282
//Storyboard Layer 0 (Background)
//Storyboard Layer 1 (Fail)
//Storyboard Layer 2 (Pass)
//Storyboard Layer 3 (Foreground)
//Storyboard Sound Samples
Sample,108873,0,"soft-hitnormal2.wav",70
Sample,110593,0,"soft-hitnormal2.wav",70
Sample,112744,0,"soft-hitnormal2.wav",70

[TimingPoints]
56,430.10752688172,4,2,1,60,1,0
10378,-100,4,2,1,100,0,0
10593,-100,4,2,1,60,0,0
19410,-142.857142857143,4,2,1,60,0,0
20271,-100,4,2,1,60,0,0
38765,-100,4,2,1,80,0,0
38980,-100,4,2,1,60,0,0
41776,-71.4285714285714,4,2,1,60,0,0
42206,-100,4,2,1,60,0,0
52529,-100,4,2,1,80,0,0
52744,-100,4,2,1,60,0,0
66292,-100,4,2,1,80,0,0
66507,-100,4,2,1,60,0,1
69733,-100,4,2,1,80,0,0
69948,-100,4,2,1,60,0,1
80055,-100,4,2,1,80,0,1
80271,-100,4,2,1,60,0,0
100271,-100,4,2,1,80,0,0
100486,-100,4,2,1,60,0,0
107582,-100,4,2,1,80,0,0
107797,-100,4,2,1,60,0,0
111023,-90.9090909090909,4,2,1,65,0,0
111668,-83.3333333333333,4,2,1,70,0,0
112744,-76.9230769230769,4,2,1,75,0,0
113604,-71.4285714285714,4,2,1,80,0,0
114034,-100,4,2,1,80,0,0
114249,-100,4,2,1,60,0,1
114464,-142.857142857143,4,2,1,60,0,1
118335,-142.857142857143,4,2,1,80,0,1
118550,-142.857142857143,4,2,1,60,0,1
127797,-142.857142857143,4,2,1,80,0,1
128012,-142.857142857143,4,2,1,60,0,1
135109,-100,4,2,1,80,0,0
135324,-100,4,2,1,60,0,0
148873,-100,4,2,1,100,0,0
149088,-100,4,2,1,60,0,0
150593,-71.4285714285714,4,2,1,60,0,0
152744,-100,4,2,1,60,0,0
153174,-71.4285714285714,4,2,1,60,0,0
155754,-100,4,2,1,60,0,0
162636,-100,4,2,1,80,0,0
162851,-100,4,2,1,60,0,1
169948,-100,4,2,1,80,0,0
170163,-100,4,2,1,60,0,1
176400,-100,4,2,1,80,0,0
176615,-100,4,2,1,60,0,0
183281,-100,4,2,1,80,0,0
183496,-100,4,2,1,60,0,0
190163,-100,4,2,1,80,0,0
190378,-100,4,2,1,60,0,1
203926,-100,4,2,1,80,0,0
204142,-100,4,2,1,60,0,1
217690,-100,4,2,1,100,0,0

[Colours]
Combo1 : 58,143,86
Combo2 : 211,217,108
Combo3 : 168,62,43
Combo4 : 83,115,151
SliderBorder : 150,160,150
SliderTrackOverride : 1,5,1 SpinnerBackground :
255,255,255

[HitObjects]
88,72,4357,5,0,0:0:0:0:
188,120,4787,1,0,0:0:0:0:
280,60,5217,2,0,L|344:40,2,55
308,108,5862,1,0,0:0:0:0:
335,155,6077,22,0,P|256:216|236:216,1,110
204,240,6722,1,0,0:0:0:0:
152,224,6937,2,0,P|104:196|88:180,3,55,0|8|0|0,0:0|0:0|0:0|0:0,0:0:0:0:
100,148,7797,1,0,0:0:0:0:
204,108,8228,5,0,0:0:0:0:
124,40,8658,1,0,0:0:0:0:
124,40,8873,1,0,0:0:0:0:
124,40,9088,2,0,L|200:40,1,55
256,192,9518,12,4,10378,0:0:0:0:
296,128,11238,5,0,0:0:0:0:
388,188,11668,1,0,0:0:0:0:
456,276,12099,2,0,P|364:348|352:348,1,110
324,356,12744,1,0,0:0:0:0:
272,344,12959,6,0,L|188:272,1,110,0|8,0:0|0:0,0:0:0:0:
108,196,13819,1,0,0:0:0:0:
156,168,14034,1,0,0:0:0:0:
188,120,14249,2,0,P|120:48|108:48,1,110
20,100,15109,6,0,L|20:196,2,55
124,64,15969,1,0,0:0:0:70:soft-hitclap2.wav
220,120,16400,1,0,0:0:0:0:
312,180,16830,1,0,0:0:0:0:
376,268,17260,6,0,P|320:328|276:328,2,110,0|0|2,0:0|0:0|0:0,0:0:0:0:
436,176,18550,1,0,0:0:0:0:
388,76,18980,1,0,0:0:0:0:
336,56,19195,1,0,0:0:0:0:
296,60,19410,2,0,L|180:176,1,153.999995300293
92,112,20701,6,0,P|44:192|44:208,2,110,0|0|8,0:0|0:0|0:0,0:0:0:0:
144,132,21776,1,0,0:0:0:0:
176,176,21991,1,0,0:0:0:0:
272,228,22421,1,0,0:0:0:0:
380,216,22851,2,0,P|444:152|444:140,4,110,0|0|0|8|0,0:0|0:0|0:0|0:0|0:0,0:0:0:0:
308,300,25002,1,0,0:0:0:0:
208,252,25432,5,0,0:0:0:0:
300,192,25862,1,0,0:0:0:0:
376,108,26292,1,0,0:0:0:70:soft-hitclap2.wav
280,52,26722,2,0,L|152:52,1,110
128,88,27367,1,0,0:0:0:0:
96,132,27582,2,0,B|52:164|52:164|80:212,2,110
188,76,28873,5,0,0:0:0:70:soft-hitclap2.wav
240,60,29088,1,0,0:0:0:0:
296,52,29303,2,0,P|400:68|416:80,1,110
460,160,30163,2,0,B|504:212|424:224|476:316,2,165
352,168,31883,1,0,0:0:0:0:
312,272,32314,21,0,0:0:0:70:soft-hitclap2.wav
204,280,32744,1,0,0:0:0:0:
148,272,32959,1,0,0:0:0:0:
108,236,33174,2,0,P|36:272|28:308,2,110,8|0|8,0:0|0:0|0:0,0:0:0:0:
144,192,34249,1,0,0:0:0:0:
152,136,34464,2,0,P|55:107|29:118,2,110
240,72,35754,1,0,0:0:0:0:
352,80,36185,6,0,B|408:80|408:80|408:136,1,110,2|0,0:0|0:0,0:0:0:0:
408,188,36830,1,0,0:0:0:0:
408,244,37045,2,0,B|408:300|408:300|332:300,1,110
292,208,37905,1,0,0:0:0:0:
212,284,38335,1,0,0:0:0:0:
136,204,38765,1,4,0:0:0:0:
244,204,39195,5,0,0:0:0:0:
348,244,39625,2,0,L|428:168,1,110
388,128,40271,1,0,0:0:0:0:
336,116,40486,2,0,B|328:64|268:100|256:40,1,110,8|0,0:0|0:0,0:0:0:0:
148,48,41346,1,0,0:0:0:0:
28,144,41776,2,0,P|56:208|92:228,2,76.9999976501466
164,132,42636,5,0,0:0:0:70:soft-hitclap2.wav
268,164,43066,2,0,P|340:204|336:216,3,110
304,248,44572,1,0,0:0:0:0:
256,280,44787,5,0,0:0:0:0:
364,320,45217,1,0,0:0:0:0:
460,264,45647,1,2,0:0:0:0:
440,156,46077,1,0,0:0:0:0:
416,108,46292,1,0,0:0:0:0:
384,64,46507,5,0,0:0:0:0:
272,64,46937,2,0,B|216:20|212:120|156:56,2,110,8|0|0,0:0|0:0|0:0,0:0:0:0:
336,152,48228,1,0,0:0:0:70:soft-hitclap2.wav
384,248,48658,2,0,P|444:292|444:328,2,110
276,272,49948,6,0,B|244:288|244:288|264:352|128:360|140:260,2,220,8|0|0,0:0|0:0|0:0,0:0:0:0:
384,252,52099,1,0,0:0:0:70:soft-hitclap2.wav
396,200,52314,1,0,0:0:0:0:
376,148,52529,1,4,0:0:0:70:soft-hitclap2.wav
268,104,52959,5,0,0:0:0:0:
164,68,53389,2,0,L|100:20,2,55
148,120,54034,1,0,0:0:0:0:
104,156,54249,6,0,P|52:244|52:260,1,110,8|0,0:0|0:0,0:0:0:0:
160,248,55109,2,0,P|228:320|232:344,1,110
276,356,55754,1,0,0:0:0:0:
388,352,56185,5,0,0:0:0:0:
428,312,56400,1,0,0:0:0:70:soft-hitclap2.wav
444,196,56830,2,0,B|444:108|444:108|408:108,1,110,8|0,0:0|0:0,0:0:0:0:
316,140,57690,5,0,0:0:0:0:
236,64,58120,1,0,0:0:0:0:
192,96,58335,1,0,0:0:0:0:
140,112,58550,2,0,L|88:56,2,55,0|0|2,0:0|0:0|0:0,0:0:0:0:
120,164,59195,1,0,0:0:0:0:
76,196,59410,6,0,B|36:244|36:244|80:284,2,110
168,144,60701,1,8,0:0:0:70:soft-hitclap2.wav
168,252,61131,6,0,B|208:300|208:300|164:340,2,110
168,144,62422,1,0,0:0:0:70:soft-hitclap2.wav
276,124,62851,6,0,B|316:84|316:84|364:132,2,110
212,212,64142,1,8,0:0:0:70:soft-hitclap2.wav
308,276,64572,6,0,B|352:312|352:312|400:272,2,110
220,212,65862,1,0,0:0:0:0:
220,212,66292,1,4,0:0:0:0:
288,124,66722,5,0,0:0:0:0:
396,100,67152,2,0,L|436:32,2,55
372,148,67797,1,0,0:0:0:0:
388,200,68012,2,0,B|424:252|424:252|372:276|372:276|440:316|416:356,1,220
308,348,69303,5,0,0:0:0:0:
308,348,69733,1,0,0:0:0:0:
244,256,70163,1,0,0:0:0:0:
244,256,70593,2,0,P|168:312|152:308,1,110,0|2,0:0|0:0,0:0:0:0:
108,292,71238,1,0,0:0:0:0:
72,252,71453,2,0,B|32:200|32:200|88:180|108:140|56:100|88:76,1,220
200,72,72744,6,0,P|296:68|308:80,2,110,0|0|8,0:0|0:0|0:0,0:0:0:0:
180,180,74034,1,0,0:0:0:0:
180,180,74249,1,0,0:0:0:0:
180,180,74464,2,0,L|168:248,2,55
288,196,75324,1,0,0:0:0:0:
328,96,75754,6,0,P|412:144|416:152,2,110
272,88,76830,1,0,0:0:0:0:
224,56,77045,1,0,0:0:0:0:
168,148,77475,2,0,P|88:76|88:68,2,110,8|0|0,0:0|0:0|0:0,0:0:0:0:
132,252,78765,2,0,P|48:320|44:336,2,110
232,208,80055,1,4,0:0:0:0:
248,272,93819,6,0,P|108:320|52:288,1,220
144,224,95109,1,0,0:0:0:0:
84,132,95539,2,0,L|8:116,2,55,0|8|0,0:0|0:0|0:0,0:0:0:0:
136,116,96185,1,0,0:0:0:0:
172,76,96400,2,0,L|232:24,2,55,0|8|0,0:0|0:0|0:0,0:0:0:0:
196,184,97260,5,0,0:0:0:0:
116,260,97690,2,0,P|224:320|232:320,1,110
316,300,98550,2,0,L|368:340,2,55,0|8|0,0:0|0:0|0:0,0:0:0:0:
324,244,99195,1,0,0:0:0:0:
368,212,99410,2,0,L|444:124,1,110
368,48,100271,1,4,0:0:0:0:
328,148,100701,5,0,0:0:0:0:
328,148,100916,1,0,0:0:0:0:
328,148,101131,1,0,0:0:0:0:
240,84,101561,2,0,P|148:40|128:44,1,110
64,116,102421,6,0,P|32:204|36:216,1,110,2|0,0:0|0:0,0:0:0:0:
136,172,103281,2,0,P|112:264|104:268,1,110
20,196,104142,5,0,0:0:0:70:soft-hitclap2.wav
28,304,104572,2,0,P|104:360|116:360,2,110
132,272,105862,5,0,0:0:0:0:
132,272,106292,2,0,L|256:272,1,110
242,272,107152,1,0,0:0:0:0:
340,220,107582,5,4,0:0:0:0:
392,244,107797,1,0,0:0:0:0:
436,212,108012,2,0,P|372:76|316:60,1,220
216,32,109303,5,0,0:0:0:70:soft-hitnormal2.wav
160,40,109518,1,0,0:0:0:0:
112,64,109733,2,0,P|44:200|68:248,1,220,8|0,0:0|0:0,0:0:0:0:
188,244,111023,5,0,0:0:0:70:soft-hitnormal2.wav
148,288,111238,1,0,0:0:0:0:
104,332,111453,2,0,P|200:356|228:340,1,121.000003692627,0|2,0:0|0:0,0:0:0:0:
332,304,112314,1,0,0:0:0:70:soft-hitnormal2.wav
456,260,112744,6,0,L|500:180,1,71.4999967269899
484,128,113174,1,0,0:0:0:0:
344,156,113604,2,0,L|344:244,2,76.9999976501466,0|0|4,0:0|0:0|0:0,0:0:0:0:
344,100,114249,1,0,0:0:0:0:
288,108,114464,6,0,B|244:108|244:108|224:68|180:52|152:84|160:112,1,153.999995300293
148,172,115754,2,0,L|72:172,2,76.9999976501466,0|0|8,0:0|0:0|0:0,0:0:0:0:
220,144,117045,2,0,B|280:204|160:224|256:284|256:284,1,153.999995300293
216,348,118335,1,4,0:0:0:0:
216,348,118765,6,0,P|292:365|300:361,2,76.9999976501466
220,268,120055,1,0,0:0:0:0:
276,216,120486,2,0,L|356:216,2,76.9999976501466,2|0|0,0:0|0:0|0:0,0:0:0:0:
200,208,121776,2,0,P|144:164|128:164,2,76.9999976501466
160,276,123066,5,8,0:0:0:0:
88,248,123496,2,0,P|40:296|40:312,2,76.9999976501466
128,180,124787,5,0,0:0:0:0:
128,180,125217,1,2,0:0:0:0:
124,104,125647,2,0,P|164:56|180:56,1,76.9999976501466,8|0,0:0|0:0,0:0:0:0:
232,104,126507,6,0,P|276:136|308:128,2,76.9999976501466
292,56,127797,1,4,0:0:0:0:
368,64,128228,6,0,B|424:64|424:64|392:172,1,153.999995300293
360,228,129518,1,2,0:0:0:0:
316,292,129948,6,0,P|184:336|164:336,1,153.999995300293
120,276,131238,2,0,L|44:296,2,76.9999976501466
108,200,132529,5,0,0:0:0:70:soft-hitclap2.wav
60,142,132959,2,0,B|92:42|148:34|260:50,1,230.99999295044
248,124,134679,1,0,0:0:0:0:
352,84,135109,1,4,0:0:0:0:
256,192,146722,12,4,148873,0:0:0:0:
168,76,149303,5,0,0:0:0:0:
168,76,149733,1,0,0:0:0:0:
80,144,150163,2,0,L|136:180,1,55
204,168,150593,2,0,P|292:168|340:220,2,153.999995300293,0|0|8,0:0|0:0|0:0,0:0:0:0:
160,316,151883,2,0,P|68:244|72:204,2,153.999995300293
284,228,153174,6,0,P|272:280|312:316,4,76.9999976501466
360,248,154249,1,0,0:0:0:0:
392,184,154464,2,0,L|448:120,6,76.9999976501466,0|0|8|0|0|0|0,0:0|0:0|0:0|0:0|0:0|0:0|0:0,0:0:0:0:
320,100,156185,5,0,0:0:0:70:soft-hitclap2.wav
212,96,156615,2,0,B|156:52|156:52|100:76,1,110
72,96,157260,1,0,0:0:0:0:
56,148,157475,1,0,0:0:0:0:
144,212,157905,6,0,L|208:216,2,55
96,240,158550,1,0,0:0:0:0:
64,284,158765,2,0,P|112:352|144:352,1,110
208,276,159625,5,8,0:0:0:0:
304,328,160055,2,0,P|380:264|392:268,1,110
440,172,160916,5,0,0:0:0:0:
384,76,161346,2,0,L|428:32,2,55,0|0|2,0:0|0:0|0:0,0:0:0:0:
332,88,161991,1,0,0:0:0:0:
276,104,162206,1,0,0:0:0:0:
260,212,162636,5,4,0:0:0:0:
364,176,163066,1,0,0:0:0:0:
432,264,163496,2,0,P|360:340|340:340,2,110
432,152,164787,2,0,P|408:72|384:68,1,110
312,140,165647,1,0,0:0:0:70:soft-hitclap2.wav
312,140,165862,5,0,0:0:0:0:
312,140,166077,2,0,B|256:64|256:64|224:68,1,110
144,116,166937,1,8,0:0:0:0:
48,60,167367,1,0,0:0:0:0:
48,60,167797,2,0,B|48:180|48:180|96:208|96:212|96:212|96:272|96:272|128:300|128:300|152:348,1,330
260,348,169518,1,2,0:0:0:0:
332,264,169948,5,4,0:0:0:0:
332,264,170163,1,0,0:0:0:0:
332,264,170378,2,0,B|428:204|428:204|372:112,1,220
268,56,171668,2,0,P|172:40|148:48,2,110
256,164,172959,1,0,0:0:0:0:
256,164,173389,5,8,0:0:0:0:
256,164,173604,1,0,0:0:0:0:
256,164,173819,2,0,L|156:228,1,110
248,296,174679,2,0,B|208:372|84:364|80:252,1,220
82,274,175969,1,2,0:0:0:0:
136,176,176400,1,4,0:0:0:0:
40,124,176830,6,0,P|101:44|116:47,1,110
200,80,177690,1,0,0:0:0:0:
304,48,178120,2,0,L|372:48,2,55,8|0|0,0:0|0:0|0:0,0:0:0:0:
300,104,178765,1,0,0:0:0:0:
276,152,178980,1,0,0:0:0:70:soft-hitclap2.wav
368,208,179410,2,0,L|444:208,2,55
332,252,180055,5,0,0:0:0:0:
276,260,180271,2,0,B|304:336|304:336|268:356,1,110
184,292,181131,1,0,0:0:0:0:
88,236,181561,2,0,P|88:324|104:332,3,110,0|8|0|0,0:0|0:0|0:0|0:0,0:0:0:0:
196,284,183281,1,4,0:0:0:0:
284,344,183711,1,0,0:0:0:0:
396,340,184142,5,0,0:0:0:0:
332,244,184572,1,0,0:0:0:0:
332,244,184787,1,0,0:0:0:0:
332,244,185002,2,0,P|416:144|412:136,2,165,2|0|0,0:0|0:0|0:0,0:0:0:0:
248,172,186722,2,0,L|288:112,2,55,0|0|8,0:0|0:0|0:0,0:0:0:0:
196,188,187367,1,0,0:0:0:0:
144,168,187582,5,0,0:0:0:0:
48,220,188012,1,0,0:0:0:70:soft-hitclap2.wav
40,164,188228,1,0,0:0:0:0:
60,112,188443,2,0,B|140:36|140:36|252:36,1,220
249,36,189733,1,0,0:0:0:0:
320,120,190163,1,4,0:0:0:0:
224,152,190593,5,0,0:0:0:0:
132,92,191023,2,0,P|64:236|68:260,2,165
244,92,192744,1,0,0:0:0:0:
244,92,193174,1,8,0:0:0:0:
180,184,193604,6,0,B|252:220|252:220|204:252|224:324|304:308,1,220
400,300,194894,1,0,0:0:0:0:
440,196,195324,1,0,0:0:0:0:
400,96,195754,2,0,L|440:52,2,55,0|0|8,0:0|0:0|0:0,0:0:0:0:
356,132,196400,1,0,0:0:0:0:
300,128,196615,2,0,P|232:64|224:64,1,110,2|0,0:0|0:0,0:0:0:0:
168,160,197475,5,0,0:0:0:0:
88,84,197905,2,0,P|36:176|40:192,1,110
112,252,198765,2,0,P|160:332|152:356,2,110,8|0|0,0:0|0:0|0:0,0:0:0:0:
212,204,200055,1,0,0:0:0:0:
292,128,200486,1,0,0:0:0:0:
316,80,200701,5,0,0:0:0:0:
368,60,200916,2,0,B|448:160,1,110
432,256,201776,2,0,L|472:312,2,55,0|0|8,0:0|0:0|0:0,0:0:0:0:
384,228,202421,1,0,0:0:0:0:
328,216,202636,2,0,P|296:284|300:320,2,110
328,216,203926,1,4,0:0:0:0:
328,216,204357,6,0,B|308:152|308:152|248:136,1,110
164,100,205217,1,0,0:0:0:70:soft-hitclap2.wav
64,52,205647,2,0,P|28:148|32:160,1,110
100,232,206507,2,0,L|52:292,4,55,0|0|8|0|0,0:0|0:0|0:0|0:0|0:0,0:0:0:0:
200,184,207797,5,0,0:0:0:0:
212,292,208228,2,0,P|300:340|324:336,1,110
380,260,209088,1,0,0:0:0:0:
380,152,209518,2,0,L|436:112,4,55
272,136,210808,1,2,0:0:0:0:
192,64,211238,5,0,0:0:0:0:
192,64,211668,1,0,0:0:0:0:
160,168,212099,1,0,0:0:0:0:
68,108,212529,2,0,P|16:184|20:200,1,110
100,268,213389,2,0,L|172:300,4,55,0|8|0|0|0,0:0|0:0|0:0|0:0|0:0,0:0:0:0:
144,168,214679,5,0,0:0:0:0:
248,204,215109,1,0,0:0:0:0:
248,204,215539,1,0,0:0:0:70:soft-hitclap2.wav
256,192,215969,12,4,217690,0:0:0:0:
