osu file format v14

[General]
AudioFilename: Mahouka Koukou no Rettousei OST - Code Break.mp3
AudioLeadIn: 0
PreviewTime: 93819
Countdown: 0
SampleSet: Soft
StackLeniency: 0.7
Mode: 0
LetterboxInBreaks: 0

[Editor]
DistanceSpacing: 1
BeatDivisor: 4
GridSize: 4

[Metadata]
Title:Code Break
TitleUnicode:Code Break
Artist:Taku Iwasaki/LotusJuice
ArtistUnicode:Taku Iwasaki/LotusJuice
Creator:Heldrith
Version:Intermediate
Source:Mahouka Koukou no Rettousei [魔法科高校の劣等生]
Tags:Mahouka Koukou no Rettousei mahōka kōkō no rettōsei Taku Iwasaki LotusJuice Lotus Juice Code Break 魔法科高校の劣等生 OST soundtrack the irregular at magic high school
BeatmapID:743989
BeatmapSetID:332746

[Difficulty]
HPDrainRate:4
CircleSize:3
OverallDifficulty:4.5
ApproachRate:4.5
SliderMultiplier:1.2
SliderTickRate:1

[Events]
//Background and Video events
0,0,"The Irregular At Magic High School.jpg",0,0
Video,0,"Mahouka Koukou no Rettousei AMV by CrashAMV.avi"
//Break Periods
2,80255,92559
2,135309,145462
//Storyboard Layer 0 (Background)
//Storyboard Layer 1 (Fail)
//Storyboard Layer 2 (Pass)
//Storyboard Layer 3 (Foreground)
//Storyboard Sound Samples
Sample,108873,0,"soft-hitnormal2.wav",70
Sample,110593,0,"soft-hitnormal2.wav",70
Sample,112314,0,"soft-hitnormal2.wav",70

[TimingPoints]
56,430.10752688172,4,2,1,60,1,0
10378,-100,4,2,1,100,0,0
10593,-100,4,2,1,60,0,0
38765,-100,4,2,1,80,0,0
38980,-100,4,2,1,60,0,0
52529,-100,4,2,1,80,0,0
52744,-100,4,2,1,60,0,0
66292,-100,4,2,1,80,0,0
66507,-100,4,2,1,60,0,1
69733,-100,4,2,1,80,0,0
69948,-100,4,2,1,60,0,1
80055,-100,4,2,1,80,0,1
80271,-100,4,2,1,60,0,0
100271,-100,4,2,1,80,0,0
100486,-100,4,2,1,60,0,0
107582,-100,4,2,1,80,0,0
107797,-100,4,2,1,60,0,0
111023,-90.9090909090909,4,2,1,65,0,0
111883,-83.3333333333333,4,2,1,70,0,0
112744,-76.9230769230769,4,2,1,75,0,0
113604,-71.4285714285714,4,2,1,80,0,0
114034,-100,4,2,1,80,0,0
114249,-100,4,2,1,60,0,1
114464,-142.857142857143,4,2,1,60,0,1
118765,-142.857142857143,4,2,1,80,0,1
118980,-142.857142857143,4,2,1,60,0,1
127797,-142.857142857143,4,2,1,80,0,1
128012,-142.857142857143,4,2,1,60,0,1
135109,-100,4,2,1,80,0,0
135324,-100,4,2,1,60,0,0
148873,-100,4,2,1,100,0,0
149088,-100,4,2,1,60,0,0
150593,-71.4285714285714,4,2,1,60,0,0
152744,-100,4,2,1,60,0,0
153174,-71.4285714285714,4,2,1,60,0,0
155754,-100,4,2,1,60,0,0
162636,-100,4,2,1,80,0,0
162851,-100,4,2,1,60,0,1
169948,-100,4,2,1,80,0,0
170163,-100,4,2,1,60,0,1
176400,-100,4,2,1,80,0,0
176615,-100,4,2,1,60,0,0
183281,-100,4,2,1,80,0,0
183496,-100,4,2,1,60,0,0
190163,-100,4,2,1,80,0,0
190378,-100,4,2,1,60,0,1
203926,-100,4,2,1,80,0,0
204142,-100,4,2,1,60,0,1
217690,-100,4,2,1,100,0,0

[Colours]
Combo1 : 58,143,86
Combo2 : 211,217,108
Combo3 : 168,62,43
Combo4 : 83,115,151
SliderBorder : 150,160,150
SliderTrackOverride : 1,5,1 SpinnerBackground :
255,255,255

[HitObjects]
272,144,4357,5,0,0:0:0:0:
288,88,4572,2,0,P|224:56|172:72,1,120
132,100,5217,1,0,0:0:0:0:
100,152,5432,2,0,L|40:188,2,60,0|8|0,0:0|0:0|0:0,0:0:0:0:
184,236,6292,5,0,0:0:0:0:
288,180,6722,1,0,0:0:0:0:
380,104,7152,2,0,L|432:72,2,60,0|8|0,0:0|0:0|0:0,0:0:0:0:
380,104,7797,5,0,0:0:0:0:
412,156,8012,2,0,L|472:184,2,60,0|8|0,0:0|0:0|0:0,0:0:0:0:
360,184,8658,1,0,0:0:0:0:
360,244,8873,2,0,P|320:320|292:320,1,120,8|8,0:0|0:0,0:0:0:0:
256,192,9518,12,4,10378,0:0:0:0:
360,168,10808,5,0,0:0:0:0:
272,88,11238,2,0,P|224:56|144:80,1,120,0|8,0:0|0:0,0:0:0:0:
120,104,11883,1,0,0:0:0:0:
80,152,12099,2,0,L|60:248,1,90,0|8,0:0|0:0,0:0:0:0:
108,320,12744,1,0,0:0:0:0:
156,284,12959,6,0,P|208:240|268:244,1,120
296,284,13604,1,0,0:0:0:0:
352,264,13819,2,0,L|408:288,2,60,0|0|8,0:0|0:0|0:0,0:0:0:0:
352,264,14464,1,0,0:0:0:0:
416,172,14894,2,0,L|360:112,1,60
344,80,15324,1,0,0:0:0:0:
344,80,15539,2,0,P|254:40|234:48,2,120,8|0|8,0:0|0:0|0:0,0:0:0:0:
360,136,16615,2,0,L|272:220,1,120,8|8,0:0|0:0,0:0:0:0:
248,272,17260,6,0,B|220:296|184:304,1,60
140,284,17690,2,0,P|96:276|72:280,1,60
56,224,18120,2,0,L|96:104,1,120,0|2,0:0|0:0,0:0:0:0:
208,148,18980,6,0,L|160:188,2,60
268,160,19625,2,0,P|308:88|388:116,1,180,0|8,0:0|0:0,0:0:0:0:
340,224,20701,1,0,0:0:0:0:
400,232,20916,2,0,L|440:284,1,60,8|8,0:0|0:0,0:0:0:0:
440,340,21346,1,0,0:0:0:0:
320,332,21776,2,0,L|180:320,1,120
148,292,22421,2,0,P|72:284|44:304,2,90
144,232,23281,6,0,L|192:156,1,90
244,80,23926,1,0,0:0:0:70:soft-hitclap2.wav
288,120,24142,2,0,L|404:84,1,120
440,132,24787,1,0,0:0:0:70:soft-hitclap2.wav
440,132,25002,6,0,P|488:204|484:232,1,120,2|0,0:0|0:0,0:0:0:0:
448,280,25647,1,0,0:0:0:0:
448,280,25862,1,0,0:0:0:0:
336,236,26292,1,0,0:0:0:0:
228,288,26722,2,0,L|128:312,1,90,8|0,0:0|0:0,0:0:0:0:
76,244,27367,1,8,0:0:0:0:
32,204,27582,2,0,P|32:128|64:96,1,120,8|8,0:0|0:0,0:0:0:0:
116,76,28228,2,0,L|196:96,1,60,8|0,0:0|0:0,0:0:0:0:
248,184,28873,5,0,0:0:0:0:
280,132,29088,2,0,L|344:92,1,60
388,80,29518,1,0,0:0:0:0:
496,140,29948,1,0,0:0:0:0:
452,180,30163,2,0,P|460:256|412:280,3,120,0|8|0|8,0:0|0:0|0:0|0:0,0:0:0:0:
324,220,31883,1,8,0:0:0:0:
324,220,32099,6,0,P|256:176|212:180,1,120
192,232,32744,2,0,L|116:288,1,90,0|8,0:0|0:0,0:0:0:0:
44,240,33389,1,8,0:0:0:0:
20,184,33604,2,0,P|36:116|88:100,1,120,8|2,0:0|0:0,0:0:0:0:
168,180,34464,6,0,L|224:92,1,90
308,96,35109,2,0,L|344:160,1,60,0|8,0:0|0:0,0:0:0:0:
340,208,35539,1,8,0:0:0:0:
448,160,35969,1,8,0:0:0:0:
448,160,36185,2,0,P|464:208|456:252,2,90,0|8|8,0:0|0:0|0:0,0:0:0:0:
360,204,37045,5,0,0:0:0:0:
304,100,37475,1,0,0:0:0:70:soft-hitclap2.wav
184,96,37905,2,0,P|112:92|80:132,1,120,0|8,0:0|0:0,0:0:0:0:
44,236,38765,1,4,0:0:0:70:soft-hitclap2.wav
96,268,38980,2,0,L|216:248,1,120
268,272,39625,6,0,L|332:304,1,60
380,280,40055,1,0,0:0:0:0:
416,232,40271,2,0,B|416:216|416:216|432:212|432:212|424:200|424:200|440:196|440:196|432:184|432:184|448:180|448:180|440:168|440:168|456:164|456:164|456:148,1,120
452,104,40916,1,2,0:0:0:0:
404,64,41131,2,0,L|352:48,1,30,0|8,0:0|0:0,0:0:0:0:
288,76,41561,1,0,0:0:0:0:
316,128,41776,2,0,L|328:208,1,60,8|8,0:0|0:0,0:0:0:0:
212,144,42421,6,0,L|156:100,1,60
104,112,42851,1,0,0:0:0:70:soft-hitclap2.wav
92,168,43066,2,0,P|24:168|0:176,2,90,0|2|0,0:0|0:0|0:0,0:0:0:0:
152,164,43926,1,0,0:0:0:0:
212,184,44142,1,0,0:0:0:70:soft-hitclap2.wav
204,304,44572,1,0,0:0:0:70:soft-hitclap2.wav
260,320,44787,5,0,0:0:0:70:soft-hitclap2.wav
380,308,45217,1,0,0:0:0:70:soft-hitclap2.wav
416,192,45647,2,0,P|432:120|416:88,1,90,8|2,0:0|0:0,0:0:0:70:soft-hitclap2.wav
356,52,46292,1,0,0:0:0:0:
312,96,46507,6,0,P|280:176|256:180,1,120,0|8,0:0|0:0,0:0:0:0:
220,132,47152,2,0,B|217:121|217:121|205:129|205:129|201:113|201:113|189:121|189:121|185:105|185:105|173:113|173:113|169:97|169:97|153:97,1,120
100,72,47797,1,8,0:0:0:0:
44,96,48012,2,0,L|8:128,1,30
72,192,48443,1,8,0:0:0:0:
128,212,48658,2,0,L|200:196,1,60,8|0,0:0|0:0,0:0:0:0:
272,112,49303,6,0,P|336:156|344:196,1,120,0|2,0:0|0:0,0:0:0:0:
316,248,49948,2,0,P|380:304|396:304,2,90
344,193,50808,1,0,0:0:0:70:soft-hitclap2.wav
344,132,51023,1,0,0:0:0:70:soft-hitclap2.wav
240,72,51453,1,0,0:0:0:70:soft-hitclap2.wav
240,72,51668,2,0,B|124:40|128:40,1,90,0|8,0:0|0:0,0:0:0:0:
80,100,52314,2,0,L|120:176,1,60,8|4,0:0|0:0,0:0:0:0:
72,268,52959,6,0,P|160:324|192:312,1,120
200,276,53604,2,0,L|256:236,1,60
268,184,54034,1,8,0:0:0:0:
268,184,54249,2,0,L|240:68,2,120
324,164,55324,1,0,0:0:0:0:
380,180,55539,2,0,L|436:216,1,60
404,264,55969,5,0,0:0:0:0:
336,280,56185,2,0,L|276:332,1,60
232,292,56615,2,0,L|124:316,1,90
68,256,57260,1,8,0:0:0:0:
168,192,57690,6,0,P|240:112|236:80,1,120
212,56,58335,1,0,0:0:0:0:
256,16,58550,2,0,P|344:40|368:68,1,120
384,112,59195,1,8,0:0:0:0:
368,172,59410,5,0,0:0:0:0:
352,228,59625,2,0,L|412:260,4,60
352,228,60701,1,0,0:0:0:0:
236,264,61131,6,0,L|152:292,4,60
268,212,62206,2,0,L|292:136,1,60,0|8,0:0|0:0,0:0:0:0:
236,44,62851,6,0,L|156:56,1,60,0|8,0:0|0:0,0:0:0:0:
140,100,63281,1,0,0:0:0:0:
124,160,63496,2,0,L|76:224,1,60
36,180,63926,2,0,L|28:132,1,30
76,72,64357,1,0,0:0:0:0:
136,88,64572,6,0,P|216:108|224:108,1,90
304,64,65217,1,0,0:0:0:70:soft-hitclap2.wav
364,76,65432,2,0,P|412:168|408:184,1,120
352,284,66292,1,4,0:0:0:70:soft-hitclap2.wav
112,312,67152,6,0,L|136:208,1,90
180,148,67797,1,0,0:0:0:0:
176,88,68012,2,0,P|92:44|60:116,1,180
68,160,68873,5,2,0:0:0:0:
184,200,69303,1,8,0:0:0:0:
120,300,69733,2,0,P|160:332|184:336,1,60,4|0,0:0|0:0,0:0:0:0:
308,224,70593,6,0,L|392:176,2,90
248,212,71453,2,0,P|204:176|204:136,1,90,8|8,0:0|0:0,0:0:0:0:
224,60,72099,1,8,0:0:0:0:
224,60,72314,6,0,P|296:32|332:48,1,120
404,144,73174,2,0,L|364:208,1,60
260,232,73819,6,0,P|240:172|208:156,2,90,0|2|0,0:0|0:0|0:0,0:0:0:0:
252,292,74679,1,0,0:0:0:0:
196,316,74894,2,0,L|136:196,1,120
192,100,75754,6,0,P|264:76|312:100,1,120
372,188,76615,2,0,L|364:276,1,60
188,240,77475,6,8,P|120:256|108:276,2,90
220,292,78335,2,0,P|304:272|320:252,1,90
344,192,78980,1,0,0:0:0:0:
344,192,79195,2,8,P|316:132|320:100,1,90
232,84,79840,2,0,B|176:116,1,60,4|2,0:0|0:0,0:0:0:0:
416,96,93819,6,0,P|408:152|388:184,1,90
391,180,94464,1,0,0:0:0:0:
336,200,94679,2,0,L|280:124,1,90
282,127,95324,1,0,0:0:0:0:
224,112,95539,6,0,L|164:64,2,60,8|0|0,0:0|0:0|0:0,0:0:0:0:
180,152,96185,1,0,0:0:0:0:
156,208,96400,2,0,L|84:248,1,60
103,237,96830,1,0,0:0:0:0:
184,324,97260,6,0,P|248:272|288:292,1,120
320,320,97905,1,8,0:0:0:0:
380,312,98120,2,0,P|448:256|444:228,2,120
360,256,99195,2,0,L|308:200,1,60
264,188,99625,1,0,0:0:0:0:
212,156,99840,2,0,P|168:100|208:48,1,120,0|4,0:0|0:0,0:0:0:0:
304,64,100701,5,0,0:0:0:0:
344,108,100916,2,0,L|424:200,1,120,0|8,0:0|0:0,0:0:0:0:
372,228,101561,2,0,L|280:296,1,90
212,264,102206,1,0,0:0:0:0:
156,240,102421,2,0,P|100:248|72:268,2,90
164,180,103281,2,0,P|160:108|148:92,2,90
156,240,104142,6,0,P|228:308|260:304,1,120
300,304,104787,1,8,0:0:0:0:
356,288,105002,2,0,L|396:172,1,120
395,174,105647,1,0,0:0:0:0:
348,136,105862,6,0,L|256:72,1,90
196,128,106507,1,0,0:0:0:0:
176,184,106722,2,0,P|116:192|96:236,1,90,0|2,0:0|0:0,0:0:0:0:
108,304,107367,6,0,L|168:320,2,60,0|4|0,0:0|0:0|0:0,0:0:0:0:
128,184,108228,1,0,0:0:0:0:
128,184,108443,2,0,P|176:128|180:128,1,60,8|0,0:0|0:0,0:0:0:0:
208,112,108873,1,0,0:0:0:0:
204,232,109303,6,0,L|292:268,1,90
376,276,109948,1,0,0:0:0:0:
376,276,110163,1,8,0:0:0:0:
376,276,110378,2,0,L|384:196,1,60
432,96,111023,6,0,P|344:48|292:60,1,132.00000402832
276,104,111668,2,0,P|212:140|192:140,1,66.0000020141602,0|8,0:0|0:0,0:0:0:0:
176,80,112099,1,0,0:0:0:0:
108,60,112314,1,0,0:0:0:0:
52,204,112744,6,0,L|144:220,1,77.9999964294435
184,276,113174,1,0,0:0:0:0:
212,304,113281,2,0,P|276:328|320:296,1,116.999994644165
320,220,113819,2,0,P|336:172|368:156,1,83.9999974365235,8|4,0:0|0:0,0:0:0:0:
324,84,114464,5,0,0:0:0:0:
288,64,114679,2,0,L|192:96,1,83.9999974365235
168,104,115324,1,0,0:0:0:70:soft-hitclap2.wav
144,184,115754,6,0,P|120:252|192:292,1,167.999994873047
264,252,117045,1,0,0:0:0:70:soft-hitclap2.wav
324,96,117905,6,0,P|404:152|408:176,1,125.999996154785
400,216,118765,1,4,0:0:0:0:
356,288,119195,2,0,L|276:224,1,83.9999974365235
272,152,120055,1,0,0:0:0:0:
272,152,120486,1,0,0:0:0:70:soft-hitclap2.wav
108,124,121346,6,0,L|88:208,1,83.9999974365235
56,284,122206,2,0,P|144:328|168:284,1,167.999994873047
196,208,123496,2,0,L|284:208,1,83.9999974365235,0|2,0:0|0:0,0:0:0:0:
332,272,124357,1,0,0:0:0:0:
356,240,124572,6,0,P|424:264|440:316,1,125.999996154785,8|0,0:0|0:0,0:0:0:0:
360,332,125647,2,0,L|264:320,1,83.9999974365235
220,256,126507,1,8,0:0:0:70:soft-hitclap2.wav
220,256,126722,2,0,L|160:280,2,62.9999980773926
220,172,127797,1,4,0:0:0:0:
252,96,128228,6,0,L|252:20,2,62.9999980773926
293,93,129088,2,0,P|377:113|405:141,1,125.999996154785
404,180,129948,6,0,L|368:264,1,83.9999974365235,8|0,0:0|0:0,0:0:0:0:
340,288,130593,1,0,0:0:0:0:
304,312,130808,1,0,0:0:0:0:
276,232,131238,1,0,0:0:0:0:
236,160,131668,6,0,P|184:96|144:88,1,125.999996154785
104,72,132529,2,0,L|64:152,1,83.9999974365235
40,228,133389,6,0,P|108:280|148:276,2,125.999996154785,8|0|2,0:0|0:0|0:0,0:0:0:0:
64,112,135109,1,4,0:0:0:0:
256,192,146722,12,4,148873,0:0:0:0:
180,216,149303,6,0,L|136:272,1,60
196,292,149733,2,0,P|268:312|292:296,1,90
336,240,150378,1,0,0:0:0:0:
336,240,150593,6,0,L|388:120,2,125.999996154785
276,180,151453,2,0,L|204:72,2,125.999996154785
224,248,152314,2,0,P|232:332|144:316,1,167.999994873047
96,188,153174,6,0,L|24:144,2,83.9999974365235
96,188,153819,1,0,0:0:0:0:
148,120,154034,1,0,0:0:0:0:
148,120,154249,2,0,L|216:56,2,83.9999974365235
188,192,154894,2,0,L|272:192,3,83.9999974365235
272,192,155754,5,0,0:0:0:0:
240,76,156185,1,8,0:0:0:0:
360,60,156615,2,0,P|404:116|392:168,1,120
356,204,157260,1,0,0:0:0:0:
300,180,157475,6,0,P|236:200|240:264,1,120
288,264,158120,1,0,0:0:0:70:soft-hitclap2.wav
348,260,158335,2,0,P|324:344|304:348,1,120
244,356,158980,1,0,0:0:0:0:
192,324,159195,6,0,L|96:252,1,120,8|0,0:0|0:0,0:0:0:0:
72,136,160055,1,0,0:0:0:0:
184,96,160486,1,0,0:0:0:70:soft-hitclap2.wav
304,76,160916,6,0,L|340:160,1,90
372,244,161561,1,0,0:0:0:0:
312,256,161776,2,0,P|284:296|200:272,1,120
180,248,162421,1,8,0:0:0:0:
192,188,162636,6,0,L|128:104,2,90
244,220,163496,2,0,L|344:232,1,90
416,192,164142,1,0,0:0:0:0:
368,156,164357,6,0,P|376:128|364:68,1,90
276,92,165002,1,0,0:0:0:0:
224,120,165217,2,0,L|180:176,1,60,0|8,0:0|0:0,0:0:0:0:
132,144,165647,1,0,0:0:0:0:
72,156,165862,2,0,L|84:224,1,60
48,328,166507,5,0,0:0:0:0:
104,344,166722,2,0,L|176:300,1,60
252,244,167367,1,0,0:0:0:70:soft-hitclap2.wav
276,300,167582,2,0,L|340:344,1,60
404,244,168228,5,0,0:0:0:0:
448,204,168443,2,0,P|460:152|416:100,1,120,0|8,0:0|0:0,0:0:0:0:
364,88,169088,2,0,L|324:124,1,30
260,132,169518,1,0,0:0:0:70:soft-hitclap2.wav
148,96,169948,5,4,0:0:0:0:
104,140,170163,2,0,P|150:204|122:256,1,120
96,276,170808,1,0,0:0:0:0:
216,268,171238,6,0,P|276:320|280:344,2,90
276,256,172099,2,0,L|344:224,1,60,0|8,0:0|0:0,0:0:0:0:
388,224,172529,1,0,0:0:0:0:
448,120,172959,6,0,P|396:76|348:72,1,90
312,136,173604,1,0,0:0:0:0:
264,100,173819,2,0,L|228:40,2,60,2|0|0,0:0|0:0|0:0,0:0:0:0:
340,192,174679,5,0,0:0:0:0:
340,192,175109,1,0,0:0:0:0:
260,284,175539,1,0,0:0:0:0:
260,284,175754,1,0,0:0:0:70:soft-hitclap2.wav
260,284,175969,1,0,0:0:0:0:
236,228,176185,2,0,L|176:192,1,60,0|4,0:0|0:0,0:0:0:0:
160,144,176615,6,0,L|56:220,1,120
24,260,177260,2,0,P|48:316|100:320,1,90
156,288,177905,1,0,0:0:0:0:
156,288,178120,2,0,L|264:288,1,90,0|8,0:0|0:0,0:0:0:0:
316,232,178765,5,8,0:0:0:0:
328,292,178980,2,8,P|396:228|392:196,1,120
368,156,179625,2,0,P|328:128|316:104,1,60,8|0,0:0|0:0,0:0:0:0:
436,80,180271,5,0,0:0:0:0:
436,80,180486,1,0,0:0:0:0:
456,136,180701,2,0,L|488:220,1,90
448,304,181346,1,0,0:0:0:0:
448,304,181561,2,0,P|396:336|332:332,3,120,0|0|0|8,0:0|0:0|0:0|0:0,0:0:0:0:
292,300,183066,6,0,L|228:316,1,60,8|4,0:0|0:0,0:0:0:0:
192,272,183496,2,0,P|144:248|68:276,1,120
40,304,184142,2,0,L|4:176,1,120
24,132,184787,1,0,0:0:0:0:
68,92,185002,2,0,P|140:56|212:112,1,180,8|0,0:0|0:0,0:0:0:0:
188,164,185862,6,0,L|216:256,1,90,0|8,0:0|0:0,0:0:0:0:
280,312,186507,1,0,0:0:0:0:
280,312,186722,2,8,P|368:316|396:292,1,120
404,240,187367,1,8,0:0:0:0:
456,208,187582,6,0,L|468:140,1,60
364,104,188228,1,8,0:0:0:0:
352,164,188443,1,0,0:0:0:0:
268,80,188873,1,8,0:0:0:0:
352,164,189303,1,0,0:0:0:0:
232,180,189733,2,0,P|276:268|316:280,1,120,8|4,0:0|0:0,0:0:0:0:
348,288,190378,1,0,0:0:0:0:
412,184,190808,6,0,P|420:112|384:80,1,120
344,44,191453,2,0,L|284:92,1,60
236,84,191883,2,0,L|200:32,2,60
224,144,192529,1,0,0:0:0:0:
164,152,192744,2,0,P|116:236|132:276,2,120
196,204,193819,5,0,0:0:0:70:soft-hitclap2.wav
244,240,194034,2,0,P|296:216|344:236,2,90
244,240,194894,1,0,0:0:0:0:
264,296,195109,2,0,L|188:332,1,60
168,276,195539,2,0,P|104:288|88:340,1,120
28,328,196185,1,0,0:0:0:0:
4,272,196400,2,0,P|52:216|56:172,1,120
92,124,197045,5,2,0:0:0:0:
208,96,197475,1,0,0:0:0:0:
208,96,197690,2,0,P|300:128|316:156,1,120
368,156,198335,2,0,L|336:232,1,60
356,272,198765,1,0,0:0:0:0:
332,328,198980,2,0,P|268:336|208:304,1,120
172,276,199625,1,0,0:0:0:0:
100,180,200055,1,0,0:0:0:0:
100,180,200486,6,0,L|192:116,1,90
264,120,201131,1,0,0:0:0:0:
320,140,201346,2,0,L|396:124,2,60
320,140,201991,1,0,0:0:0:0:
276,184,202206,5,0,0:0:0:0:
276,184,202421,2,0,P|188:228|184:244,1,120
180,300,203066,1,0,0:0:0:0:
300,312,203496,1,0,0:0:0:0:
280,192,203926,1,0,0:0:0:70:soft-hitclap2.wav
280,192,204142,6,0,L|220:84,1,120
164,100,204787,1,0,0:0:0:0:
164,100,205002,1,0,0:0:0:0:
164,100,205217,2,0,P|116:128|112:144,2,60
221,87,205862,2,0,L|285:147,1,60
276,188,206292,1,0,0:0:0:0:
332,196,206507,2,0,L|400:156,3,60,0|0|0|8,0:0|0:0|0:0|0:0,0:0:0:0:
436,132,207367,5,0,0:0:0:0:
464,184,207582,2,0,L|496:248,1,60
472,296,208012,1,0,0:0:0:0:
424,332,208228,2,0,P|352:288|312:292,1,120
272,328,208873,2,0,P|216:344|200:336,2,60
240,276,209518,1,0,0:0:0:0:
192,240,209733,2,0,L|124:248,4,60
156,192,210808,6,0,L|84:200,1,60
48,160,211238,1,0,0:0:0:0:
80,108,211453,2,0,P|128:56|180:60,1,120
188,120,212099,1,0,0:0:0:0:
156,172,212314,2,0,P|184:232|248:252,1,120
272,292,212959,1,0,0:0:0:0:
272,292,213174,2,0,L|316:352,4,60
280,232,214249,5,0,0:0:0:0:
324,184,214464,2,0,P|364:128|412:108,1,120,8|0,0:0|0:0,0:0:0:0:
452,152,215109,2,0,L|428:280,1,120,8|2,0:0|0:0,0:0:0:0:
384,308,215754,1,0,0:0:0:70:soft-hitclap2.wav
256,192,215969,12,4,217690,0:0:0:0:
