osu file format v14

[General]
AudioFilename: Mahouka Koukou no Rettousei OST - Code Break.mp3
AudioLeadIn: 0
PreviewTime: 93819
Countdown: 0
SampleSet: Soft
StackLeniency: 0.7
Mode: 0
LetterboxInBreaks: 0

[Editor]
DistanceSpacing: 1
BeatDivisor: 2
GridSize: 4

[Metadata]
Title:Code Break
TitleUnicode:Code Break
Artist:Taku Iwasaki/LotusJuice
ArtistUnicode:Taku Iwasaki/LotusJuice
Creator:Heldrith
Version:Beginner
Source:Mahouka Koukou no Rettousei [魔法科高校の劣等生]
Tags:Mahouka Koukou no Rettousei mahōka kōkō no rettōsei Taku Iwasaki LotusJuice Lotus Juice Code Break 魔法科高校の劣等生 OST soundtrack the irregular at magic high school
BeatmapID:738949
BeatmapSetID:332746

[Difficulty]
HPDrainRate:2
CircleSize:2.5
OverallDifficulty:1
ApproachRate:1.5
SliderMultiplier:0.9
SliderTickRate:1

[Events]
//Background and Video events
0,0,"The Irregular At Magic High School.jpg",0,0
Video,0,"Mahouka Koukou no Rettousei AMV by CrashAMV.avi"
//Break Periods
2,80255,92199
2,135309,145102
//Storyboard Layer 0 (Background)
//Storyboard Layer 1 (Fail)
//Storyboard Layer 2 (Pass)
//Storyboard Layer 3 (Foreground)
//Storyboard Sound Samples
Sample,108873,0,"soft-hitnormal2.wav",70
Sample,110593,0,"soft-hitnormal2.wav",70
Sample,112314,0,"soft-hitnormal2.wav",70

[TimingPoints]
56,430.10752688172,4,2,1,60,1,0
10378,-100,4,2,1,100,0,0
10593,-100,4,2,1,60,0,0
38765,-100,4,2,1,80,0,0
38980,-100,4,2,1,60,0,0
52529,-100,4,2,1,80,0,0
52744,-100,4,2,1,60,0,0
66292,-100,4,2,1,80,0,0
66507,-100,4,2,1,60,0,1
69733,-100,4,2,1,80,0,0
69948,-100,4,2,1,60,0,1
80055,-100,4,2,1,80,0,1
80271,-100,4,2,1,60,0,0
100271,-100,4,2,1,80,0,0
100486,-100,4,2,1,60,0,0
107582,-100,4,2,1,80,0,0
107797,-100,4,2,1,60,0,0
111023,-90.9090909090909,4,2,1,65,0,0
111883,-83.3333333333333,4,2,1,70,0,0
112744,-76.9230769230769,4,2,1,75,0,0
113604,-71.4285714285714,4,2,1,80,0,0
114034,-100,4,2,1,80,0,0
114249,-100,4,2,1,60,0,1
114464,-142.857142857143,4,2,1,60,0,1
118335,-142.857142857143,4,2,1,80,0,1
118550,-142.857142857143,4,2,1,60,0,1
127797,-142.857142857143,4,2,1,80,0,1
128012,-142.857142857143,4,2,1,60,0,1
135109,-142.857142857143,4,2,1,80,0,0
135324,-100,4,2,1,60,0,0
148873,-100,4,2,1,100,0,0
149088,-100,4,2,1,60,0,0
150593,-71.4285714285714,4,2,1,60,0,0
152744,-100,4,2,1,60,0,0
153174,-71.4285714285714,4,2,1,60,0,0
155754,-100,4,2,1,60,0,0
162636,-100,4,2,1,80,0,0
162851,-100,4,2,1,60,0,1
169948,-100,4,2,1,80,0,0
170163,-100,4,2,1,60,0,1
176400,-100,4,2,1,80,0,0
176615,-100,4,2,1,60,0,0
183281,-100,4,2,1,80,0,0
183496,-100,4,2,1,60,0,0
190163,-100,4,2,1,80,0,0
190378,-100,4,2,1,60,0,1
203926,-100,4,2,1,80,0,0
204142,-100,4,2,1,60,0,1
217690,-100,4,2,1,100,0,0

[Colours]
Combo1 : 58,143,86
Combo2 : 211,217,108
Combo3 : 168,62,43
Combo4 : 83,115,151
SliderBorder : 150,160,150
SliderTrackOverride : 1,5,1 SpinnerBackground :
255,255,255

[HitObjects]
88,128,4357,6,0,P|224:48|256:60,2,180
164,176,6507,1,8,0:0:0:0:
248,204,6937,2,0,P|144:288|92:276,2,180
320,148,9088,1,2,0:0:0:0:
256,192,9518,12,4,10378,0:0:0:0:
164,148,11238,5,0,0:0:0:0:
236,200,11668,1,0,0:0:0:0:
316,160,12099,2,0,L|420:100,1,90
360,32,12959,2,0,P|464:8|528:28,2,135,0|8|0,0:0|0:0|0:0,0:0:0:0:
332,116,14679,5,0,0:0:0:0:
256,168,15109,1,0,0:0:0:0:
196,236,15539,2,0,P|260:300|292:304,2,90
212,148,16830,1,0,0:0:0:70:soft-hitclap2.wav
300,132,17260,6,0,L|396:80,1,90
400,176,18120,2,0,L|284:240,1,90
376,292,18980,6,0,P|156:328|116:304,1,270,8|0,0:0|0:0,0:0:0:0:
60,248,20701,2,0,L|60:136,1,90,0|2,0:0|0:0,0:0:0:0:
112,84,21561,1,0,0:0:0:0:
200,72,21991,6,0,B|240:44|240:44|316:64,1,90
368,76,22851,2,0,P|424:104|436:140,1,90,0|8,0:0|0:0,0:0:0:0:
384,200,23711,2,0,P|304:164|272:176,2,90
408,288,25002,1,2,0:0:0:0:
332,336,25432,5,0,0:0:0:0:
332,336,25862,2,0,L|224:284,1,90
160,308,26722,1,0,0:0:0:0:
108,136,27582,5,0,0:0:0:0:
172,200,28012,2,0,P|256:176|268:160,2,90
88,228,29303,5,0,0:0:0:0:
120,312,29733,1,8,0:0:0:0:
208,328,30163,2,0,P|304:320|340:272,2,135,0|2|0,0:0|0:0|0:0,0:0:0:0:
156,256,31883,1,0,0:0:0:0:
224,196,32314,6,0,L|316:128,1,90
264,60,33174,2,0,L|152:60,1,90
84,76,34034,1,0,0:0:0:70:soft-hitclap2.wav
68,164,34464,6,0,P|20:192|-4:240,2,90,0|0|8,0:0|0:0|0:0,0:0:0:0:
144,212,35754,1,0,0:0:0:0:
132,300,36185,2,0,P|60:328|12:316,2,90
220,280,37475,6,0,L|340:256,1,90
280,176,38335,2,0,L|184:104,2,90,0|4|0,0:0|0:0|0:0,0:0:0:0:
364,140,39625,6,0,P|337:252|264:284,2,180,8|0|8,0:0|0:0|0:0,0:0:0:0:
320,60,41776,1,2,0:0:0:0:
232,40,42206,1,0,0:0:0:0:
216,128,42636,6,0,P|136:112|104:80,1,90
56,160,43496,1,0,0:0:0:0:
56,160,43926,1,0,0:0:0:0:
40,248,44357,1,0,0:0:0:70:soft-hitclap2.wav
128,252,44787,6,0,P|176:208|236:196,1,90
256,132,45647,2,0,P|320:144|348:176,1,90
392,228,46507,5,2,0:0:0:0:
320,284,46937,2,0,P|212:248|144:292,1,180,8|0,0:0|0:0,0:0:0:0:
72,248,48228,1,0,0:0:0:0:
72,248,48658,1,0,0:0:0:0:
124,176,49088,5,0,0:0:0:70:soft-hitclap2.wav
76,100,49518,2,0,P|136:80|180:80,1,90,8|0,0:0|0:0,0:0:0:0:
232,136,50378,2,0,P|196:180|128:200,1,90
216,268,51238,2,0,L|340:272,1,90
328,184,52099,2,0,L|388:88,1,90
300,56,52959,5,2,0:0:0:0:
248,128,53389,2,0,P|204:104|124:104,1,90
80,120,54249,1,0,0:0:0:0:
132,192,54679,1,0,0:0:0:0:
132,192,55109,2,0,P|68:264|64:284,2,90,0|8|0,0:0|0:0|0:0,0:0:0:0:
216,156,56400,5,0,0:0:0:0:
292,200,56830,1,0,0:0:0:0:
240,276,57260,2,0,P|328:296|376:232,1,180
384,144,58550,1,8,0:0:0:0:
468,108,58980,6,0,P|436:52|396:28,3,90
332,12,60701,1,0,0:0:0:70:soft-hitclap2.wav
244,12,61131,6,0,P|176:36|152:76,2,90
300,84,62421,1,0,0:0:0:0:
224,128,62851,6,0,P|184:156|180:220,1,90
228,264,63711,2,0,L|332:216,1,90,0|8,0:0|0:0,0:0:0:0:
396,252,64572,5,2,0:0:0:0:
448,176,65002,1,0,0:0:0:0:
420,92,65432,5,0,0:0:0:0:
420,92,65862,2,0,P|344:72|300:84,1,90,0|4,0:0|0:0,0:0:0:0:
248,44,66722,6,0,L|152:116,1,90
108,160,67582,1,0,0:0:0:0:
20,156,68012,2,0,P|28:200|160:232,1,180
232,252,69303,5,0,0:0:0:70:soft-hitclap2.wav
308,300,69733,1,4,0:0:0:0:
396,288,70163,2,0,P|372:232|320:212,1,90
312,136,71023,1,0,0:0:0:0:
240,80,71453,6,0,B|192:100|192:100|192:136|192:136|152:152|152:152|152:204,1,180,0|2,0:0|0:0,0:0:0:0:
140,292,72744,1,0,0:0:0:0:
228,292,73174,2,0,P|276:320|340:296,1,90
384,268,74034,1,8,0:0:0:0:
472,248,74464,2,0,P|432:180|332:188,1,180
248,184,75754,6,0,P|196:216|136:208,1,90
80,192,76615,2,0,P|120:124|160:112,1,90
180,48,77475,6,0,P|212:80|208:152,2,90,0|0|8,0:0|0:0|0:0,0:0:0:0:
92,72,78765,1,0,0:0:0:0:
40,148,79195,2,0,P|40:212|88:252,1,90,0|2,0:0|0:0,0:0:0:0:
124,288,80055,1,4,0:0:0:0:
136,184,93819,6,0,L|220:108,1,90
268,60,94679,2,0,P|332:68|388:104,1,90
412,148,95539,1,8,0:0:0:0:
412,148,95969,1,0,0:0:0:0:
448,232,96400,2,0,P|388:280|344:276,1,90
288,276,97260,6,0,P|216:252|172:268,2,90,0|2|0,0:0|0:0|0:0,0:0:0:0:
320,192,98550,2,0,P|308:120|272:96,1,90
224,64,99410,1,0,0:0:0:0:
224,64,99840,1,0,0:0:0:0:
136,80,100271,1,4,0:0:0:0:
96,160,100701,6,0,L|40:276,1,90
144,268,101561,2,0,L|248:300,1,90
312,328,102421,1,0,0:0:0:70:soft-hitclap2.wav
396,300,102851,2,0,P|444:232|440:200,2,90
328,240,104142,5,0,0:0:0:0:
340,152,104572,2,0,P|388:112|448:104,2,90
280,220,105862,2,0,L|320:328,1,90,8|0,0:0|0:0,0:0:0:0:
220,316,106722,2,0,L|108:336,1,90
44,308,107582,6,0,B|4:156|4:156|64:52,1,270,4|0,0:0|0:0,0:0:0:0:
152,60,109303,5,0,0:0:0:0:
208,128,109733,2,0,P|140:152|128:200,1,90
196,228,110593,1,2,0:0:0:0:
292,208,111023,6,0,P|280:268|232:308,1,99.0000030212403
364,292,111883,2,0,P|416:252|456:248,1,107.999996704102
460,132,112744,5,8,0:0:0:0:
356,76,113174,1,0,0:0:0:0:
304,192,113604,2,0,P|228:104|236:72,1,125.999996154785,0|4,0:0|0:0,0:0:0:0:
168,84,114464,6,0,P|116:72|52:132,1,125.999996154785
88,168,115754,2,0,P|88:224|156:272,1,125.999996154785
200,276,117045,2,0,L|276:232,3,62.9999980773926,0|8|0|4,0:0|0:0|0:0|0:0,0:0:0:0:
268,184,118765,6,0,B|216:152|216:152|188:88,2,125.999996154785
308,232,120916,1,0,0:0:0:0:
368,212,121346,1,0,0:0:0:70:soft-hitclap2.wav
368,212,121776,1,0,0:0:0:0:
428,224,122206,6,0,P|444:292|396:316,1,125.999996154785
344,300,123496,1,8,0:0:0:0:
288,332,123926,2,0,P|196:316|184:268,1,125.999996154785,2|0,0:0|0:0,0:0:0:0:
204,236,125217,1,0,0:0:0:0:
160,188,125647,6,0,P|172:96|192:84,2,94.499997116089
224,192,127367,2,0,L|304:160,1,62.9999980773926,0|2,0:0|0:0,0:0:0:0:
344,184,128228,6,0,B|364:216|364:216|336:240|336:240|360:264|360:264|340:304,1,125.999996154785
324,336,129518,1,0,0:0:0:0:
260,336,129948,6,0,P|220:332|184:304,1,62.9999980773926,8|0,0:0|0:0,0:0:0:0:
160,272,130808,2,0,L|80:272,2,62.9999980773926
220,252,132099,1,0,0:0:0:70:soft-hitclap2.wav
260,204,132529,2,0,L|212:152,1,62.9999980773926
164,128,133389,6,0,P|180:80|204:60,1,62.9999980773926,0|8,0:0|0:0,0:0:0:0:
248,56,134249,1,0,0:0:0:0:
304,84,134679,1,2,0:0:0:0:
316,144,135109,1,4,0:0:0:0:
256,192,146722,12,4,148873,0:0:0:0:
328,92,149733,6,0,P|272:64|216:76,1,90
128,104,150593,2,0,P|92:152|120:240,2,125.999996154785,8|0|8,0:0|0:0|0:0,0:0:0:0:
224,188,151883,1,0,0:0:0:0:
224,188,152314,5,2,0:0:0:0:
304,148,152744,2,0,P|236:96|208:96,3,90
184,212,154464,2,0,P|128:248|124:324,3,125.999996154785
208,300,156185,5,0,0:0:0:70:soft-hitclap2.wav
280,244,156615,2,0,B|320:264|320:264|368:264,1,90
412,188,157475,2,0,L|448:104,1,90,8|0,0:0|0:0,0:0:0:0:
356,100,158335,2,0,P|304:80|232:100,2,90
304,172,159625,1,0,0:0:0:0:
304,172,160055,1,10,0:0:0:0:
348,252,160486,6,0,L|224:284,1,90
172,296,161346,1,0,0:0:0:70:soft-hitclap2.wav
92,260,161776,2,8,L|112:152,1,90
148,92,162636,1,4,0:0:0:0:
232,64,163066,6,0,B|280:60|280:60|332:96,1,90
368,156,163926,1,0,0:0:0:70:soft-hitclap2.wav
412,232,164357,2,0,P|356:272|300:252,2,90,0|8|8,0:0|0:0|0:0,0:0:0:0:
440,148,165647,1,0,0:0:0:70:soft-hitclap2.wav
384,76,166077,5,0,0:0:0:0:
344,156,166507,1,0,0:0:0:0:
344,156,166937,2,0,P|276:120|228:136,1,90,8|0,0:0|0:0,0:0:0:0:
196,64,167797,2,0,P|140:64|88:108,2,90,0|0|2,0:0|0:0|0:0,0:0:0:0:
168,148,169088,1,0,0:0:0:0:
224,220,169518,5,0,0:0:0:0:
136,244,169948,1,4,0:0:0:0:
48,260,170378,2,0,P|72:308|136:328,1,90
188,300,171238,5,8,0:0:0:0:
268,340,171668,1,0,0:0:0:0:
356,324,172099,2,0,L|404:232,1,90
396,156,172959,5,8,0:0:0:0:
396,156,173389,1,0,0:0:0:0:
348,80,173819,2,0,P|276:56|232:76,1,90
184,100,174679,5,0,0:0:0:70:soft-hitclap2.wav
184,100,175109,1,0,0:0:0:0:
124,168,175539,2,0,P|172:200|184:260,1,90,2|0,0:0|0:0,0:0:0:0:
248,292,176400,1,4,0:0:0:0:
348,144,177260,5,0,0:0:0:0:
392,64,177690,2,0,B|364:20|364:20|308:8,1,90
276,84,178550,2,0,P|212:56|196:4,3,90
128,88,180271,6,0,P|120:180|48:224,1,180,8|0,0:0|0:0,0:0:0:0:
92,304,181561,2,0,P|168:312|224:264,2,135,0|0|2,0:0|0:0|0:0,0:0:0:0:
140,228,183281,1,4,0:0:0:0:
140,140,183711,6,0,P|88:104|76:68,1,90
148,24,184572,1,0,0:0:0:0:
232,52,185002,1,0,0:0:0:70:soft-hitclap2.wav
232,140,185432,5,0,0:0:0:0:
180,216,185862,2,0,P|148:236|68:216,2,90
232,144,187152,2,0,P|272:224|260:252,2,90,8|0|8,0:0|0:0|0:0,0:0:0:0:
296,80,188443,5,0,0:0:0:0:
296,80,188873,1,0,0:0:0:0:
384,72,189303,2,0,P|432:96|456:136,1,90,2|0,0:0|0:0,0:0:0:0:
480,212,190163,1,4,0:0:0:0:
424,284,190593,6,0,L|356:204,1,90
288,172,191453,2,0,L|200:224,2,90,0|0|8,0:0|0:0|0:0,0:0:0:0:
280,84,192744,1,0,0:0:0:0:
368,96,193174,2,0,P|416:104|456:148,1,90,0|2,0:0|0:0,0:0:0:0:
400,204,194034,6,0,P|376:280|348:304,3,90
284,268,195754,2,0,P|216:252|180:272,3,90,8|0|8|0,0:0|0:0|0:0|0:0,0:0:0:0:
116,220,197475,6,0,L|112:124,1,90
176,64,198335,1,0,0:0:0:70:soft-hitclap2.wav
264,56,198765,2,0,P|252:120|200:160,3,90
164,188,200486,21,2,0:0:0:0:
92,244,200916,2,0,P|132:288|204:288,2,135,8|0|8,0:0|0:0|0:0,0:0:0:0:
76,156,202636,1,0,0:0:0:0:
164,172,203066,1,0,0:0:0:0:
180,84,203496,1,0,0:0:0:70:soft-hitclap2.wav
260,124,203926,6,0,P|304:64|332:60,4,90,4|0|0|0|0,0:0|0:0|0:0|0:0|0:0,0:0:0:0:
336,172,206077,1,0,0:0:0:0:
368,256,206507,2,0,P|424:220|436:164,2,90
288,216,207797,21,0,0:0:0:0:
264,304,208228,1,0,0:0:0:0:
180,276,208658,1,0,0:0:0:70:soft-hitclap2.wav
180,276,209088,2,0,P|120:308|68:292,4,90
248,220,211238,5,2,0:0:0:0:
164,184,211668,2,0,P|88:136|80:104,1,90
168,92,212529,1,8,0:0:0:0:
248,48,212959,2,0,P|296:36|348:80,2,90
208,128,214249,5,0,0:0:0:0:
120,128,214679,1,0,0:0:0:70:soft-hitclap2.wav
60,196,215109,2,0,P|88:256|144:268,1,90,0|2,0:0|0:0,0:0:0:0:
256,192,215969,12,4,217690,0:0:0:0:
