osu file format v14

[General]
AudioFilename: Mahouka Koukou no Rettousei OST - Code Break.mp3
AudioLeadIn: 0
PreviewTime: 93819
Countdown: 0
SampleSet: Soft
StackLeniency: 0.7
Mode: 0
LetterboxInBreaks: 0
WidescreenStoryboard: 0

[Editor]
DistanceSpacing: 1
BeatDivisor: 4
GridSize: 4
TimelineZoom: 1

[Metadata]
Title:Code Break
TitleUnicode:Code Break
Artist:Taku Iwasaki/LotusJuice
ArtistUnicode:Taku Iwasaki/LotusJuice
Creator:Heldrith
Version:Advanced
Source:Mahouka Koukou no Rettousei [魔法科高校の劣等生]
Tags:Mahouka Koukou no Rettousei mahōka kōkō no rettōsei Taku Iwasaki LotusJuice Lotus Juice Code Break 魔法科高校の劣等生 OST soundtrack the irregular at magic high school
BeatmapID:736612
BeatmapSetID:332746

[Difficulty]
HPDrainRate:5.5
CircleSize:3
OverallDifficulty:6
ApproachRate:6
SliderMultiplier:1.3
SliderTickRate:1

[Events]
//Background and Video events
0,0,"The Irregular At Magic High School.jpg",0,0
Video,0,"Mahouka Koukou no Rettousei AMV by CrashAMV.avi"
//Break Periods
2,80255,92769
2,135309,145672
//Storyboard Layer 0 (Background)
//Storyboard Layer 1 (Fail)
//Storyboard Layer 2 (Pass)
//Storyboard Layer 3 (Foreground)
//Storyboard Sound Samples

[TimingPoints]
56,430.10752688172,4,2,1,60,1,0
6937,-83.3333333333333,4,2,1,60,0,0
7367,-100,4,2,1,60,0,0
7797,-83.3333333333333,4,2,1,60,0,0
8012,-100,4,2,2,60,0,0
8228,-100,4,2,1,60,0,0
8658,-83.3333333333333,4,2,1,60,0,0
9088,-100,4,2,1,60,0,0
10378,-100,4,2,1,100,0,0
10593,-100,4,2,1,60,0,0
30163,-71.4285714285714,4,2,1,60,0,0
31668,-100,4,2,1,60,0,0
38765,-100,4,2,1,80,0,0
38980,-100,4,2,1,60,0,0
41561,-71.4285714285714,4,2,1,60,0,0
41991,-100,4,2,1,60,0,0
42636,-71.4285714285714,4,2,1,60,0,0
43066,-100,4,2,1,60,0,0
47152,-142.857142857143,4,2,1,60,0,0
47582,-100,4,2,1,60,0,0
52529,-100,4,2,1,80,0,0
52744,-100,4,2,1,60,0,0
66292,-100,4,2,1,80,0,0
66507,-100,4,2,1,60,0,1
69733,-100,4,2,1,80,0,0
69948,-100,4,2,1,60,0,1
75754,-71.4285714285714,4,2,1,80,0,0
76400,-100,4,2,1,60,0,1
80055,-100,4,2,1,80,0,1
80271,-100,4,2,1,60,0,0
100271,-100,4,2,1,80,0,0
100486,-100,4,2,1,60,0,0
107367,-100,4,2,1,80,0,0
107582,-100,4,2,1,60,0,0
111023,-90.9090909090909,4,2,1,65,0,0
111668,-83.3333333333333,4,2,1,70,0,0
112744,-76.9230769230769,4,2,1,75,0,0
113604,-71.4285714285714,4,2,1,80,0,0
114034,-100,4,2,1,80,0,0
114249,-100,4,2,1,60,0,1
114894,-142.857142857143,4,2,1,60,0,1
118335,-100,4,2,1,60,0,1
118550,-142.857142857143,4,2,1,60,0,1
120916,-100,4,2,1,60,0,1
121346,-142.857142857143,4,2,1,60,0,1
127797,-100,4,2,1,80,0,1
128012,-142.857142857143,4,2,1,60,0,1
135109,-100,4,2,1,80,0,0
135324,-100,4,2,1,60,0,0
148873,-100,4,2,1,100,0,0
149088,-100,4,2,1,60,0,0
150593,-71.4285714285714,4,2,1,60,0,0
152099,-100,4,2,1,60,0,0
153174,-71.4285714285714,4,2,1,60,0,0
155539,-100,4,2,1,60,0,0
162421,-100,4,2,1,80,0,0
162636,-100,4,2,1,60,0,1
169948,-100,4,2,1,80,0,0
170163,-100,4,2,1,60,0,1
176400,-100,4,2,1,80,0,0
176615,-100,4,2,1,60,0,0
183281,-100,4,2,1,80,0,0
183496,-100,4,2,1,60,0,0
190163,-100,4,2,1,80,0,0
190378,-100,4,2,1,60,0,1
191883,-71.4285714285714,4,2,1,60,0,1
192529,-100,4,2,1,60,0,1
203926,-100,4,2,1,80,0,0
204142,-100,4,2,1,60,0,1
217690,-100,4,2,1,100,0,0

[Colours]
Combo1 : 58,143,86
Combo2 : 211,217,108
Combo3 : 168,62,43
Combo4 : 83,115,151
SliderBorder : 150,160,150
SliderTrackOverride : 1,5,1 SpinnerBackground :
255,255,255

[HitObjects]
212,68,4357,5,0,0:0:0:0:
332,116,4787,2,0,P|352:212|332:232,1,130
276,248,5432,2,0,L|240:308,2,65
252,188,6077,21,0,0:0:0:0:
368,248,6507,1,0,0:0:0:0:
448,112,6937,2,0,P|428:64|388:44,2,77.999997619629
404,160,7582,1,0,0:0:0:0:
328,176,7797,6,0,P|308:156|236:152,2,77.999997619629,0|8|0,0:0|0:0|0:0,0:0:0:70:soft-hitclap2.wav
304,236,8443,1,0,0:0:0:0:
228,252,8658,2,0,P|192:252|148:296,2,77.999997619629
256,312,9303,1,2,0:0:0:0:
256,192,9518,12,4,10378,0:0:0:0:
272,100,11238,5,0,0:0:0:0:
364,192,11668,2,0,B|408:236|408:236|360:300,2,130
324,140,12744,1,8,0:0:0:0:
260,128,12959,6,0,P|176:144|160:172,2,97.5
320,152,13819,2,0,L|380:140,2,32.5
320,152,14249,1,0,0:0:0:0:
280,204,14464,1,0,0:0:0:0:
224,236,14679,1,0,0:0:0:0:
328,308,15109,6,0,B|272:360|272:360|224:328,2,130
304,244,16185,2,0,P|328:164|372:140,1,130
428,144,16830,1,0,0:0:0:0:
416,272,17260,5,0,0:0:0:0:
368,312,17475,2,0,P|296:336|240:296,1,130
220,256,18120,1,0,0:0:0:0:
336,200,18550,1,2,0:0:0:0:
292,76,18980,6,0,P|180:72|176:80,1,130
132,108,19625,1,8,0:0:0:0:
100,164,19840,2,0,P|36:208|32:224,2,97.5
160,184,20701,1,0,0:0:0:0:
160,184,20916,1,0,0:0:0:0:
160,184,21131,2,0,L|316:200,1,130,0|8,0:0|0:0,0:0:0:0:
332,244,21776,1,0,0:0:0:0:
284,288,21991,6,0,P|188:340|176:332,3,130
68,288,23711,1,0,0:0:0:70:soft-hitclap2.wav
172,208,24142,1,0,0:0:0:0:
56,152,24572,1,8,0:0:0:0:
56,152,24787,1,2,0:0:0:0:
56,152,25002,1,0,0:0:0:0:
148,64,25432,22,0,L|212:12,1,65
236,76,25862,2,0,L|292:128,1,65
332,76,26292,1,0,0:0:0:0:
460,48,26722,2,0,B|524:80|396:144|464:144|524:176|456:220,1,195,0|8,0:0|0:0,0:0:0:0:
396,216,27582,1,0,0:0:0:0:
364,272,27797,2,0,L|392:320,2,32.5
304,252,28228,1,0,0:0:0:0:
304,252,28443,1,0,0:0:0:0:
380,148,28873,22,0,L|304:148,1,65
252,148,29303,2,0,P|196:188|188:220,1,97.5
216,304,29948,1,0,0:0:0:0:
128,324,30163,2,0,P|56:276|56:268,3,90.9999972229005
132,232,31023,2,0,P|45:210|40:216,3,90.9999972229005
68,136,31883,1,0,0:0:0:70:soft-hitclap2.wav
116,92,32099,6,0,L|116:36,2,32.5
180,108,32529,1,0,0:0:0:0:
244,108,32744,2,0,P|244:80|276:52,2,65
284,160,33389,1,2,0:0:0:0:
236,204,33604,2,0,P|160:272|160:292,1,130
216,320,34249,1,0,0:0:0:0:
280,320,34464,6,0,P|352:272|352:264,2,97.5
244,260,35324,1,0,0:0:0:0:
224,196,35539,2,0,P|264:152|332:160,1,130
380,200,36185,1,0,0:0:0:0:
436,164,36400,2,0,L|488:188,2,32.5
452,100,36830,1,0,0:0:0:0:
408,52,37045,6,0,P|344:28|308:44,2,97.5
436,108,37905,1,0,0:0:0:0:
380,224,38335,1,0,0:0:0:0:
276,304,38765,1,4,0:0:0:0:
292,176,39195,5,0,0:0:0:0:
272,112,39410,2,0,L|208:80,1,65
152,100,39840,2,0,L|104:72,2,32.5
152,164,40271,1,0,0:0:0:0:
204,196,40486,2,0,B|256:196|256:196|216:268|216:268|292:268,1,195,0|8,0:0|0:0,0:0:0:0:
340,268,41346,5,0,0:0:0:0:
420,224,41561,2,0,P|448:288|432:320,2,90.9999972229005
304,284,42421,1,0,0:0:0:0:
244,216,42636,2,0,P|196:160|208:124,2,90.9999972229005
364,264,43496,1,0,0:0:0:0:
424,292,43711,2,0,L|476:324,2,32.5
456,236,44142,2,0,L|500:236,2,32.5
424,180,44572,1,0,0:0:0:0:
364,208,44787,6,0,P|284:252|248:252,2,130
440,92,46077,1,0,0:0:0:70:soft-hitclap2.wav
376,84,46292,2,0,L|344:40,4,32.5
328,128,46937,1,0,0:0:0:0:
284,120,47152,2,0,P|236:160|240:204,1,90.9999972229005
276,232,47797,1,0,0:0:0:0:
340,224,48012,2,0,L|388:208,1,32.5
332,304,48443,1,0,0:0:0:0:
268,320,48658,2,0,P|212:344|180:336,1,65
88,296,49303,5,0,0:0:0:0:
88,296,49518,2,0,L|40:352,2,65
48,244,50163,2,0,P|41:164|76:144,1,130
140,164,50808,1,0,0:0:0:0:
260,124,51238,1,0,0:0:0:0:
236,252,51668,1,0,0:0:0:0:
172,268,51883,2,0,L|120:336,1,65,2|0,0:0|0:0,0:0:0:0:
88,272,52314,2,0,L|36:336,1,65,0|4,0:0|0:0,0:0:0:0:
8,200,52959,5,0,0:0:0:0:
52,76,53389,1,0,0:0:0:0:
112,100,53604,2,0,P|160:80|172:80,1,65
216,32,54034,1,0,0:0:0:0:
280,48,54249,2,0,L|304:132,1,65
264,164,54679,1,0,0:0:0:0:
292,220,54894,2,0,P|248:284|264:312,2,97.5
352,192,55754,1,8,0:0:0:0:
336,72,56185,5,0,0:0:0:0:
336,72,56400,2,0,L|248:20,2,97.5
304,128,57260,1,0,0:0:0:0:
324,256,57690,2,0,L|392:280,2,65,8|0|8,0:0|0:0|0:0,0:0:0:0:
292,200,58335,1,0,0:0:0:0:
248,152,58550,1,0,0:0:0:0:
248,152,58765,2,0,B|188:128|188:128|144:180,1,130
132,240,59410,5,0,0:0:0:0:
84,284,59625,2,0,L|164:328,4,65
56,224,60701,1,0,0:0:0:70:soft-hitclap2.wav
128,116,61131,6,0,L|40:140,5,65
20,88,62421,1,8,0:0:0:0:
140,36,62851,5,0,0:0:0:0:
140,36,63066,1,0,0:0:0:0:
192,76,63281,2,0,L|260:80,1,65,0|8,0:0|0:0,0:0:0:0:
300,128,63711,1,0,0:0:0:0:
268,184,63926,2,0,L|216:208,1,32.5
164,264,64357,1,0,0:0:0:0:
204,316,64572,5,0,0:0:0:0:
328,352,65002,2,0,L|400:352,1,65
436,304,65432,2,0,L|436:172,1,130,0|2,0:0|0:0,0:0:0:0:
356,72,66292,1,4,0:0:0:0:
316,196,66722,5,0,0:0:0:0:
244,80,67152,1,8,0:0:0:0:
180,64,67367,2,0,P|107:101|112:144,1,130
156,184,68012,2,0,L|200:184,4,32.5
124,244,68658,6,0,P|74:239|52:216,1,65
20,108,69303,1,2,0:0:0:0:
56,56,69518,1,0,0:0:0:0:
116,76,69733,1,4,0:0:0:0:
180,60,69948,6,0,L|180:12,2,32.5
232,96,70378,1,0,0:0:0:0:
284,132,70593,2,0,P|348:100|356:72,2,97.5,0|0|8,0:0|0:0|0:0,0:0:0:0:
284,196,71453,2,0,L|304:252,4,32.5
220,188,72099,5,0,0:0:0:0:
220,124,72314,2,0,B|176:88|176:88|120:148,1,130
132,208,72959,1,0,0:0:0:0:
68,220,73174,1,2,0:0:0:0:
140,328,73604,5,0,0:0:0:0:
204,316,73819,2,0,L|256:340,4,32.5
236,260,74464,1,0,0:0:0:0:
300,268,74679,2,0,P|304:192|344:164,1,130
304,112,75324,1,0,0:0:0:70:soft-hitclap2.wav
412,40,75754,6,0,P|468:90|468:120,1,90.9999972229005
428,180,76185,2,0,P|400:208|400:260,1,90.9999972229005
392,320,76615,1,0,0:0:0:0:
332,336,76830,2,0,L|308:368,2,32.5
280,296,77260,1,0,0:0:0:0:
280,296,77475,6,0,P|192:256|156:264,1,130
100,244,78120,1,0,0:0:0:0:
100,180,78335,1,0,0:0:0:0:
92,116,78550,2,0,L|56:72,2,32.5
156,108,78980,1,0,0:0:0:0:
200,60,79195,2,0,P|232:44|280:44,1,65,8|0,0:0|0:0,0:0:0:0:
312,80,79625,1,0,0:0:0:0:
372,60,79840,1,0,0:0:0:0:
428,92,80055,1,4,0:0:0:0:
144,80,93819,5,0,0:0:0:0:
80,88,94034,2,0,L|24:172,1,97.5
120,188,94679,2,0,L|220:144,1,97.5
196,244,95324,1,0,0:0:0:0:
156,296,95539,2,0,P|80:332|60:332,2,97.5
220,288,96400,2,0,L|292:320,1,65
344,324,96830,1,0,0:0:0:0:
436,236,97260,6,0,P|477:188|472:152,1,97.5
380,132,97905,1,0,0:0:0:0:
336,180,98120,1,0,0:0:0:0:
280,144,98335,2,0,P|224:96|172:104,1,130
176,172,98980,5,8,0:0:0:0:
112,284,99410,2,0,L|44:232,1,65
60,180,99840,2,0,L|116:120,1,65
96,68,100271,1,4,0:0:0:0:
224,44,100701,6,0,L|272:88,1,65,0|8,0:0|0:0,0:0:0:0:
280,152,101131,1,0,0:0:0:0:
344,148,101346,2,0,P|405:230|400:256,1,130
376,308,101991,1,0,0:0:0:0:
252,352,102421,6,0,L|184:352,1,65,8|0,0:0|0:0,0:0:0:0:
124,336,102851,1,0,0:0:0:0:
228,260,103281,2,0,P|171:226|144:224,1,65
188,164,103711,1,2,0:0:0:0:
184,32,104142,6,0,P|132:24|104:40,1,65
92,84,104572,2,0,P|41:99|23:126,1,65
12,168,105002,1,0,0:0:0:0:
40,228,105217,2,0,P|8:268|16:300,1,65,0|8,0:0|0:0,0:0:0:70:soft-hitclap2.wav
136,304,105862,6,0,L|192:344,1,65
244,308,106292,1,0,0:0:0:0:
244,308,106507,1,0,0:0:0:70:soft-hitclap2.wav
244,308,106722,2,0,P|304:332|336:320,2,97.5,0|0|4,0:0|0:0|0:0,0:0:0:0:
248,244,107582,21,0,0:0:0:0:
184,236,107797,2,0,P|144:168|164:136,2,97.5
312,244,108873,1,0,0:0:0:70:soft-hitnormal2.wav
376,132,109303,6,0,P|425:143|443:188,2,97.5
320,100,110163,2,0,B|320:52|320:52|280:40,1,65,2|0,0:0|0:0,0:0:0:0:
240,40,110593,1,0,0:0:0:70:soft-hitnormal2.wav
112,108,111023,6,0,L|164:160,1,71.5000021820069
112,208,111453,1,0,0:0:0:0:
96,276,111668,2,0,P|24:281|4:308,2,77.999997619629,8|0|8,0:0|0:0|0:0,0:0:0:0:
164,316,112314,1,4,0:0:0:70:soft-hitnormal2.wav
312,268,112744,21,0,0:0:0:0:
372,208,112959,2,0,P|328:140|296:140,1,84.4999961318971
292,152,113281,1,0,0:0:0:0:
236,92,113496,2,0,L|160:92,1,42.2499980659486,0|2,0:0|0:0,0:0:0:0:
124,36,113819,2,0,L|68:108,1,90.9999972229005,0|4,0:0|0:0,0:0:0:0:
108,232,114464,5,0,0:0:0:0:
168,260,114679,1,0,0:0:0:0:
168,260,114894,2,0,P|136:316|140:348,2,90.9999972229005
160,216,115969,1,2,0:0:0:70:soft-hitclap2.wav
180,172,116185,2,0,P|245:211|252:232,2,90.9999972229005
148,140,117260,2,0,L|96:140,3,45.4999986114502
184,36,118335,6,0,L|264:36,1,65,4|0,0:0|0:0,0:0:0:0:
284,64,118765,2,0,P|252:156|208:176,1,136.499995834351
232,216,119625,1,0,0:0:0:70:soft-hitclap2.wav
152,264,120055,2,0,P|147:311|176:348,1,90.9999972229005
296,312,120916,2,0,L|360:336,2,65
272,276,121561,1,0,0:0:0:0:
260,232,121776,6,0,B|236:156|236:156|344:148,1,181.999994445801,8|0,0:0|0:0,0:0:0:0:
376,120,122851,2,0,P|439:128|456:152,2,90.9999972229005
336,144,123926,1,0,0:0:0:0:
336,144,124142,1,0,0:0:0:0:
336,144,124357,2,0,P|268:60|152:60,1,227.499993057251,2|0,0:0|0:0,0:0:0:0:
116,84,125647,5,8,0:0:0:0:
52,148,126077,1,0,0:0:0:0:
96,228,126507,2,0,P|56:272|24:276,2,90.9999972229005
224,200,127797,1,4,0:0:0:0:
188,284,128228,6,0,B|236:320|236:320|288:264,1,136.499995834351
308,224,129088,2,0,L|372:224,2,45.4999986114502
224,184,129948,5,0,0:0:0:70:soft-hitclap2.wav
132,172,130378,1,0,0:0:0:0:
132,172,130593,1,8,0:0:0:0:
156,132,130808,2,0,B|160:72|160:72|204:56,1,90.9999972229005
232,44,131453,1,0,0:0:0:0:
292,40,131668,5,0,0:0:0:0:
332,60,131884,2,0,P|403:56|416:68,2,90.9999972229005
328,104,132959,1,0,0:0:0:0:
308,144,133174,1,0,0:0:0:0:
276,176,133389,6,0,P|216:200|208:220,2,90.9999972229005
320,184,134464,1,2,0:0:0:0:
364,200,134679,2,0,L|400:212,1,22.7499993057251
476,244,135109,1,4,0:0:0:0:
256,192,146722,12,4,148873,0:0:0:0:
256,192,149303,5,0,0:0:0:0:
284,64,149733,2,0,P|336:52|376:104,1,97.5
396,168,150378,1,2,0:0:0:0:
356,248,150593,2,0,P|288:284|236:256,2,136.499995834351
316,168,151453,2,0,P|248:132|196:160,2,136.499995834351,8|0|0,0:0|0:0|0:0,0:0:0:0:
308,228,152314,5,0,0:0:0:0:
392,328,152744,1,0,0:0:0:0:
212,304,153174,2,0,P|136:336|92:332,3,90.9999972229005
88,256,154034,2,0,P|164:224|208:232,3,90.9999972229005
236,164,154894,2,0,L|272:112,6,45.4999986114502,0|8|0|0|0|0|0,0:0|0:0|0:0|0:0|0:0|0:0|0:0,0:0:0:0:
168,172,155754,6,0,P|88:148|72:100,1,130,0|8,0:0|0:0,0:0:0:0:
132,80,156400,1,0,0:0:0:0:
152,20,156615,1,0,0:0:0:0:
240,64,156937,2,0,L|340:32,1,97.5
392,64,157475,1,4,0:0:0:70:soft-hitclap2.wav
412,124,157690,6,0,L|412:180,1,32.5
404,252,158120,1,0,0:0:0:0:
404,252,158335,1,0,0:0:0:0:
356,296,158550,2,0,L|304:320,1,32.5
232,332,158980,1,0,0:0:0:0:
168,324,159195,6,0,L|108:268,1,65
84,228,159625,1,0,0:0:0:0:
204,180,160055,1,0,0:0:0:0:
112,92,160486,1,0,0:0:0:0:
112,92,160916,6,0,L|188:120,1,65
204,172,161346,1,2,0:0:0:0:
272,284,161776,1,0,0:0:0:0:
336,296,161991,2,0,L|384:276,1,32.5
444,224,162421,1,0,0:0:0:0:
416,164,162636,6,0,P|364:148|344:72,1,130
284,48,163281,1,0,0:0:0:0:
220,36,163496,2,0,L|144:36,1,65
92,52,163926,2,0,P|40:84|40:160,1,130
80,196,164572,1,8,0:0:0:0:
100,256,164787,2,0,P|124:344|92:352,2,130
136,200,165862,6,0,L|216:200,1,65
244,248,166292,1,0,0:0:0:0:
292,292,166507,2,0,P|368:248|368:216,1,130
452,116,167367,2,0,L|412:52,1,65
360,32,167797,1,8,0:0:0:0:
296,52,168012,2,0,P|232:49|208:64,3,65
192,100,168873,1,0,0:0:0:0:
140,136,169088,2,0,L|104:100,1,32.5,2|0,0:0|0:0,0:0:0:0:
44,48,169518,5,0,0:0:0:0:
4,172,169948,1,4,0:0:0:0:
64,196,170163,2,0,P|104:256|160:264,1,130,8|0,0:0|0:0,0:0:0:0:
220,280,170808,1,0,0:0:0:0:
348,312,171238,6,0,P|320:264|288:248,2,65
400,272,171883,1,0,0:0:0:0:
400,272,172099,1,0,0:0:0:0:
428,212,172314,2,0,L|468:136,1,65,2|0,0:0|0:0,0:0:0:0:
348,84,172959,6,0,P|416:48|432:60,2,97.5
332,148,173819,2,0,L|260:148,1,65,8|0,0:0|0:0,0:0:0:0:
208,180,174249,1,0,0:0:0:70:soft-hitclap2.wav
188,308,174679,5,0,0:0:0:0:
188,308,175109,1,0,0:0:0:70:soft-hitclap2.wav
60,280,175539,1,0,0:0:0:0:
68,248,175647,1,0,0:0:0:0:
80,220,175754,1,0,0:0:0:0:
56,160,175969,2,0,L|16:104,1,65
36,44,176400,5,4,0:0:0:0:
96,20,176615,2,0,B|168:20|168:20|220:48,1,130
236,112,177260,2,0,P|300:148|320:200,2,130
176,136,178335,1,0,0:0:0:0:
140,192,178550,2,0,L|164:252,1,65
180,280,178873,1,0,0:0:0:0:
276,284,179195,2,0,L|292:236,2,32.5
336,312,179625,1,0,0:0:0:0:
400,308,179840,1,0,0:0:0:0:
432,180,180271,6,0,L|368:140,1,65,0|2,0:0|0:0,0:0:0:0:
324,184,180701,1,0,0:0:0:0:
228,164,181023,2,0,P|188:171|156:216,1,97.5
92,216,181561,2,0,L|36:168,1,65
40,108,181991,2,0,L|104:48,1,65
144,36,182421,1,0,0:0:0:0:
188,84,182636,2,0,P|264:112|272:152,1,130
324,192,183281,1,4,0:0:0:0:
416,100,183711,5,0,0:0:0:0:
452,224,184142,2,0,P|442:300|432:316,2,97.5,0|0|8,0:0|0:0|0:0,0:0:0:0:
388,208,185002,1,0,0:0:0:0:
328,228,185217,2,0,L|208:280,1,130
144,264,185862,6,0,P|92:320|56:316,2,97.5
112,208,186722,1,0,0:0:0:0:
100,144,186937,2,0,L|164:28,1,130
228,40,187582,1,0,0:0:0:70:soft-hitclap2.wav
232,104,187797,2,0,L|232:156,1,32.5
316,184,188228,1,2,0:0:0:0:
332,120,188443,6,0,P|372:68|408:68,2,97.5
348,184,189303,1,0,0:0:0:0:
220,200,189733,1,0,0:0:0:0:
312,292,190163,1,4,0:0:0:0:
192,340,190593,6,0,L|104:316,1,65,8|0,0:0|0:0,0:0:0:0:
132,256,191023,2,0,P|208:192|208:164,1,130
204,104,191668,1,0,0:0:0:0:
204,104,191883,6,0,P|168:40|168:24,1,90.9999972229005
112,96,192314,2,0,P|44:121|24:159,1,90.9999972229005
36,200,192744,1,0,0:0:0:0:
88,240,192959,2,0,L|144:228,2,32.5
84,304,193389,2,0,L|156:300,1,65
204,332,193819,6,0,P|256:348|300:328,1,97.5
396,300,194464,2,0,P|440:308|480:348,2,97.5
348,256,195324,1,0,0:0:0:0:
364,192,195539,2,0,P|456:144|464:112,2,130,2|0|0,0:0|0:0|0:0,0:0:0:0:
324,244,196615,2,0,L|272:244,1,32.5
204,200,197045,6,0,L|212:124,1,65
252,88,197475,2,0,L|204:20,1,65
152,32,197905,1,0,0:0:0:0:
88,44,198120,2,0,L|36:96,1,65
28,152,198550,1,0,0:0:0:70:soft-hitclap2.wav
36,204,198765,6,0,P|52:272|100:328,1,130
148,292,199410,1,0,0:0:0:0:
212,280,199625,2,0,P|252:332|320:332,1,130
428,280,200486,5,0,0:0:0:70:soft-hitclap2.wav
372,248,200701,2,0,P|316:200|312:176,2,97.5
428,216,201561,2,0,L|428:140,1,65,8|0,0:0|0:0,0:0:0:0:
400,92,201991,1,0,0:0:0:0:
400,92,202206,5,0,0:0:0:0:
400,92,202421,2,0,L|484:92,2,65
336,92,203066,1,2,0:0:0:0:
224,160,203496,1,0,0:0:0:0:
124,80,203926,5,4,0:0:0:0:
68,200,204357,2,0,P|92:228|144:244,3,65
176,216,205217,2,0,P|212:128|228:128,2,130
188,280,206292,1,0,0:0:0:0:
244,308,206507,2,0,L|276:348,6,32.5
292,264,207367,1,0,0:0:0:0:
256,140,207797,6,0,L|172:140,2,65
316,116,208443,1,2,0:0:0:0:
380,100,208658,2,0,P|448:28|444:8,2,130
344,156,209733,1,0,0:0:0:0:
380,212,209948,2,0,L|440:212,6,32.5
328,252,210808,6,0,P|252:268|200:248,1,130
76,248,211668,2,0,L|76:164,1,65
64,120,212099,1,8,0:0:0:0:
128,112,212314,1,0,0:0:0:0:
176,68,212529,2,0,L|244:68,1,65
304,84,212959,2,0,L|344:44,6,32.5
352,128,213819,2,0,P|356:180|348:204,1,65
320,248,214249,5,0,0:0:0:0:
272,292,214464,2,0,L|192:292,1,65
148,268,214894,1,2,0:0:0:0:
112,212,215109,2,0,B|49:214|49:214|32:144,1,130
20,84,215754,1,0,0:0:0:70:soft-hitclap2.wav
256,192,215969,12,4,217690,0:0:0:0:
