osu file format v14

[General]
AudioFilename: audio.mp3
AudioLeadIn: 0
PreviewTime: 102129
Countdown: 1
SampleSet: Soft
StackLeniency: 0.4
Mode: 0
LetterboxInBreaks: 0
WidescreenStoryboard: 0

[Editor]
Bookmarks: 25399,36937,87624
DistanceSpacing: 0.8
BeatDivisor: 4
GridSize: 32
TimelineZoom: 2.5

[Metadata]
Title:Yoake Made Ato 3 byou
TitleUnicode:夜明けまであと3秒
Artist:Taku Inoue
ArtistUnicode:Taku Inoue
Creator:Hikari-
Version:Insane
Source:シンクロニカ
Tags:Synchronica 太鼓の達人 Taiko No Tatsujin maimai
BeatmapID:1277784
BeatmapSetID:604780

[Difficulty]
HPDrainRate:5.5
CircleSize:4.2
OverallDifficulty:8.5
ApproachRate:9.2
SliderMultiplier:1.7
SliderTickRate:1

[Events]
//Background and Video events
0,0,"夜明けまであと3秒.jpg",0,0
//Break Periods
2,100351,101559
//Storyboard Layer 0 (Background)
//Storyboard Layer 1 (Fail)
//Storyboard Layer 2 (Pass)
//Storyboard Layer 3 (Foreground)
//Storyboard Sound Samples

[TimingPoints]
1594,338.983050847458,4,2,1,40,1,0
13119,329.67032967033,4,2,1,70,1,0
23586,-100,4,3,1,40,0,0
26305,-133.333333333333,4,3,1,50,0,0
28943,-100,4,3,1,60,0,0
33228,-83.3333333333333,4,2,1,70,0,0
33558,-76.9230769230769,4,2,1,70,0,0
33888,-71.4285714285714,4,2,1,70,0,0
34217,-100,4,2,1,80,0,0
35289,-100,4,2,1,30,0,0
36525,-66.6666666666667,4,2,1,100,0,0
36855,-100,4,1,1,60,0,0
41470,-133.333333333333,4,1,1,60,0,0
41800,-66.6666666666667,4,1,1,60,0,0
42129,-100,4,1,1,60,0,0
48393,-66.6666666666667,4,1,1,60,0,0
48723,-100,4,1,1,60,0,0
51855,-80,4,1,1,60,0,0
52349,-66.6666666666667,4,1,1,60,0,0
52679,-100,4,1,1,60,0,0
55316,-133.333333333333,4,2,1,60,0,0
57624,-100,4,2,1,60,0,0
60261,-66.6666666666667,4,2,1,60,0,0
61250,-133.333333333333,4,2,1,60,0,0
64547,-100,4,3,1,60,0,0
81690,-133.333333333333,4,2,1,60,0,0
82679,-66.6666666666667,4,2,1,60,0,0
83009,-133.333333333333,4,2,1,60,0,0
83998,-66.6666666666667,4,2,1,60,0,0
84327,-200,4,2,1,60,0,0
87734,-100,4,2,1,60,0,0
95206,-100,4,2,1,60,0,0
102129,329.67032967033,4,2,1,60,1,0
103119,-66.6666666666667,4,2,1,60,0,0
103447,-100,4,1,1,60,0,1
107734,-133.333333333333,4,2,1,60,0,1
108393,-66.6666666666667,4,2,1,60,0,1
108723,-100,4,1,1,60,0,1
114986,-66.6666666666667,4,1,1,60,0,1
115315,-100,4,1,1,60,0,1
118447,-80,4,1,1,60,0,1
118942,-66.6666666666667,4,1,1,60,0,1
119271,-100,4,1,1,60,0,1
124546,-100,4,2,1,60,0,0

[Colours]
Combo1 : 255,128,128
Combo2 : 128,255,255
Combo3 : 0,128,255
Combo4 : 151,151,255
Combo5 : 128,0,255
Combo6 : 64,128,128
Combo7 : 128,64,64

[HitObjects]
80,80,1594,69,0,0:0:0:0:
113,85,1706,1,0,0:0:0:0:
147,91,1819,1,0,0:0:0:0:
180,96,1932,1,2,0:0:0:0:
219,102,2045,2,0,L|227:168,1,56.6666666666667,0|0,0:0|0:0,0:0:0:0:
151,221,2271,5,2,0:0:0:0:
151,221,2610,1,0,0:0:0:0:
236,297,2949,5,0,0:0:0:0:
256,286,3061,1,0,0:0:0:0:
277,281,3174,1,0,0:0:0:0:
300,280,3287,1,2,0:0:0:0:
442,213,3627,21,0,0:0:0:0:
419,207,3739,1,0,0:0:0:0:
396,210,3852,1,0,0:0:0:0:
377,220,3965,1,2,0:0:0:0:
193,225,4305,5,0,0:0:0:0:
160,220,4417,1,0,0:0:0:0:
125,214,4530,1,0,0:0:0:0:
93,209,4643,1,2,0:0:0:0:
53,203,4756,2,0,L|58:144,1,56.6666666666667,0|0,0:0|0:0,0:0:0:0:
129,60,4982,5,2,0:0:0:0:
129,60,5322,1,0,0:0:0:0:
214,132,5661,5,0,0:0:0:0:
237,137,5773,1,0,0:0:0:0:
258,131,5886,1,0,0:0:0:0:
276,117,5999,1,2,0:0:0:0:
428,58,6339,5,0,0:0:0:0:
405,53,6451,1,0,0:0:0:0:
384,59,6564,1,0,0:0:0:0:
366,73,6677,1,2,0:0:0:0:
297,207,7017,53,0,0:0:0:0:
300,239,7129,1,0,0:0:0:0:
305,275,7242,1,0,0:0:0:0:
310,307,7355,1,2,0:0:0:0:
315,347,7468,2,0,L|255:337,1,56.6666666666667,0|0,0:0|0:0,0:0:0:0:
139,353,7695,21,2,0:0:0:0:
139,353,7921,1,2,0:0:0:0:
139,353,8034,1,0,0:0:0:0:
41,270,8373,53,0,0:0:0:0:
63,269,8485,1,0,0:0:0:0:
83,259,8598,1,0,0:0:0:0:
98,242,8711,1,2,0:0:0:0:
198,166,9051,53,0,0:0:0:0:
176,165,9163,1,0,0:0:0:0:
156,155,9276,1,0,0:0:0:0:
141,138,9389,1,2,0:0:0:0:
51,70,9729,21,0,0:0:0:0:
67,55,9841,1,0,0:0:0:0:
87,43,9954,1,0,0:0:0:0:
108,36,10068,1,2,0:0:0:0:
130,34,10181,2,0,L|188:51,1,56.6666666666667
263,109,10407,5,0,0:0:0:0:
280,123,10520,1,0,0:0:0:0:
300,134,10633,1,0,0:0:0:0:
322,140,10746,1,2,0:0:0:0:
345,140,10859,2,0,L|429:108,1,56.6666666666667,0|0,0:0|0:0,0:0:0:0:
471,205,11085,53,0,0:0:0:0:
470,226,11197,1,0,0:0:0:0:
465,248,11310,1,0,0:0:0:0:
455,268,11424,1,2,0:0:0:0:
442,287,11537,2,0,L|375:271,1,56.6666666666667,0|0,0:0|0:0,0:0:0:0:
255,240,11763,53,4,0:1:0:0:
63,315,13119,5,0,0:0:0:0:
91,310,13228,1,0,0:0:0:0:
119,306,13338,1,0,0:0:0:0:
145,303,13448,1,2,0:0:0:0:
177,296,13558,2,0,P|178:264|170:227,1,56.6666666666667
103,92,13778,1,2,0:0:0:0:
103,92,13998,1,0,0:0:0:0:
102,92,14108,2,0,P|81:143|95:197,1,113.333333333333,2|0,0:0|0:0,0:0:0:0:
184,154,14437,5,2,0:0:0:0:
211,160,14546,1,0,0:0:0:0:
238,153,14656,1,0,0:0:0:0:
258,134,14766,1,2,0:0:0:0:
277,114,14877,2,0,P|309:122|339:144,1,56.6666666666667
410,276,15097,5,2,0:0:0:0:
389,294,15206,1,0,0:0:0:0:
363,300,15316,1,0,0:0:0:0:
334,293,15426,1,2,0:0:0:0:
311,279,15536,2,0,P|284:270|254:269,1,56.6666666666667
63,315,15756,5,0,0:0:0:0:
91,310,15865,1,0,0:0:0:0:
119,306,15975,1,0,0:0:0:0:
145,303,16085,1,2,0:0:0:0:
177,296,16195,2,0,P|178:264|170:227,1,56.6666666666667
103,92,16415,1,2,0:0:0:0:
103,92,16635,1,0,0:0:0:0:
102,92,16745,2,0,P|81:143|95:197,1,113.333333333333,2|0,0:0|0:0,0:0:0:0:
200,159,17074,5,2,0:0:0:0:
227,165,17183,1,0,0:0:0:0:
254,158,17293,1,0,0:0:0:0:
274,139,17403,1,2,0:0:0:0:
286,114,17514,2,0,L|270:57,1,56.6666666666667
352,213,17734,5,2,0:0:0:0:
349,241,17843,1,0,0:0:0:0:
347,269,17953,1,0,0:0:0:0:
345,297,18063,1,2,0:0:0:0:
343,329,18173,2,0,P|317:315|267:312,1,56.6666666666667
63,315,18393,5,0,0:0:0:0:
91,310,18502,1,0,0:0:0:0:
119,306,18612,1,0,0:0:0:0:
145,303,18722,1,2,0:0:0:0:
177,296,18832,2,0,P|178:264|170:227,1,56.6666666666667
103,92,19052,1,2,0:0:0:0:
103,92,19272,1,0,0:0:0:0:
102,92,19382,2,0,P|81:143|95:197,1,113.333333333333,2|0,0:0|0:0,0:0:0:0:
209,173,19712,5,2,0:2:0:0:
231,176,19821,1,0,0:0:0:0:
253,180,19931,1,0,0:0:0:0:
276,183,20041,1,2,0:0:0:0:
298,187,20151,2,0,L|314:109,1,56.6666666666667,0|0,0:0|0:0,0:0:0:0:
358,51,20371,5,2,0:2:0:0:
380,47,20480,1,0,0:0:0:0:
402,44,20590,1,0,0:0:0:0:
425,40,20701,1,2,0:0:0:0:
447,37,20810,2,0,L|463:115,1,56.6666666666667,0|0,0:0|0:0,0:0:0:0:
395,175,21031,5,2,0:2:0:0:
398,197,21140,1,0,0:0:0:0:
402,219,21250,1,0,0:0:0:0:
405,242,21360,1,2,0:0:0:0:
409,264,21470,2,0,L|331:280,1,56.6666666666667,0|0,0:0|0:0,0:0:0:0:
286,339,21690,5,2,0:2:0:0:
264,342,21799,1,0,0:0:0:0:
242,346,21909,1,0,0:0:0:0:
219,349,22019,1,2,0:0:0:0:
197,353,22129,2,0,L|181:275,1,56.6666666666667,0|0,0:0|0:0,0:0:0:0:
63,202,22349,5,2,0:2:0:0:
60,224,22458,1,0,0:0:0:0:
56,246,22568,1,0,0:0:0:0:
53,269,22678,1,2,0:0:0:0:
49,291,22788,2,0,P|74:307|108:307,1,56.6666666666667,0|0,0:0|0:0,0:0:0:0:
164,218,23009,5,2,0:2:0:0:
186,215,23118,1,0,0:0:0:0:
208,211,23228,1,0,0:0:0:0:
231,208,23338,1,2,0:0:0:0:
253,204,23448,2,0,P|266:179|269:138,1,56.6666666666667,0|0,0:0|0:0,0:0:0:0:
358,43,23668,53,6,0:2:0:0:
433,342,23998,1,0,0:0:0:0:
407,141,24327,1,0,0:0:0:0:
371,261,24657,1,0,0:0:0:0:
37,199,24987,5,0,0:0:0:0:
281,221,25316,1,0,0:0:0:0:
125,186,25646,1,0,0:0:0:0:
198,242,25976,1,0,0:0:0:0:
439,31,26305,54,0,L|430:109,1,63.7500024318696,0|0,0:0|2:0,0:0:0:0:
384,336,26635,2,0,L|364:261,1,63.7500024318696,0|0,0:0|2:0,0:0:0:0:
344,103,26965,2,0,L|364:190,1,63.7500024318696,0|0,0:0|2:0,0:0:0:0:
453,251,27294,2,0,L|464:168,1,63.7500024318696,0|0,0:0|2:0,0:0:0:0:
92,170,27624,22,0,L|22:186,1,63.7500024318696,0|0,0:0|2:0,0:0:0:0:
294,213,27954,2,0,L|353:235,1,63.7500024318696,0|0,0:0|2:0,0:0:0:0:
123,268,28283,2,0,L|102:328,1,63.7500024318696,0|0,0:0|2:0,0:0:0:0:
228,280,28613,2,0,L|238:342,1,63.7500024318696,0|0,0:0|2:0,0:0:0:0:
278,87,28943,37,0,0:0:0:0:
137,168,29108,1,0,0:0:0:0:
165,56,29272,1,0,0:0:0:0:
247,198,29437,1,0,0:0:0:0:
273,119,29602,5,0,0:0:0:0:
103,147,29767,1,0,0:0:0:0:
176,43,29931,1,0,0:0:0:0:
201,217,30097,1,0,0:0:0:0:
261,142,30261,5,0,0:0:0:0:
85,109,30426,1,0,0:0:0:0:
193,32,30590,1,0,0:0:0:0:
156,212,30755,1,0,0:0:0:0:
244,156,30921,5,0,0:0:0:0:
81,60,31086,1,0,0:0:0:0:
215,23,31250,1,0,0:0:0:0:
114,187,31415,1,0,0:0:0:0:
367,149,31580,69,0,0:0:0:0:
407,152,31662,1,0,0:0:0:0:
445,136,31744,1,0,0:0:0:0:
470,103,31827,1,0,0:0:0:0:
472,55,31910,1,0,0:0:0:0:
436,37,31992,1,0,0:0:0:0:
402,57,32074,1,0,0:0:0:0:
401,95,32157,1,0,0:0:0:0:
427,136,32239,21,0,0:0:0:0:
452,169,32321,1,0,0:0:0:0:
463,210,32403,1,0,0:0:0:0:
459,252,32486,1,0,0:0:0:0:
439,289,32568,1,0,0:0:0:0:
407,317,32651,1,0,0:0:0:0:
368,331,32733,1,0,0:0:0:0:
325,329,32815,1,0,0:0:0:0:
230,340,32899,54,0,L|159:316,3,42.5,2|0|0|0,0:2|0:0|0:0|0:0,0:0:0:0:
82,297,33228,6,0,L|30:314,3,50.9999984436036,2|0|0|0,3:2|3:0|3:0|3:0,3:0:0:0:
167,228,33558,22,0,L|226:240,3,55.2499974708558,2|0|0|0,3:2|3:0|3:0|3:0,3:0:0:0:
80,167,33888,54,0,L|21:190,3,59.4999981842042,2|0|0|0,3:2|3:0|3:0|3:0,3:0:0:0:
200,15,34217,54,0,P|225:41|222:92,1,85,0|0,1:0|0:0,0:0:0:0:
248,160,34465,2,0,P|220:128|223:87,1,85,0|0,3:2|0:0,0:0:0:0:
296,62,34712,2,0,P|264:90|223:87,1,85,0|0,1:2|0:0,0:0:0:0:
151,111,34959,2,0,P|177:86|228:89,1,85,0|0,1:2|0:0,0:0:0:0:
223,86,35206,5,4,2:1:0:0:
487,208,35536,53,0,0:0:0:0:
391,155,35866,1,0,0:0:0:0:
374,53,36195,1,0,0:0:0:0:
374,53,36525,54,0,P|406:115|309:124,1,191.250007295609,12|0,0:3|0:0,0:0:0:0:
225,139,36855,6,0,L|215:36,1,85,2|0,0:2|0:0,0:0:0:0:
143,187,37184,1,8,0:2:0:0:
60,90,37349,1,0,3:0:0:0:
93,84,37431,1,0,0:0:0:0:
124,97,37514,1,2,0:2:0:0:
211,244,37679,1,0,0:2:0:0:
69,321,37844,2,0,L|59:219,1,85,14|0,0:2|0:0,0:0:0:0:
42,205,38091,1,0,0:0:0:0:
42,205,38173,1,0,0:0:0:0:
195,348,38338,5,2,0:0:0:0:
195,348,38421,1,2,0:2:0:0:
195,348,38503,2,0,L|240:342,1,42.5,8|0,0:2|0:0,0:0:0:0:
369,360,38668,1,0,3:2:0:0:
312,156,38833,2,0,B|300:198|300:198|317:254,1,85,2|2,0:0|0:2,0:0:0:0:
314,276,39080,1,0,0:0:0:0:
314,276,39162,2,0,L|253:268,1,42.5,10|0,0:2|0:0,0:0:0:0:
390,202,39327,1,0,0:2:0:0:
231,91,39492,6,0,L|133:101,1,85,4|0,0:2|0:0,0:0:0:0:
312,156,39822,1,10,0:2:0:0:
65,200,39987,1,2,0:2:0:0:
93,206,40069,1,0,0:0:0:0:
122,213,40151,2,0,B|134:256|134:256|114:324,1,85,2|2,0:2|0:2,0:0:0:0:
259,363,40481,2,0,B|243:324|243:324|259:258,1,85,8|0,0:1|0:2,0:0:0:0:
390,347,40811,5,2,3:0:0:0:
406,344,40865,1,0,3:0:0:0:
423,341,40920,1,0,3:0:0:0:
440,338,40975,1,0,3:0:0:0:
365,181,41140,6,0,L|296:167,2,42.5,8|0|0,3:3|3:0|3:0,3:0:0:0:
463,170,41470,6,0,B|453:247,1,63.7500024318696,4|0,0:3|3:0,0:0:0:0:
329,272,41800,6,0,B|212:253|212:253|139:298,1,191.250007295609,8|0,0:2|0:0,0:0:0:0:
58,355,42129,6,0,L|41:249,1,85,2|0,0:2|0:0,0:0:0:0:
204,157,42459,1,8,0:2:0:0:
150,292,42624,1,2,0:2:0:0:
150,292,42706,1,0,0:0:0:0:
150,292,42789,1,2,0:2:0:0:
160,74,42954,1,0,0:0:0:0:
128,192,43119,2,0,P|90:175|50:138,1,85,8|0,0:2|0:0,0:0:0:0:
48,111,43366,1,0,0:0:0:0:
48,111,43448,1,0,0:0:0:0:
258,35,43613,6,0,L|253:77,2,42.5,2|0|8,0:0|0:0|0:2,0:0:0:0:
287,196,43943,1,0,0:0:0:0:
410,143,44108,1,2,0:0:0:0:
441,129,44190,1,0,0:0:0:0:
474,128,44272,2,0,L|521:149,1,42.5,2|0,0:2|0:0,0:0:0:0:
344,69,44437,1,8,0:2:0:0:
365,249,44602,1,0,0:0:0:0:
207,138,44767,6,0,L|117:167,1,85,4|0,0:2|0:0,0:0:0:0:
255,337,45097,1,10,0:2:0:0:
11,222,45261,2,0,L|74:279,1,85,2|0,0:2|0:0,0:0:0:0:
272,234,45591,1,2,0:2:0:0:
161,360,45756,2,0,L|178:276,1,85,8|0,0:2|0:0,0:0:0:0:
168,247,46003,1,0,0:0:0:0:
168,247,46086,1,2,0:0:0:0:
75,75,46250,5,0,0:0:0:0:
90,169,46415,1,8,0:2:0:0:
274,89,46580,1,2,0:0:0:0:
169,31,46745,2,0,L|177:123,1,85,2|0,0:2|0:0,0:0:0:0:
228,175,46992,1,0,0:0:0:0:
228,175,47075,1,10,0:2:0:0:
228,175,47404,5,2,0:2:0:0:
356,147,47734,1,0,0:0:0:0:
416,30,48064,1,2,0:2:0:0:
278,284,48393,6,0,L|71:249,1,191.250007295609,14|0,0:2|0:0,0:0:0:0:
90,253,48723,5,2,0:2:0:0:
363,347,48888,1,0,0:0:0:0:
381,340,48970,1,0,0:0:0:0:
399,333,49053,2,0,L|410:267,1,42.5,8|0,0:2|0:0,0:0:0:0:
422,186,49217,1,0,0:0:0:0:
212,229,49382,1,2,0:2:0:0:
343,103,49547,2,0,L|348:42,2,42.5,0|0|8,0:0|0:0|0:2,0:0:0:0:
331,225,49877,1,2,0:0:0:0:
177,131,50042,6,0,B|138:119|138:119|25:151,1,127.5,4|0,0:2|0:0,0:0:0:0:
23,151,50371,1,8,0:2:0:0:
101,326,50536,1,2,0:0:0:0:
124,336,50618,1,0,0:0:0:0:
147,347,50701,2,0,L|139:280,1,42.5,2|0,0:2|0:0,0:0:0:0:
134,212,50866,1,0,0:0:0:0:
275,177,51031,2,0,L|267:267,1,85,8|0,0:2|0:0,0:0:0:0:
251,56,51360,6,0,L|410:88,1,127.5,6|0,0:2|0:0,0:0:0:0:
406,73,51690,1,8,0:2:0:0:
478,183,51855,6,0,L|311:216,1,159.375,6|0,0:2|0:0,0:0:0:0:
291,197,52185,1,0,0:0:0:0:
236,314,52349,6,0,L|423:354,1,191.250007295609,6|0,0:2|0:0,0:0:0:0:
455,344,52679,1,2,0:2:0:0:
166,238,52844,5,0,0:0:0:0:
137,348,53009,1,8,0:2:0:0:
37,209,53173,2,0,L|28:145,2,42.5,2|0|2,0:2|0:0|0:2,0:0:0:0:
50,300,53503,1,0,0:0:0:0:
226,159,53668,2,0,L|115:135,1,85,8|2,0:2|0:2,0:0:0:0:
88,40,53998,5,0,0:0:0:0:
248,254,54162,2,0,L|165:237,1,85,2|8,0:0|0:2,0:0:0:0:
194,57,54491,1,2,0:0:0:0:
325,179,54657,1,0,0:0:0:0:
83,258,54822,1,2,0:2:0:0:
325,179,54987,5,6,0:2:0:0:
338,169,55316,5,2,0:0:0:0:
362,262,55481,1,0,0:0:0:0:
439,121,55646,2,0,P|434:155|425:188,1,63.7500024318696,2|0,0:0|0:0,0:0:0:0:
276,238,55976,5,2,0:0:0:0:
454,280,56140,1,0,0:0:0:0:
364,65,56305,2,0,L|292:86,1,63.7500024318696,2|0,0:0|0:0,0:0:0:0:
182,206,56635,5,2,0:0:0:0:
182,206,56800,1,2,0:0:0:0:
263,355,56965,2,0,P|293:352|325:322,1,63.7500024318696,2|0,0:0|0:0,0:0:0:0:
182,309,57212,1,0,3:0:0:0:
166,306,57294,1,0,3:0:0:0:
150,304,57377,1,0,3:0:0:0:
136,302,57459,2,0,L|144:350,1,31.8750012159348,2|0,0:3|0:0,3:0:0:0:
266,237,57624,6,0,L|275:102,1,127.5,8|0,0:2|0:0,0:0:0:0:
256,77,57954,5,4,0:0:0:0:
256,192,58119,12,2,59272,0:0:0:0:
87,181,59437,5,4,3:3:0:0:
286,124,59602,2,0,L|281:51,1,42.5,8|0,3:2|3:0,3:0:0:0:
279,39,59767,1,0,3:0:0:0:
87,181,59932,2,0,L|129:190,1,42.5,8|0,3:2|3:0,3:0:0:0:
228,215,60097,1,0,3:0:0:0:
228,215,60179,1,0,0:0:0:0:
228,215,60261,6,0,B|243:271|243:271|293:333|369:294,1,191.250007295609,8|0,1:2|0:0,0:0:0:0:
420,245,60591,5,0,3:0:0:0:
421,234,60645,1,0,3:0:0:0:
423,223,60700,1,0,3:0:0:0:
168,38,61250,6,0,P|139:95|164:163,1,127.500004863739,2|0,0:0|0:0,0:0:0:0:
287,342,61745,2,0,B|212:312|212:312|165:335,1,127.500004863739,2|0,0:0|0:0,0:0:0:0:
244,101,62239,2,0,B|275:141|275:141|256:226,1,127.500004863739,2|0,0:0|0:0,0:0:0:0:
42,238,62734,2,0,B|85:223|85:223|125:240|125:240|173:236,1,127.500004863739,2|0,0:0|0:0,0:0:0:0:
376,242,63228,5,0,3:0:0:0:
359,245,63282,1,0,3:0:0:0:
342,248,63337,1,0,3:0:0:0:
264,293,63723,1,2,0:0:0:0:
201,359,64217,1,0,0:0:0:0:
115,358,64547,5,0,0:0:0:0:
115,358,64629,1,0,0:0:0:0:
52,288,64877,1,0,0:0:0:0:
83,192,65042,1,0,0:0:0:0:
83,192,65124,1,0,0:0:0:0:
83,192,65206,1,0,0:0:0:0:
50,102,65371,2,0,L|43:45,1,42.5,0|0,0:0|0:0,0:0:0:0:
256,140,65536,5,12,0:2:0:0:
268,151,65866,6,0,L|390:135,1,85,2|0,0:0|0:0,0:0:0:0:
394,151,66113,1,0,0:0:0:0:
394,151,66195,1,0,0:0:0:0:
295,60,66360,1,0,0:0:0:0:
346,311,66525,2,0,B|362:273|362:273|349:222,1,85,2|0,0:0|0:0,0:0:0:0:
333,234,66772,1,0,0:0:0:0:
315,237,66855,1,0,0:0:0:0:
212,251,67020,1,0,0:0:0:0:
446,325,67184,5,2,0:0:0:0:
446,325,67267,1,0,0:0:0:0:
446,325,67349,1,0,0:0:0:0:
250,164,67514,2,0,P|237:120|237:71,1,85,0|0,0:0|0:0,0:0:0:0:
249,57,67761,1,0,0:0:0:0:
249,57,67844,1,2,0:0:0:0:
388,175,68009,1,0,0:0:0:0:
343,52,68173,2,0,L|332:111,1,42.5,2|0,0:0|0:0,0:0:0:0:
146,191,68338,1,0,0:0:0:0:
151,51,68503,5,0,1:0:0:0:
154,67,68557,1,0,0:0:0:0:
156,84,68612,1,0,0:0:0:0:
158,101,68667,1,0,0:0:0:0:
281,248,68833,5,0,0:0:0:0:
259,245,68915,1,0,0:0:0:0:
238,243,68997,1,0,0:0:0:0:
307,342,69162,2,0,L|419:319,1,85,0|0,0:0|0:0,0:0:0:0:
417,330,69410,1,0,0:0:0:0:
417,330,69492,1,0,0:0:0:0:
372,205,69657,2,0,L|393:117,1,85,0|0,0:0|0:0,0:0:0:0:
382,86,69904,1,0,0:0:0:0:
382,86,69987,1,0,0:0:0:0:
137,110,70151,6,0,L|200:116,1,42.5,0|0,0:0|0:0,0:0:0:0:
260,57,70316,1,0,0:0:0:0:
260,57,70399,1,0,0:0:0:0:
260,57,70481,2,0,L|265:118,1,42.5,0|0,0:0|0:0,0:0:0:0:
274,212,70646,1,0,0:0:0:0:
150,290,70811,1,0,0:0:0:0:
151,268,70893,1,0,0:0:0:0:
153,247,70975,1,0,0:0:0:0:
155,226,71058,1,0,0:0:0:0:
156,205,71140,6,0,L|136:174,3,28.3333333333333,0|0|0|0,0:0|0:0|0:0|0:0,0:0:0:0:
375,285,71470,6,0,L|326:300,1,42.5,0|0,0:0|0:0,0:0:0:0:
252,327,71635,1,0,0:0:0:0:
354,154,71800,2,0,P|388:179|443:194,1,85,0|0,0:0|0:0,0:0:0:0:
459,188,72047,1,0,0:0:0:0:
459,188,72129,1,0,0:0:0:0:
266,97,72294,2,0,L|255:214,1,85,0|0,0:0|0:0,0:0:0:0:
270,208,72542,5,0,0:0:0:0:
270,208,72624,1,0,0:0:0:0:
497,62,72789,2,0,P|456:79|402:91,1,85
348,51,73036,1,0,0:0:0:0:
348,51,73119,1,0,0:0:0:0:
176,151,73283,1,0,0:0:0:0:
245,30,73448,2,0,L|253:71,1,42.5
270,208,73613,1,0,0:0:0:0:
194,336,73778,5,0,0:0:0:0:
195,316,73832,1,0,0:0:0:0:
196,296,73887,1,0,0:0:0:0:
197,276,73942,1,0,0:0:0:0:
404,309,74108,5,0,0:0:0:0:
404,309,74190,1,0,0:0:0:0:
404,309,74272,1,0,0:0:0:0:
292,215,74437,2,0,L|300:308,1,85,0|0,0:0|0:0,0:0:0:0:
216,134,74684,2,0,L|309:126,1,85,0|0,0:0|0:0,0:0:0:0:
376,207,74932,2,0,L|283:215,1,85,0|0,0:0|0:0,0:0:0:0:
216,134,75179,2,0,L|224:41,1,85,0|0,0:0|0:0,0:0:0:0:
384,226,75426,6,0,L|299:233,1,85,0|0,0:0|0:0,0:0:0:0:
231,68,75673,2,0,L|223:152,1,85,0|0,0:0|0:0,0:0:0:0:
307,318,75921,2,0,L|299:233,1,85,0|0,0:0|0:0,0:0:0:0:
224,153,76168,2,0,L|308:145,1,85,0|0,0:0|0:0,0:0:0:0:
425,139,76415,6,0,L|438:95,3,28.3333333333333,0|0|0|0,0:0|0:0|0:0|0:0,0:0:0:0:
212,244,76745,5,0,0:0:0:0:
212,244,76827,1,0,0:0:0:0:
212,244,76910,1,0,0:0:0:0:
130,141,77075,2,0,B|116:99|116:99|129:60,1,85,0|0,0:0|0:0,0:0:0:0:
23,138,77322,1,0,0:0:0:0:
40,160,77404,2,0,B|53:201|53:201|40:240,1,85,0|0,0:0|0:0,0:0:0:0:
122,287,77734,6,0,L|114:328,2,42.5,0|0|0,0:0|0:0|0:0,0:0:0:0:
199,150,78064,2,0,B|307:176,1,85,0|0,0:0|0:0,0:0:0:0:
315,180,78311,1,0,0:0:0:0:
315,180,78393,2,0,L|330:117,1,42.5,0|0,0:0|0:0,0:0:0:0:
388,239,78558,2,0,L|400:337,1,85,0|0,0:0|0:0,0:0:0:0:
468,161,78888,2,0,L|416:154,1,42.5,0|0,0:0|0:0,0:0:0:0:
346,52,79053,5,0,0:0:0:0:
362,49,79108,1,0,0:0:0:0:
379,46,79162,1,0,0:0:0:0:
396,43,79217,1,0,0:0:0:0:
300,266,79382,5,0,0:0:0:0:
300,266,79465,1,0,0:0:0:0:
300,266,79547,1,0,0:0:0:0:
114,176,79712,2,0,P|80:198|25:210,1,85,2|0,0:0|0:0,0:0:0:0:
146,264,79959,2,0,P|180:286|235:298,1,85
45,126,80206,2,0,L|33:41,1,85,2|0,0:0|0:0,0:0:0:0:
202,191,80454,2,0,L|235:112,1,85,2|0,0:0|0:0,0:0:0:0:
52,34,80701,6,0,L|63:118,1,85,2|0,0:0|0:0,0:0:0:0:
206,312,80948,2,0,P|165:301|129:278,1,85
33,226,81195,2,0,P|73:215|109:192,1,85,2|0,0:0|0:0,0:0:0:0:
231,87,81443,2,0,L|197:165,1,85,2|0,0:0|0:0,0:0:0:0:
254,233,81690,6,0,L|285:230,1,31.8750012159348,2|0,0:0|0:0,0:0:0:0:
410,248,81937,2,0,L|378:250,1,31.8750012159348
285,312,82184,2,0,L|328:309,1,31.8750012159348,2|0,0:0|0:0,0:0:0:0:
389,167,82431,2,0,L|357:169,1,31.8750012159348,0|0,0:0|0:0,0:0:0:0:
291,105,82679,6,0,P|283:73|280:42,1,63.7500024318696,2|0,0:0|0:0,0:0:0:0:
105,132,83009,6,0,L|102:181,1,31.8750012159348,2|0,0:0|0:0,0:0:0:0:
153,279,83256,2,0,L|150:330,1,31.8750012159348
207,167,83503,2,0,L|204:218,1,31.8750012159348,2|0,0:0|0:0,0:0:0:0:
62,254,83750,2,0,L|59:305,1,31.8750012159348
250,358,83998,6,0,P|258:326|261:295,1,63.7500024318696,2|0,0:0|0:0,0:0:0:0:
373,88,84327,6,0,L|368:131,1,42.5,2|0,0:0|0:0,0:0:0:0:
452,261,84575,2,0,L|457:218,1,42.5
498,139,84822,2,0,L|455:133,1,42.5,2|0,0:0|0:0,0:0:0:0:
326,209,85069,2,0,L|368:217,1,42.5,2|0,0:0|0:0,0:0:0:0:
285,122,85316,6,0,L|243:114,1,42.5,2|0,0:0|0:0,0:0:0:0:
113,192,85564,2,0,L|155:197,1,42.5
237,242,85811,2,0,L|242:199,1,42.5,2|0,0:0|0:0,0:0:0:0:
159,70,86058,2,0,L|153:112,1,42.5,2|0,0:0|0:0,0:0:0:0:
35,140,86305,5,8,0:0:0:0:
256,192,86635,12,0,87624,0:0:0:0:
161,188,88283,5,0,0:0:0:0:
179,101,88613,1,0,0:0:0:0:
196,17,88943,1,0,0:0:0:0:
457,203,89602,5,0,0:0:0:0:
75,304,90261,5,0,0:0:0:0:
171,323,90591,1,0,0:0:0:0:
267,338,90921,1,0,0:0:0:0:
406,80,91580,5,0,0:0:0:0:
156,168,92239,1,0,0:0:0:0:
76,161,92459,1,0,0:0:0:0:
76,161,92569,1,0,0:0:0:0:
106,304,92899,5,0,0:0:0:0:
356,216,93558,1,0,0:0:0:0:
436,223,93778,1,0,0:0:0:0:
436,223,93888,1,0,0:0:0:0:
192,176,94217,6,0,L|186:291,1,113.333333333333,0|0,0:0|0:0,0:0:0:0:
184,321,94547,1,0,0:0:0:0:
62,253,94767,1,0,0:0:0:0:
74,226,94877,2,0,B|84:186|84:186|58:118,1,113.333333333333,0|0,0:0|0:0,0:0:0:0:
128,28,95206,2,0,L|158:108,1,56.6666666666667,0|0,0:0|0:0,0:0:0:0:
312,79,95426,1,0,0:0:0:0:
291,69,95536,6,0,P|246:94|226:173,1,113.333333333333,0|0,0:0|0:0,0:0:0:0:
252,226,95865,1,0,0:0:0:0:
286,231,95975,1,0,0:0:0:0:
320,236,96085,1,0,0:0:0:0:
482,277,96195,6,0,L|472:152,1,113.333333333333,0|0,0:0|0:0,0:0:0:0:
397,97,96524,1,0,0:0:0:0:
392,131,96634,1,0,0:0:0:0:
387,164,96744,1,0,0:0:0:0:
377,327,96855,6,0,P|325:312|247:316,1,113.333333333333,0|0,0:0|0:0,0:0:0:0:
177,344,97184,1,0,0:0:0:0:
173,310,97294,1,0,0:0:0:0:
170,276,97404,1,0,0:0:0:0:
98,214,97514,6,0,P|82:239|71:280,1,56.6666666666667,0|0,0:0|0:0,0:0:0:0:
183,182,97734,1,0,0:0:0:0:
166,152,97843,1,0,0:0:0:0:
138,134,97953,1,0,0:0:0:0:
104,130,98063,1,0,0:0:0:0:
183,182,98173,6,0,P|212:182|255:164,1,56.6666666666667,0|0,0:0|0:0,0:0:0:0:
315,237,98393,1,0,0:0:0:0:
336,262,98502,1,0,0:0:0:0:
366,279,98612,1,0,0:0:0:0:
399,284,98722,1,0,0:0:0:0:
478,231,98833,6,0,P|482:205|474:173,1,56.6666666666667,0|0,0:0|0:0,0:0:0:0:
437,87,99053,1,0,0:0:0:0:
410,107,99162,1,0,0:0:0:0:
378,120,99272,1,0,0:0:0:0:
344,124,99382,1,0,0:0:0:0:
244,44,99492,6,0,L|233:89,2,28.3333333333333,0|0|0,0:0|0:0|0:0,0:0:0:0:
213,152,99712,1,0,0:0:0:0:
243,235,99822,2,0,L|254:273,2,28.3333333333333,0|0|0,0:0|0:0|0:0,0:0:0:0:
308,328,100042,1,0,0:0:0:0:
229,371,100151,5,0,0:0:0:0:
486,192,102129,5,2,0:0:0:0:
382,140,102459,1,0,0:0:0:0:
361,24,102789,1,2,0:0:0:0:
361,24,103119,6,0,L|305:217,1,191.250007295609,8|0,0:3|0:0,0:0:0:0:
279,296,103447,6,0,B|317:318|317:318|377:315,1,85,2|0,0:2|0:0,0:0:0:0:
228,201,103778,1,8,0:2:0:0:
182,357,103943,1,2,0:2:0:0:
182,357,104025,1,0,0:0:0:0:
182,357,104108,2,0,B|191:318|191:318|168:262,1,85,2|0,0:2|0:0,0:0:0:0:
68,259,104437,1,6,0:2:0:0:
68,259,104766,5,2,0:2:0:0:
53,246,104876,2,0,P|47:221|46:189,1,56.6666666666667,2|0,0:2|0:0,0:0:0:0:
197,188,105096,5,2,0:2:0:0:
182,180,105205,2,0,P|150:190|122:214,1,56.6666666666667,2|0,0:2|0:0,0:0:0:0:
60,77,105425,5,2,0:2:0:0:
44,89,105535,2,0,P|68:108|106:116,1,56.6666666666667,2|0,0:2|0:0,0:0:0:0:
178,42,105756,5,8,0:2:0:0:
295,143,105921,6,0,L|352:138,1,42.5
422,173,106085,2,0,B|435:134|435:134|419:77,1,85,2|0,0:2|0:0,0:0:0:0:
354,227,106415,1,8,0:2:0:0:
253,325,106579,2,0,B|292:312|292:312|349:328,1,85,2|0,0:2|0:0,0:0:0:0:
431,288,106910,1,2,0:2:0:0:
259,130,107075,2,0,B|246:169|246:169|262:226,1,85,8|0,0:2|0:0,0:0:0:0:
156,288,107403,5,0,1:0:0:0:
136,285,107457,1,0,3:0:0:0:
116,283,107512,1,0,3:0:0:0:
96,281,107567,1,0,3:0:0:0:
95,100,107734,6,0,L|183:109,1,63.7500024318696,2|0,3:0|0:0,0:0:0:0:
70,190,108063,6,0,L|30:186,2,31.8750012159348,4|0|0,0:3|0:0|0:0,0:0:0:0:
204,27,108393,6,0,L|425:48,1,191.250007295609,8|0,0:2|0:0,0:0:0:0:
456,123,108723,6,0,L|466:185,1,42.5,2|0,0:2|0:0,0:0:0:0:
471,253,108887,1,0,0:0:0:0:
445,238,108969,1,0,0:0:0:0:
416,231,109051,1,8,0:2:0:0:
386,232,109134,1,0,0:0:0:0:
358,242,109216,2,0,L|318:278,1,42.5,0|0,0:0|0:0,0:0:0:0:
246,334,109381,1,2,0:2:0:0:
169,213,109546,1,0,0:0:0:0:
59,291,109711,2,0,B|98:306|98:306|144:296,1,85,8|0,0:2|0:0,0:0:0:0:
251,224,110041,5,0,0:0:0:0:
233,92,110205,2,0,L|224:34,2,42.5,2|0|8,0:2|0:0|0:2,0:0:0:0:
336,147,110535,2,0,B|347:106|347:106|326:52,1,85,0|0,0:0|0:0,0:0:0:0:
169,207,110865,1,2,0:2:0:0:
169,207,110947,1,0,0:0:0:0:
169,207,111030,2,0,L|77:197,1,85,8|0,0:2|0:0,0:0:0:0:
266,188,111359,5,2,0:2:0:0:
315,304,111524,1,2,0:2:0:0:
435,329,111689,1,8,0:2:0:0:
266,188,111854,5,2,0:2:0:0:
266,188,111936,1,0,0:0:0:0:
266,188,112019,2,0,L|255:257,1,42.5
214,305,112183,2,0,L|203:374,1,42.5,2|0,0:2|0:0,0:0:0:0:
122,251,112348,5,8,0:2:0:0:
357,208,112513,2,0,L|420:222,1,42.5
438,227,112678,1,4,0:2:0:0:
314,93,112843,5,0,0:0:0:0:
314,93,113008,1,8,0:2:0:0:
373,304,113172,1,4,0:2:0:0:
234,189,113337,5,0,0:0:0:0:
234,189,113502,1,0,0:0:0:0:
485,152,113667,1,12,0:2:0:0:
485,152,113997,5,2,2:2:0:0:
388,109,114326,1,0,2:0:0:0:
350,9,114656,1,2,2:0:0:0:
262,346,114986,6,0,L|285:156,1,191.250007295609,6|0,0:2|0:0,0:0:0:0:
284,156,115315,5,0,0:0:0:0:
183,237,115480,1,0,0:0:0:0:
183,237,115563,1,0,0:0:0:0:
183,237,115645,1,0,0:0:0:0:
360,324,115810,1,0,0:0:0:0:
434,238,115975,2,0,B|395:221|395:221|345:233,1,85,0|0,0:0|0:0,0:0:0:0:
319,242,116222,1,0,0:0:0:0:
319,242,116304,1,0,0:0:0:0:
197,145,116469,1,0,0:0:0:0:
92,332,116634,6,0,L|185:345,1,85,2|0,0:2|0:0,0:0:0:0:
90,171,116964,1,8,0:2:0:0:
236,227,117129,2,0,L|152:243,1,85,2|0,0:2|0:0,0:0:0:0:
261,94,117459,1,2,0:2:0:0:
162,47,117623,2,0,L|172:134,1,85,8|0,0:2|0:0,0:0:0:0:
439,153,117953,6,0,P|399:168|357:173,1,85,4|0,0:2|0:0,0:0:0:0:
317,167,118200,1,0,0:0:0:0:
317,167,118282,1,8,0:2:0:0:
176,246,118447,6,0,P|225:251|282:269,1,106.25,4|0,0:2|0:0,0:0:0:0:
311,292,118694,1,0,0:0:0:0:
311,292,118776,1,0,0:0:0:0:
461,295,118942,6,0,P|412:279|442:321,1,127.500004863739,12|0,0:2|0:0,0:0:0:0:
258,363,119271,1,6,0:2:0:0:
146,65,119601,5,8,0:2:0:0:
76,210,119766,2,0,L|88:269,2,42.5,0|0|2,0:0|0:0|0:2,0:0:0:0:
54,128,120096,1,0,0:0:0:0:
237,105,120260,2,0,B|249:65|249:65|235:20,1,85,8|0,0:2|0:0,0:0:0:0:
151,168,120590,1,2,0:2:0:0:
334,105,120755,2,0,L|343:174,1,42.5,0|0,0:0|0:0,0:0:0:0:
355,270,120920,1,8,0:2:0:0:
503,216,121085,2,0,P|463:195|417:195,1,85,2|0,0:2|0:0,0:0:0:0:
263,288,121414,1,2,0:2:0:0:
263,288,121579,2,0,L|271:181,1,85,8|0,0:2|0:0,0:0:0:0:
124,100,121909,6,0,P|166:113|219:117,1,85,2|0,0:2|0:0,0:0:0:0:
302,91,122238,1,8,0:2:0:0:
159,211,122403,1,2,0:2:0:0:
163,231,122485,1,0,0:0:0:0:
167,252,122567,1,0,0:0:0:0:
229,31,122733,1,2,0:2:0:0:
76,173,122898,6,0,P|51:210|37:269,1,85,8|0,0:2|0:0,0:0:0:0:
206,117,123227,1,2,0:2:0:0:
258,246,123392,2,0,P|267:287|265:329,1,85,2|8,0:2|0:2,0:0:0:0:
159,211,123722,1,2,0:2:0:0:
380,255,123887,2,0,L|448:267,2,42.5,0|0|2,0:0|0:0|0:2,0:0:0:0:
311,153,124216,2,0,B|299:114|299:114|316:56,1,85,8|0,0:2|0:0,0:0:0:0:
140,66,124546,6,0,L|56:50,1,85,0|0,0:0|0:0,0:0:0:0:
178,147,124793,2,0,L|218:133,1,42.5,0|0,0:0|0:0,0:0:0:0:
91,145,125041,2,0,L|24:203,1,85,0|0,0:0|0:0,0:0:0:0:
146,227,125288,2,0,L|249:284,1,85,0|0,0:0|0:0,0:0:0:0:
52,286,125535,2,0,L|19:342,1,42.5,0|0,0:0|0:0,0:0:0:0:
132,354,125700,2,0,L|125:290,1,42.5,0|0,0:0|0:0,0:0:0:0:
271,360,125865,6,0,P|298:336|317:280,1,85,0|0,0:0|0:0,0:0:0:0:
219,146,126112,2,0,P|221:172|236:209,1,42.5,0|0,0:0|0:0,0:0:0:0:
403,346,126359,2,0,P|406:305|394:264,1,85,0|0,0:0|0:0,0:0:0:0:
360,143,126607,2,0,P|324:172|306:228,1,85,0|0,0:0|0:0,0:0:0:0:
487,280,126854,2,0,P|498:226|475:159,1,127.5
359,51,127183,6,0,L|274:101,1,85,0|0,0:0|0:0,0:0:0:0:
121,53,127431,2,0,L|39:28,1,85,0|0,0:0|0:0,0:0:0:0:
281,208,127678,2,0,L|354:164,1,85,0|0,0:0|0:0,0:0:0:0:
146,168,127926,2,0,L|64:143,1,85,0|0,0:0|0:0,0:0:0:0:
211,110,128172,6,0,L|209:25,1,85,0|0,0:0|0:0,0:0:0:0:
160,266,128420,2,0,L|162:350,1,85,0|0,0:0|0:0,0:0:0:0:
283,292,128667,2,0,L|280:207,1,85,0|0,0:0|0:0,0:0:0:0:
64,143,128914,2,0,L|67:227,1,85,0|0,0:0|0:0,0:0:0:0:
351,99,129161,5,0,0:0:0:0:
