osu file format v14

[General]
AudioFilename: audio.mp3
AudioLeadIn: 0
PreviewTime: -1
Countdown: 0
SampleSet: Normal
StackLeniency: 0.2
Mode: 0
LetterboxInBreaks: 0
CountdownOffset: 3
WidescreenStoryboard: 1

[Editor]
DistanceSpacing: 1
BeatDivisor: 8
GridSize: 16
TimelineZoom: 3.779037

[Metadata]
Title:Pulse Resonance
TitleUnicode:Pulse Resonance
Artist:Takkyu Ishino
ArtistUnicode:たっきゅ いしの
Creator:SUPERGLB05
Version:Test A
Source:Maplestory
Tags:
BeatmapID:1526851
BeatmapSetID:723323

[Difficulty]
HPDrainRate:6
CircleSize:4
OverallDifficulty:8
ApproachRate:9.6
SliderMultiplier:2.49999994039536
SliderTickRate:2

[Events]
//Background and Video events
0,0,"under to pulse.jpg",0,0
//Break Periods
//Storyboard Layer 0 (Background)
//Storyboard Layer 1 (Fail)
//Storyboard Layer 2 (Pass)
//Storyboard Layer 3 (Foreground)
//Storyboard Sound Samples

[TimingPoints]
27975,857.142857142857,4,1,1,100,1,0
27975,-399.999999999997,4,1,1,100,0,1
28082,-200,4,1,1,100,0,1
28189,-133.333333333333,4,1,1,100,0,1
28296,-100,4,1,1,100,0,1
28403,-79.9999999999999,4,1,1,100,0,1
28510,-66.6666666666667,4,1,1,100,0,1
28617,-57.1428571428571,4,1,1,100,0,1
28725,-50,4,1,1,100,0,1
28832,-44.4444444444444,4,1,1,100,0,1
28939,-40,4,1,1,100,0,1
29046,-36.3636363636363,4,1,1,100,0,1
29153,-33.3333333333333,4,1,1,100,0,1
29260,-30.7692307692307,4,1,1,100,0,1
29367,-28.5714285714286,4,1,1,100,0,1
29475,-26.6666666666667,4,1,1,100,0,1
29582,-25,4,1,1,100,0,1
29689,428.571428571429,4,1,1,100,1,0
29689,-399.999999999997,4,1,1,100,0,1
29796,-200,4,1,1,100,0,1
29903,-133.333333333333,4,1,1,100,0,1
30010,-100,4,1,1,100,0,1
30117,-79.9999999999999,4,1,1,100,0,1
30224,-66.6666666666667,4,1,1,100,0,1
30331,-57.1428571428571,4,1,1,100,0,1
30439,-50,4,1,1,100,0,1
30546,-44.4444444444444,4,1,1,100,0,1
30653,-40,4,1,1,100,0,1
30760,-36.3636363636363,4,1,1,100,0,1
30867,-33.3333333333333,4,1,1,100,0,1
30974,-30.7692307692307,4,1,1,100,0,1
31081,-28.5714285714286,4,1,1,100,0,1
31189,-26.6666666666667,4,1,1,100,0,1
31296,-25,4,1,1,100,0,1
31403,-25,4,1,1,100,0,1
31510,-26.6666666666667,4,1,1,100,0,1
31617,-28.5714285714286,4,1,1,100,0,1
31724,-30.7692307692307,4,1,1,100,0,1
31831,-33.3333333333333,4,1,1,100,0,1
31939,-36.3636363636363,4,1,1,100,0,1
32046,-40,4,1,1,100,0,1
32153,-44.4444444444444,4,1,1,100,0,1
32260,-50,4,1,1,100,0,1
32367,-57.1428571428571,4,1,1,100,0,1
32474,-66.6666666666667,4,1,1,100,0,1
32581,-79.9999999999999,4,1,1,100,0,1
32689,-100,4,1,1,100,0,1
32796,-133.333333333333,4,1,1,100,0,1
32903,-200,4,1,1,100,0,1
33010,-399.999999999997,4,1,1,100,0,1
33117,857.142857142857,4,1,1,100,1,0
33117,-25,4,1,1,100,0,1
33226,-26.6666666666667,4,1,1,100,0,1
33331,-28.5714285714286,4,1,1,100,0,1
33440,-30.7692307692307,4,1,1,100,0,1
33545,-33.3333333333333,4,1,1,100,0,1
33654,-36.3636363636363,4,1,1,100,0,1
33759,-40,4,1,1,100,0,1
33868,-44.4444444444444,4,1,1,100,0,1
33974,-50,4,1,1,100,0,1
34083,-57.1428571428571,4,1,1,100,0,1
34188,-66.6666666666667,4,1,1,100,0,1
34297,-79.9999999999999,4,1,1,100,0,1
34402,-100,4,1,1,100,0,1
34511,-133.333333333333,4,1,1,100,0,1
34617,-200,4,1,1,100,0,1
34726,-399.999999999997,4,1,1,100,0,1
34831,214.285714285714,4,1,1,100,1,0
34831,-399.999999999997,4,1,1,100,0,1
34938,-200,4,1,1,100,0,1
35045,-133.333333333333,4,1,1,100,0,1
35152,-100,4,1,1,100,0,1
35259,-79.9999999999999,4,1,1,100,0,1
35366,-66.6666666666667,4,1,1,100,0,1
35473,-57.1428571428571,4,1,1,100,0,1
35581,-50,4,1,1,100,0,1
35688,-44.4444444444444,4,1,1,100,0,1
35795,-40,4,1,1,100,0,1
35902,-36.3636363636363,4,1,1,100,0,1
36009,-33.3333333333333,4,1,1,100,0,1
36116,-30.7692307692307,4,1,1,100,0,1
36223,-28.5714285714286,4,1,1,100,0,1
36331,-26.6666666666667,4,1,1,100,0,1
36438,-25,4,1,1,100,0,1
36545,107.142857142857,4,1,1,100,1,0
36545,-399.999999999997,4,1,1,100,0,1
36652,-200,4,1,1,100,0,1
36759,-133.333333333333,4,1,1,100,0,1
36866,-100,4,1,1,100,0,1
36973,-79.9999999999999,4,1,1,100,0,1
37080,-66.6666666666667,4,1,1,100,0,1
37187,-57.1428571428571,4,1,1,100,0,1
37295,-50,4,1,1,100,0,1
37402,-44.4444444444444,4,1,1,100,0,1
37509,-40,4,1,1,100,0,1
37616,-36.3636363636363,4,1,1,100,0,1
37723,-33.3333333333333,4,1,1,100,0,1
37830,-30.7692307692307,4,1,1,100,0,1
37937,-28.5714285714286,4,1,1,100,0,1
38045,-26.6666666666667,4,1,1,100,0,1
38152,-25,4,1,1,100,0,1
38259,-25,4,1,1,100,0,1
38366,-26.6666666666667,4,1,1,100,0,1
38473,-28.5714285714286,4,1,1,100,0,1
38580,-30.7692307692307,4,1,1,100,0,1
38687,-33.3333333333333,4,1,1,100,0,1
38795,-36.3636363636364,4,1,1,100,0,1
38902,-40,4,1,1,100,0,1
39009,-44.4444444444444,4,1,1,100,0,1
39116,-50,4,1,1,100,0,1
39223,-57.1428571428571,4,1,1,100,0,1
39330,-66.6666666666667,4,1,1,100,0,1
39437,-79.9999999999999,4,1,1,100,0,1
39544,-100,4,1,1,100,0,1
39652,-133.333333333333,4,1,1,100,0,1
39759,-200,4,1,1,100,0,1
39866,-399.999999999997,4,1,1,100,0,1
39973,214.285714285714,4,1,1,100,1,0
39973,-25,4,1,1,100,0,1
40081,-26.6666666666667,4,1,1,100,0,1
40187,-28.5714285714286,4,1,1,100,0,1
40294,-30.7692307692307,4,1,1,100,0,1
40401,-33.3333333333333,4,1,1,100,0,1
40508,-36.3636363636363,4,1,1,100,0,1
40615,-40,4,1,1,100,0,1
40723,-44.4444444444444,4,1,1,100,0,1
40830,3428.57142857143,4,1,1,100,1,0
40830,-1000,4,1,1,100,0,1
41687,428.571428571429,4,1,1,100,1,0
41687,-100,4,1,1,100,0,0

[Colours]
Combo1 : 64,0,0
Combo2 : 85,85,255
Combo3 : 186,117,255
Combo4 : 255,111,255
Combo5 : 0,0,0
Combo6 : 255,128,128
Combo7 : 255,0,0
Combo8 : 128,0,0

[HitObjects]
48,32,27974,5,4,0:0:0:0:
48,32,28082,1,0,0:0:0:0:
48,32,28189,1,0,0:0:0:0:
48,32,28296,1,0,0:0:0:0:
56,48,28403,5,8,0:0:0:0:
80,72,28510,1,0,0:0:0:0:
112,88,28617,1,0,0:0:0:0:
152,88,28724,1,0,0:0:0:0:
200,72,28832,5,0,0:0:0:0:
272,48,28939,1,0,0:0:0:0:
352,88,29046,1,0,0:0:0:0:
408,160,29153,1,0,0:0:0:0:
432,256,29260,85,8,0:0:0:0:
376,344,29367,1,0,0:0:0:0:
240,336,29474,1,0,0:0:0:0:
160,224,29583,1,0,0:0:0:0:
236,153,29690,5,4,0:0:0:0:
236,232,29797,1,0,0:0:0:0:
303,192,29904,1,0,0:0:0:0:
176,192,30011,5,4,0:0:0:0:
304,256,30118,1,8,0:0:0:0:
300,116,30224,1,0,0:0:0:0:
196,296,30331,85,4,0:0:0:0:
372,192,30439,1,0,0:0:0:0:
192,96,30546,1,0,0:0:0:0:
360,304,30653,5,4,0:0:0:0:
344,60,30760,1,0,0:0:0:0:
104,188,30867,1,0,0:0:0:0:
512,384,30974,5,12,0:0:0:0:
256,0,31082,85,4,0:0:0:0:
0,384,31190,5,4,0:0:0:0:
260,192,31297,5,4,0:0:0:0:
96,240,31404,85,4,0:0:0:0:
192,320,31511,1,0,0:0:0:0:
112,224,31618,1,0,0:0:0:0:
208,304,31725,1,0,0:0:0:0:
128,208,31832,5,8,0:0:0:0:
224,288,31940,1,0,0:0:0:0:
144,192,32047,1,0,0:0:0:0:
240,272,32154,1,0,0:0:0:0:
160,176,32261,5,0,0:0:0:0:
256,256,32368,1,0,0:0:0:0:
176,160,32474,1,0,0:0:0:0:
272,240,32581,1,0,0:0:0:0:
192,144,32689,85,8,0:0:0:0:
288,224,32796,1,0,0:0:0:0:
208,128,32903,1,0,0:0:0:0:
304,208,33010,1,0,0:0:0:0:
368,144,33117,5,4,0:0:0:0:
272,64,33225,1,0,0:0:0:0:
352,160,33332,1,0,0:0:0:0:
256,80,33439,1,0,0:0:0:0:
336,176,33545,5,8,0:0:0:0:
240,96,33652,1,0,0:0:0:0:
320,192,33759,1,0,0:0:0:0:
224,112,33867,1,0,0:0:0:0:
304,208,33974,85,0,0:0:0:0:
208,128,34081,1,0,0:0:0:0:
288,224,34188,1,0,0:0:0:0:
192,144,34295,1,0,0:0:0:0:
272,240,34402,5,8,0:0:0:0:
176,160,34509,1,0,0:0:0:0:
256,256,34618,1,0,0:0:0:0:
160,176,34725,1,0,0:0:0:0:
464,32,34832,5,4,0:0:0:0:
464,32,34939,1,0,0:0:0:0:
464,32,35046,1,0,0:0:0:0:
464,32,35153,1,0,0:0:0:0:
456,48,35260,85,8,0:0:0:0:
432,72,35367,1,0,0:0:0:0:
400,88,35474,1,0,0:0:0:0:
360,88,35582,1,0,0:0:0:0:
312,72,35688,5,0,0:0:0:0:
240,48,35795,1,0,0:0:0:0:
160,88,35902,1,0,0:0:0:0:
104,160,36009,1,0,0:0:0:0:
80,256,36116,5,8,0:0:0:0:
136,344,36224,1,0,0:0:0:0:
272,336,36332,1,0,0:0:0:0:
352,224,36439,1,0,0:0:0:0:
276,153,36545,85,4,0:0:0:0:
276,232,36652,1,0,0:0:0:0:
209,192,36759,1,0,0:0:0:0:
336,192,36866,5,4,0:0:0:0:
208,256,36973,1,8,0:0:0:0:
212,116,37080,1,0,0:0:0:0:
316,296,37187,5,4,0:0:0:0:
140,192,37295,1,0,0:0:0:0:
320,96,37403,1,0,0:0:0:0:
152,304,37510,85,4,0:0:0:0:
168,60,37617,1,0,0:0:0:0:
408,188,37724,1,0,0:0:0:0:
0,384,37830,5,12,0:0:0:0:
256,0,37937,5,4,0:0:0:0:
512,384,38045,85,4,0:0:0:0:
252,192,38152,5,4,0:0:0:0:
352,192,38259,5,4,0:0:0:0:
256,272,38366,1,0,0:0:0:0:
336,176,38473,1,0,0:0:0:0:
240,256,38580,1,0,0:0:0:0:
320,160,38687,85,8,0:0:0:0:
224,240,38795,1,0,0:0:0:0:
304,144,38902,1,0,0:0:0:0:
208,224,39009,1,0,0:0:0:0:
288,128,39116,5,0,0:0:0:0:
192,208,39223,1,0,0:0:0:0:
272,112,39330,1,0,0:0:0:0:
176,192,39437,1,0,0:0:0:0:
256,96,39544,5,8,0:0:0:0:
160,176,39652,1,0,0:0:0:0:
240,80,39759,1,0,0:0:0:0:
144,160,39866,1,0,0:0:0:0:
240,80,39973,85,4,0:0:0:0:
144,160,40080,1,0,0:0:0:0:
288,128,40187,1,0,0:0:0:0:
192,208,40294,1,0,0:0:0:0:
336,176,40401,5,8,0:0:0:0:
240,256,40508,1,0,0:0:0:0:
384,224,40615,1,0,0:0:0:0:
288,304,40723,1,0,0:0:0:0:
256,192,40830,12,4,41687,0:0:0:0:
