osu file format v14

[General]
AudioFilename: Sayonara no Yukue.mp3
AudioLeadIn: 1500
PreviewTime: 60372
Countdown: 0
SampleSet: Soft
StackLeniency: 0.7
Mode: 0
LetterboxInBreaks: 0
WidescreenStoryboard: 0

[Editor]
Bookmarks: 4390,15154,23802,71272,74890,76919,77713,87860,88919
DistanceSpacing: 1.5
BeatDivisor: 4
GridSize: 4
TimelineZoom: 1.7

[Metadata]
Title:Sayonara no Yukue (TV Size)
TitleUnicode:さよならのゆくえ (TV Size)
Artist:Takigawa Alisa
ArtistUnicode:瀧川ありさ
Creator:eINess
Version:Sekai's Insane
Source:終物語
Tags:Owarimonogatari Ending sekai-nyan Nozhomi Kawaiwkyik Rizia sekaii
BeatmapID:796887
BeatmapSetID:362129

[Difficulty]
HPDrainRate:6.5
CircleSize:4.2
OverallDifficulty:7
ApproachRate:8.5
SliderMultiplier:1.6
SliderTickRate:1

[Events]
//Background and Video events
Video,25,"sayonara.avi"
0,0,"owari monogatari.jpg",0,0
//Break Periods
//Storyboard Layer 0 (Background)
//Storyboard Layer 1 (Fail)
//Storyboard Layer 2 (Pass)
//Storyboard Layer 3 (Foreground)
//Storyboard Sound Samples

[TimingPoints]
12,352.941176470588,4,2,2,25,1,0
2835,-142.857142857143,4,2,2,50,0,0
12717,-142.857142857143,4,2,2,45,0,0
14482,-200,4,2,2,35,0,0
15188,-100,4,2,1,80,0,0
26835,-142.857142857143,4,2,2,50,0,0
38129,-111.111111111111,4,2,1,70,0,0
43776,-111.111111111111,4,2,2,70,0,0
43864,-111.111111111111,4,2,1,70,0,0
44306,-111.111111111111,4,2,2,70,0,0
44394,-111.111111111111,4,2,1,70,0,0
45188,-111.111111111111,4,2,2,70,0,0
45276,-111.111111111111,4,2,1,70,0,0
45894,-111.111111111111,4,2,2,70,0,0
45982,-111.111111111111,4,2,1,70,0,0
46600,-111.111111111111,4,2,2,70,0,0
46688,-111.111111111111,4,2,1,70,0,0
50482,-111.111111111111,4,2,2,70,0,0
50570,-111.111111111111,4,2,1,70,0,0
51188,-111.111111111111,4,2,2,70,0,0
51276,-111.111111111111,4,2,1,70,0,0
56482,-100,4,2,1,80,0,0
60364,-142.857142857143,4,2,1,40,0,0
60717,-90.9090909090909,4,2,1,90,0,1
71923,-90.9090909090909,4,2,1,90,0,0
72011,-90.9090909090909,4,2,1,90,0,1
81894,-111.111111111111,4,2,1,90,0,0
83306,-111.111111111111,4,2,2,65,0,0
87364,-111.111111111111,4,2,1,90,0,0

[Colours]
Combo1 : 255,255,128
Combo2 : 128,128,192
Combo3 : 255,128,128
Combo4 : 0,128,192

[HitObjects]
256,192,12,12,0,2482,0:0:0:0:
364,196,2835,5,2,0:0:0:0:
364,196,4247,6,0,L|348:132,1,55.9999982910157,2|0,0:0|0:0,0:0:0:0:
256,60,4600,2,0,L|256:124,1,55.9999982910157,0|2,0:0|0:0,0:0:0:0:
148,196,4953,2,0,L|164:132,2,55.9999982910157,2|2|0,0:0|0:0|0:0,0:0:0:0:
256,332,5659,5,2,0:0:0:0:
256,332,6364,1,2,0:0:0:0:
256,332,7070,2,0,B|220:324|180:336|180:336|164:316|140:304,2,111.999996582031,2|2|2,0:0|0:0|0:0,0:0:0:0:
372,344,8129,1,0,0:0:0:0:
436,192,8482,6,0,B|456:232|456:232|456:308,1,111.999996582031,2|0,0:0|0:0,0:0:0:0:
336,192,9011,2,0,B|336:124|336:124|356:84,1,111.999996582031,2|0,0:0|0:0,0:0:0:0:
256,24,9541,2,0,L|256:80,1,55.9999982910157
156,84,9894,2,0,B|176:124|176:124|176:192,1,111.999996582031,2|0,0:0|0:0,0:0:0:0:
256,304,10423,2,0,P|208:324|128:304,1,111.999996582031,2|0,0:0|0:0,0:0:0:0:
256,216,10953,1,0,0:0:0:0:
256,216,11306,5,2,0:0:0:0:
256,216,12717,2,0,B|288:216|288:216|324:232,1,55.9999982910157,0|2,0:0|0:0,0:0:0:0:
256,72,13070,2,0,B|224:72|224:72|188:56,1,55.9999982910157
360,148,13423,2,0,L|380:84,1,55.9999982910157,0|2,0:0|0:0,0:0:0:0:
135,94,13776,2,0,L|152:148,1,55.9999982910157,2|0,0:0|0:0,0:0:0:0:
256,24,14129,1,2,0:0:0:0:
64,192,14482,6,0,B|64:232|64:232|76:260|76:260|76:312,1,120
188,304,15188,5,2,0:0:0:0:
204,292,15276,1,0,0:0:0:0:
220,280,15364,1,0,0:0:0:0:
236,268,15453,1,0,0:0:0:0:
252,256,15541,2,0,P|320:236|404:268,1,160,4|0,0:0|0:0,0:0:0:0:
256,116,16070,2,0,P|188:136|104:104,1,160,4|0,0:0|0:0,0:0:0:0:
256,32,16600,2,0,B|300:32|300:32|336:44,1,80,4|0,0:0|0:0,0:0:0:0:
432,96,16953,5,2,0:0:0:0:
360,192,17129,2,0,B|360:272|360:272|404:348,1,160,4|0,0:0|0:0,0:0:0:0:
256,264,17659,2,0,L|256:180,1,80,6|0,0:0|0:0,0:0:0:0:
256,80,18011,1,8,0:0:0:0:
164,192,18188,1,0,0:0:0:0:
256,80,18364,6,0,P|184:56|96:84,1,160,4|0,0:0|0:0,0:0:0:0:
12,228,18894,2,0,P|84:252|172:224,1,160,4|0,0:0|0:0,0:0:0:0:
388,192,19423,2,0,B|372:224|344:232|344:232|372:280|344:352,1,160,4|2,0:0|0:0,0:0:0:0:
256,160,19953,2,0,B|272:136|304:128|304:128|320:92|320:92|356:88|384:48,1,160,4|0,0:0|0:0,0:0:0:0:
256,24,20482,1,0,0:0:0:0:
152,72,20659,1,10,0:0:0:0:
152,72,20747,1,0,0:0:0:0:
152,72,20835,2,0,B|104:72|104:72|68:48,1,80,10|0,0:0|0:0,0:0:0:0:
16,192,21188,6,0,B|60:192|60:192|104:176|104:176|176:176,1,160,4|2,0:0|0:0,0:0:0:0:
356,280,21717,2,0,B|286:280|286:280|242:296|242:296|198:296,1,160,4|2,0:0|0:0,0:0:0:0:
348,192,22247,2,0,P|404:204|444:296,1,160,4|2,0:0|0:0,0:0:0:0:
340,80,22776,2,0,B|289:98|232:72|232:72|208:88|176:88,1,160,4|0,0:0|0:0,0:0:0:0:
68,192,23306,2,0,P|120:192|160:212,1,80,2|0,0:0|0:0,0:0:0:0:
256,328,23659,2,0,P|204:328|164:308,1,80,10|0,0:0|0:0,0:0:0:0:
256,236,24011,6,0,L|432:224,1,160,4|0,0:0|0:0,0:0:0:0:
312,311,24541,2,0,L|392:304,1,80,4|0,0:0|0:0,0:0:0:0:
320,144,24893,1,2,0:0:0:0:
320,144,25070,2,0,L|399:136,1,80,4|0,0:0|0:0,0:0:0:0:
192,144,25423,2,0,L|112:136,1,80,2|2,0:0|0:0,0:0:0:0:
152,240,25776,1,2,0:0:0:0:
172,60,25953,1,2,0:0:0:0:
152,240,26129,2,0,B|152:280|152:280|128:328,1,80,6|0,0:0|0:0,0:0:0:0:
360,240,26482,2,0,B|360:280|360:280|384:328,1,80,2|2,0:0|0:0,0:0:0:0:
256,300,26835,6,0,L|256:180,1,111.999996582031,2|0,0:0|0:0,0:0:0:0:
182,146,27364,2,0,B|202:106|202:106|202:39,1,111.999996582031,2|0,0:0|0:0,0:0:0:0:
278,76,27894,2,0,P|318:76|350:68,1,55.9999982910157,2|0,0:0|0:0,0:0:0:0:
440,136,28247,2,0,P|396:140|344:180,1,111.999996582031,2|0,0:0|0:0,0:0:0:0:
367,261,28776,2,0,P|345:312|300:344,1,111.999996582031,2|0,0:0|0:0,0:0:0:0:
225,305,29306,2,0,B|189:305|189:305|157:293,1,55.9999982910157,2|0,0:0|0:0,0:0:0:0:
152,204,29659,6,0,B|112:204|112:204|76:192|76:192|32:192,1,111.999996582031,2|0,0:0|0:0,0:0:0:0:
132,126,30188,1,2,0:0:0:0:
132,126,30364,2,0,P|158:115|184:96,1,55.9999982910157,2|0,0:0|0:0,0:0:0:0:
253,56,30717,2,0,P|279:66|305:85,1,55.9999982910157,2|0,0:0|0:0,0:0:0:0:
307,166,31070,6,0,P|359:166|415:202,1,111.999996582031,2|0,0:0|0:0,0:0:0:0:
409,280,31600,2,0,P|361:308|306:309,1,111.999996582031,2|0,0:0|0:0,0:0:0:0:
255,242,32129,2,0,L|186:242,1,55.9999982910157,2|0,0:0|0:0,0:0:0:0:
116,164,32482,6,0,P|68:184|4:164,1,111.999996582031,2|0,0:0|0:0,0:0:0:0:
88,88,33011,2,0,B|112:80|132:80|132:80|136:40|172:16,1,111.999996582031,2|0,0:0|0:0,0:0:0:0:
228,76,33541,2,0,L|292:84,1,55.9999982910157,2|0,0:0|0:0,0:0:0:0:
256,164,33894,2,0,L|136:184,1,111.999996582031,2|0,0:0|0:0,0:0:0:0:
255,245,34423,2,0,L|365:263,1,111.999996582031,2|0,0:0|0:0,0:0:0:0:
412,333,34953,1,2,0:0:0:0:
334,364,35129,1,0,0:0:0:0:
256,333,35306,6,0,P|204:317|144:333,1,111.999996582031,2|0,0:0|0:0,0:0:0:0:
92,267,35835,2,0,P|72:223|84:151,1,111.999996582031,2|0,0:0|0:0,0:0:0:0:
154,123,36364,2,0,B|154:87|154:87|142:59,1,55.9999982910157,2|0,0:0|0:0,0:0:0:0:
256,36,36717,1,0,0:0:0:0:
256,36,36894,2,0,L|256:152,1,111.999996582031
256,256,37423,1,0,0:0:0:0:
360,192,37600,1,2,0:0:0:0:
256,256,37776,2,0,P|224:256|184:268,1,55.9999982910157,2|0,0:0|0:0,0:0:0:0:
368,308,38129,6,0,P|432:296|468:228,1,143.999995605469,6|2,0:0|0:0,0:0:0:0:
360,192,38659,1,2,0:0:0:0:
360,192,38835,2,0,L|380:116,1,71.9999978027344,2|0,0:0|0:0,0:0:0:0:
152,192,39188,2,0,L|132:116,1,71.9999978027344,2|0,0:0|0:0,0:0:0:0:
128,100,39453,1,0,0:0:0:0:
128,100,39541,2,0,P|68:108|28:176,1,143.999995605469,2|2,0:0|0:0,0:0:0:0:
92,296,40070,1,0,0:0:0:0:
92,296,40247,2,0,B|132:296|132:296|172:316,1,71.9999978027344,2|0,0:0|0:0,0:0:0:0:
256,240,40600,1,2,0:0:0:0:
351,310,40776,5,0,0:0:0:0:
351,310,40864,1,0,0:0:0:0:
351,310,40953,2,0,B|392:296|392:296|496:320,1,143.999995605469,2|2,0:0|0:0,0:0:0:0:
456,196,41482,1,0,0:0:0:0:
332,192,41659,2,0,L|352:108,1,71.9999978027344,2|0,0:0|0:0,0:0:0:0:
256,24,42011,2,0,L|256:96,1,71.9999978027344,2|0,0:0|0:0,0:0:0:0:
256,96,42276,1,0,0:0:0:0:
256,96,42364,5,2,0:0:0:0:
168,212,42541,1,0,0:0:0:0:
140,84,42717,1,2,0:0:0:0:
272,196,42894,2,0,B|280:216|312:228|312:228|332:252|332:252|372:264|404:296,1,143.999995605469,2|0,0:3|0:0,0:0:0:0:
304,336,43423,2,0,P|264:344|220:336,1,71.9999978027344,2|0,0:0|0:0,0:0:0:0:
344,156,43776,6,0,B|344:116|344:116|360:88,1,71.9999978027344,2|0,0:0|0:0,0:0:0:0:
256,24,44129,1,0,0:0:0:0:
152,88,44306,2,0,B|168:116|168:116|168:156,1,71.9999978027344,2|0,0:0|0:0,0:0:0:0:
256,276,44659,1,0,0:0:0:0:
256,276,44835,2,0,L|184:316,1,71.9999978027344
324,340,45188,2,0,P|360:320|396:316,1,71.9999978027344,2|0,0:0|0:0,0:0:0:0:
224,192,45541,2,0,P|188:212|152:216,1,71.9999978027344
336,128,45894,2,0,B|316:96|316:96|316:60,1,71.9999978027344,2|0,0:0|0:0,0:0:0:0:
176,128,46247,2,0,B|196:96|196:96|196:60,1,71.9999978027344,2|0,0:0|0:0,0:0:0:0:
440,192,46600,6,0,P|400:192|328:276,1,143.999995605469,2|2,0:0|0:0,0:0:0:0:
432,292,47129,1,0,0:0:0:0:
264,192,47306,2,0,B|224:192|196:208|196:208|152:192|108:192,1,143.999995605469,2|2,0:0|0:0,0:0:0:0:
76,288,47835,1,0,0:0:0:0:
160,116,48011,6,0,L|80:100,1,71.9999978027344,2|8,0:0|0:0,0:0:0:0:
76,288,48364,2,0,L|146:273,1,71.9999978027344,2|8,0:0|0:0,0:0:0:0:
146,272,48629,1,0,0:0:0:0:
146,272,48717,1,8,0:0:0:0:
256,340,48894,1,2,0:0:0:0:
256,184,49070,1,2,0:0:0:0:
256,340,49247,1,2,0:0:0:0:
362,191,49423,6,0,P|384:264|336:312,1,143.999995605469,6|2,0:0|0:0,0:0:0:0:
472,256,49953,1,0,0:0:0:0:
312,244,50129,2,0,B|278:206|296:156|296:156|268:160|232:152,1,143.999995605469,8|2,0:0|0:0,0:0:0:0:
256,64,50659,1,0,0:0:0:0:
188,212,50835,2,0,P|156:232|104:244,1,71.9999978027344,2|8,0:0|0:0,0:0:0:0:
256,320,51188,2,0,P|296:308|340:304,1,71.9999978027344,2|0,0:0|0:0,0:0:0:0:
436,288,51541,1,8,0:0:0:0:
360,176,51717,1,0,0:0:0:0:
436,288,51894,2,0,B|472:288|472:288|504:268,1,71.9999978027344,2|0,0:0|0:0,0:0:0:0:
448,144,52247,6,0,P|376:140|328:84,1,143.999995605469,6|2,0:0|0:0,0:0:0:0:
200,120,52776,1,2,0:0:0:0:
200,120,52953,2,0,L|132:96,1,71.9999978027344,8|0,0:0|0:0,0:0:0:0:
28,192,53306,2,0,L|96:216,1,71.9999978027344,2|8,0:0|0:0,0:0:0:0:
200,260,53659,6,0,B|200:296|200:296|180:344,1,71.9999978027344,0|8,0:0|0:0,0:0:0:0:
312,260,54011,2,0,B|312:296|312:296|332:344,1,71.9999978027344,0|2,0:0|0:0,0:0:0:0:
325,329,54276,1,0,0:0:0:0:
325,329,54364,1,8,0:0:0:0:
392,244,54541,1,2,0:0:0:0:
256,184,54717,2,0,L|300:108,1,71.9999978027344,2|2,0:0|0:0,0:0:0:0:
480,108,55070,6,0,P|408:108|356:172,1,143.999995605469,6|2,0:0|0:0,0:0:0:0:
256,184,55600,1,0,0:0:0:0:
144,108,55776,2,0,P|104:108|64:96,1,71.9999978027344,8|0,0:0|0:0,0:0:0:0:
116,244,56129,2,0,P|156:244|196:256,1,71.9999978027344,2|0,0:0|0:0,0:0:0:0:
412,192,56482,6,0,L|320:192,1,80,2|0,0:0|0:0,0:0:0:0:
392,100,56835,2,0,B|440:100|440:100|472:84,1,80,8|0,0:0|0:0,0:0:0:0:
392,284,57188,2,0,B|440:284|440:284|472:300,1,80,8|0,0:0|0:0,0:0:0:0:
256,320,57541,2,0,B|216:332|216:332|176:320,1,80,2|0,0:0|0:0,0:0:0:0:
72,244,57894,5,6,0:0:0:0:
136,132,58070,1,0,0:0:0:0:
72,244,58247,2,0,B|108:233|108:233|148:245,1,80,8|0,0:0|0:0,0:0:0:0:
256,152,58600,2,0,B|256:120|256:120|248:100|248:100|248:72,1,80,8|0,0:0|0:0,0:0:0:0:
364,144,58953,2,0,B|364:170|364:170|372:190|372:190|372:222,1,80,8|0,0:0|0:0,0:0:0:0:
148,144,59306,2,0,B|148:186|148:186|134:219|134:219|134:271,1,120,8|0,0:0|0:0,0:0:0:0:
134,261,59659,1,4,0:0:0:0:
384,296,60364,6,0,P|348:296|296:320,1,83.9999974365235
228,352,60717,6,0,B|200:316|200:316|200:264,1,88.000002685547,6|0,0:0|0:0,0:0:0:0:
68,188,61070,1,8,0:0:0:0:
88,320,61247,1,0,0:0:0:0:
168,164,61423,2,0,P|156:120|124:84,1,88.000002685547,2|0,0:0|0:0,0:0:0:0:
344,163,61776,2,0,P|355:121|382:87,1,88.000002685547,8|0,0:0|0:0,0:0:0:0:
256,64,62129,6,0,L|256:216,1,132.00000402832,2|0,0:0|0:0,0:0:0:0:
256,196,62482,1,8,0:0:0:0:
188,316,62659,1,0,0:0:0:0:
324,316,62835,2,0,B|368:316|368:316|416:336,1,88.000002685547,2|0,0:0|0:0,0:0:0:0:
480,192,63188,2,0,B|436:192|436:192|388:172,1,88.000002685547,8|0,0:0|0:0,0:0:0:0:
256,68,63541,6,0,B|208:56|164:64|164:64|144:44|124:40,1,132.00000402832,2|0,0:0|0:0,0:0:0:0:
104,112,63894,2,0,P|88:148|92:200,1,88.000002685547,8|0,0:0|0:0,0:0:0:0:
208,336,64247,2,0,P|211:292|194:252,1,88.000002685547,2|0,0:0|0:0,0:0:0:0:
256,120,64600,1,8,0:0:0:0:
194,252,64776,1,0,0:0:0:0:
448,196,64953,6,0,P|396:208|348:284,1,132.00000402832,2|0,0:0|0:0,0:0:0:0:
350,268,65306,1,8,0:0:0:0:
456,308,65482,1,0,0:0:0:0:
348,144,65659,2,0,L|372:52,1,88.000002685547,2|0,0:0|0:0,0:0:0:0:
256,144,66011,2,0,L|256:56,1,88.000002685547,8|0,0:0|0:0,0:0:0:0:
164,144,66364,6,0,B|152:72|152:72|120:52|92:24,1,132.00000402832,6|0,0:0|0:0,0:0:0:0:
105,36,66717,1,8,0:0:0:0:
40,144,66894,1,0,0:0:0:0:
76,252,67070,2,0,B|120:252|120:252|160:276,1,88.000002685547,2|0,0:0|0:0,0:0:0:0:
256,356,67423,1,8,0:0:0:0:
356,220,67600,1,0,0:0:0:0:
484,296,67776,6,0,P|428:288|360:336,1,132.00000402832,6|0,0:0|0:0,0:0:0:0:
296,280,68129,2,0,P|268:240|256:192,1,88.000002685547,8|0,0:0|0:0,0:0:0:0:
408,72,68482,2,0,P|394:113|369:149,1,88.000002685547,2|0,0:0|0:0,0:0:0:0:
256,48,68835,1,8,0:0:0:0:
256,48,69011,1,0,0:0:0:0:
148,140,69188,6,0,B|100:140|100:140|56:116,1,88.000002685547,6|0,0:0|0:0,0:0:0:0:
148,244,69541,2,0,B|100:244|100:244|56:268,1,88.000002685547,8|0,0:0|0:0,0:0:0:0:
256,192,69894,2,0,L|344:192,1,88.000002685547,2|0,0:0|0:0,0:0:0:0:
256,96,70247,2,0,L|348:52,1,88.000002685547,8|0,0:0|0:0,0:0:0:0:
256,288,70600,2,0,L|348:332,1,88.000002685547,6|8,0:0|0:0,0:0:0:0:
460,192,70953,1,8,0:0:0:0:
400,72,71129,5,2,0:0:0:0:
388,68,71217,1,0,0:0:0:0:
376,64,71306,1,2,0:0:0:0:
364,60,71394,1,0,0:0:0:0:
352,56,71482,1,2,0:0:0:0:
340,52,71570,1,0,0:0:0:0:
328,44,71659,2,0,P|280:28|240:28,1,88.000002685547,8|0,0:0|0:0,0:0:0:0:
78,97,72011,6,0,P|120:109|164:104,1,88.000002685547,6|0,0:0|0:0,0:0:0:0:
348,124,72364,1,8,0:0:0:0:
256,208,72541,1,2,0:0:0:0:
256,208,72629,1,0,0:0:0:0:
256,208,72717,2,0,B|256:236|256:236|268:264|268:264|268:296,1,88.000002685547,2|0,0:0|0:0,0:0:0:0:
172,288,73070,2,0,B|128:288|128:288|76:312,1,88.000002685547,8|0,0:0|0:0,0:0:0:0:
344,220,73423,6,0,B|388:220|388:220|440:196,1,88.000002685547,2|0,0:0|0:0,0:0:0:0:
460,288,73776,1,8,0:0:0:0:
368,136,73953,1,0,0:0:0:0:
348,300,74129,1,2,0:0:0:0:
328,276,74217,1,0,0:0:0:0:
296,264,74305,1,2,0:0:0:0:
264,268,74393,1,0,0:0:0:0:
236,284,74482,1,8,0:0:0:0:
132,344,74658,1,2,0:0:0:0:
132,344,74835,6,0,P|76:330|44:302,1,88.000002685547,6|0,0:0|0:0,0:0:0:0:
40,192,75188,1,8,0:0:0:0:
148,192,75364,2,0,L|120:104,1,88.000002685547,0|2,0:0|0:0,0:0:0:0:
256,32,75717,1,0,0:0:0:0:
256,32,75894,2,0,L|256:136,1,88.000002685547,8|0,0:0|0:0,0:0:0:0:
364,192,76247,2,0,L|392:104,1,88.000002685547,2|0,0:0|0:0,0:0:0:0:
452,248,76600,1,8,0:0:0:0:
148,316,76776,5,2,0:0:0:0:
172,296,76864,1,0,0:0:0:0:
204,288,76953,1,2,0:0:0:0:
236,292,77040,1,0,0:0:0:0:
264,308,77129,1,2,0:0:0:0:
336,232,77305,1,10,0:0:0:0:
410,342,77481,5,2,0:0:0:0:
410,342,77570,1,0,0:0:0:0:
410,342,77659,2,0,B|456:312|456:312|476:316|500:312,1,88.000002685547,6|0,0:0|0:0,0:0:0:0:
480,240,77923,1,0,0:0:0:0:
480,240,78011,1,8,0:0:0:0:
408,120,78188,1,0,0:0:0:0:
408,120,78364,2,0,B|364:132|364:132|312:120,1,88.000002685547,2|0,0:0|0:0,0:0:0:0:
104,120,78717,2,0,B|148:132|148:132|200:120,1,88.000002685547,8|0,0:0|0:0,0:0:0:0:
256,244,79070,6,0,L|256:344,1,88.000002685547,6|0,0:0|0:0,0:0:0:0:
176,328,79335,1,0,0:0:0:0:
176,328,79423,2,0,P|136:324|72:344,1,88.000002685547,8|0,0:0|0:0,0:0:0:0:
336,280,79776,2,0,P|376:284|448:216,1,132.00000402832,2|0,0:0|0:0,0:0:0:0:
364,204,80129,1,8,0:0:0:0:
464,348,80306,1,0,0:0:0:0:
364,204,80482,6,0,B|364:160|364:160|384:116,1,88.000002685547,4|0,0:0|0:0,0:0:0:0:
256,32,80835,2,0,L|256:120,1,88.000002685547,8|0,0:0|0:0,0:0:0:0:
148,204,81188,1,8,0:0:0:0:
148,204,81276,1,0,0:0:0:0:
148,204,81364,1,8,0:0:0:0:
256,296,81541,1,8,0:0:0:0:
272,300,81629,1,0,0:0:0:0:
288,304,81717,1,8,0:0:0:0:
304,308,81806,1,0,0:0:0:0:
316,312,81894,5,4,0:0:0:0:
448,192,82776,5,4,0:3:0:0:
448,192,82953,1,4,0:3:0:0:
448,192,83306,6,0,L|472:96,1,71.9999978027344,2|0,0:0|0:0,0:0:0:0:
328,192,83659,2,0,L|345:261,1,71.9999978027344,0|2,0:0|0:0,0:0:0:0:
108,192,84188,5,0,0:0:0:0:
168,80,84364,1,2,0:0:0:0:
228,192,84541,1,0,0:0:0:0:
108,192,84717,2,0,P|104:236|112:272,1,71.9999978027344,2|0,0:0|0:0,0:0:0:0:
384,232,85247,5,0,0:0:0:0:
384,232,85423,2,0,B|384:272|384:272|408:300,1,71.9999978027344,2|0,0:0|0:0,0:0:0:0:
236,308,85776,2,0,B|256:284|256:284|256:240,1,71.9999978027344,2|0,0:0|0:0,0:0:0:0:
320,164,86129,5,2,0:0:0:0:
320,164,86482,1,2,0:0:0:0:
376,80,86658,1,0,0:0:0:0:
146,137,87011,5,0,0:0:0:0:
175,237,87188,1,2,0:0:0:0:
146,137,87364,1,8,0:0:0:0:
448,192,87717,5,2,0:0:0:0:
408,268,87894,2,0,B|377:257|377:257|337:257,1,71.9999978027344,2|2,0:0|0:0,0:0:0:0:
408,116,88247,2,0,B|377:126|377:126|337:126,1,71.9999978027344,2|2,0:0|0:0,0:0:0:0:
236,192,88600,1,2,0:0:0:0:
236,192,88776,1,2,0:0:0:0:
