osu file format v14

[General]
AudioFilename: audio.mp3
AudioLeadIn: 0
PreviewTime: 65516
Countdown: 0
SampleSet: Soft
StackLeniency: 0.7
Mode: 0
LetterboxInBreaks: 0
WidescreenStoryboard: 0

[Editor]
DistanceSpacing: 0.8
BeatDivisor: 4
GridSize: 32
TimelineZoom: 1.1

[Metadata]
Title:Lost Love Letter
TitleUnicode:ロストラブレター
Artist:Takigawa Alisa
ArtistUnicode:瀧川ありさ
Creator:Gaia
Version:Normal
Source:
Tags:knotts season 七つの大罪 nanatsu no taizai the seven deadly sins
BeatmapID:1128882
BeatmapSetID:532110

[Difficulty]
HPDrainRate:4
CircleSize:3.3
OverallDifficulty:4
ApproachRate:5
SliderMultiplier:1.2
SliderTickRate:1

[Events]
//Background and Video events
0,0,"chitose.jpg",0,0
//Break Periods
2,93684,101574
2,131419,136412
//Storyboard Layer 0 (Background)
//Storyboard Layer 1 (Fail)
//Storyboard Layer 2 (Pass)
//Storyboard Layer 3 (Foreground)
//Storyboard Sound Samples

[TimingPoints]
581,387.096774193548,4,2,1,30,1,0
6774,-100,4,2,1,40,0,0
19161,-100,4,2,1,20,0,0
30580,-100,4,2,2,20,0,0
30774,-100,4,2,1,20,0,0
30968,-100,4,2,2,20,0,0
31161,-100,4,2,1,20,0,0
31548,-100,4,2,1,30,0,0
43935,-100,4,2,1,30,0,0
59419,-100,4,2,1,40,0,0
62516,-100,4,2,1,20,0,0
63097,-100,4,2,1,25,0,0
63677,-100,4,2,1,30,0,0
64064,-100,4,2,1,35,0,0
64839,-100,4,2,1,40,0,0
65032,-100,4,2,1,20,0,0
65613,-100,4,2,1,40,0,0
90387,-100,4,2,1,30,0,0
131419,387.096774193548,4,2,1,30,1,0
137226,-100,4,2,1,30,0,0
142257,-100,4,2,1,30,0,0
142451,-100,4,2,2,30,0,0
142645,-100,4,2,1,30,0,0
143806,-100,4,2,1,10,0,0
144580,-100,4,2,1,30,0,0
145354,-100,4,2,1,30,0,0
145355,-100,4,2,1,10,0,0
146128,-100,4,2,1,10,0,0
146129,-100,4,2,1,30,0,0
146902,-100,4,2,1,30,0,0
146903,-100,4,2,1,10,0,0
147676,-100,4,2,1,10,0,0
147677,-100,4,2,1,30,0,0
148451,-100,4,2,1,10,0,0
149225,-100,4,2,1,30,0,0
149999,-100,4,2,1,30,0,0
150000,-100,4,2,1,10,0,0
150774,-100,4,2,1,30,0,0
151548,-100,4,2,1,10,0,0
152322,-100,4,2,1,30,0,0
153096,-100,4,2,1,30,0,0
153097,-100,4,2,1,10,0,0
153870,-100,4,2,1,10,0,0
153871,-100,4,2,1,30,0,0
156193,-100,4,2,1,30,0,0
180967,-100,4,2,1,30,0,0
194903,-100,4,2,1,15,0,0
195677,-100,4,2,1,30,0,0

[Colours]
Combo1 : 255,83,169
Combo2 : 255,128,0
Combo3 : 79,167,255
Combo4 : 128,128,255

[HitObjects]
55,117,3677,5,0,3:2:0:0:
129,56,4064,1,0,3:2:0:0:
221,82,4451,1,0,3:2:0:0:
241,175,4839,1,0,3:2:0:0:
181,250,5226,1,0,3:2:0:0:
218,338,5613,1,0,3:2:0:0:
312,351,6000,2,0,P|345:338|379:310,1,60,0|0,3:2|0:0,0:0:0:0:
387,281,6387,1,0,3:2:0:0:
332,201,6774,6,0,L|358:64,1,120,12|0,3:2|3:2,0:0:0:0:
328,42,7355,2,0,P|270:26|199:72,1,120,12|0,3:2|3:2,0:0:0:0:
204,94,7935,2,0,P|152:84|66:74,1,120,12|0,3:2|3:2,0:0:0:0:
54,112,8516,1,12,3:2:0:0:
58,207,8903,1,0,3:2:0:0:
58,207,9097,2,0,P|31:202|-22:188,2,60,12|8|8,3:2|3:3|3:2,0:0:0:0:
92,240,9677,1,8,3:3:0:0:
92,240,9871,6,0,L|231:223,1,120,12|0,3:2|3:2,0:0:0:0:
250,252,10451,2,0,P|311:284|326:357,1,120,12|0,3:2|3:2,0:0:0:0:
369,354,11032,2,0,L|385:226,1,120,12|0,3:2|3:2,0:0:0:0:
391,187,11613,1,12,3:2:0:0:
340,105,12000,1,0,3:2:0:0:
340,105,12193,2,0,L|356:31,2,60,12|8|8,3:2|3:3|3:2,0:0:0:0:
306,139,12774,1,8,3:2:0:0:
306,139,12968,6,0,P|245:135|204:67,1,120,12|0,3:2|3:2,0:0:0:0:
205,45,13548,2,0,P|143:61|76:75,1,120,12|0,3:2|3:2,0:0:0:0:
52,104,14129,2,0,P|44:173|37:250,1,120,12|0,3:2|3:2,0:0:0:0:
39,271,14710,1,12,3:2:0:0:
118,325,15097,1,0,3:0:0:0:
118,325,15290,2,0,L|106:384,2,60,12|8|8,3:2|3:3|3:2,0:0:0:0:
159,301,15871,1,8,3:3:0:0:
159,301,16064,6,0,P|235:288|274:345,1,120,12|0,3:2|3:2,0:0:0:0:
302,340,16645,2,0,L|431:320,1,120,12|0,3:2|3:2,0:0:0:0:
457,290,17226,2,0,P|471:224|432:170,1,120,12|0,3:2|3:2,0:0:0:0:
402,162,17806,2,0,P|370:186|352:231,1,60,12|0,3:2|3:2,0:0:0:0:
276,251,18387,2,0,P|266:224|251:181,1,60,12|8,3:2|3:3,0:0:0:0:
215,168,18774,2,0,L|230:99,1,60,8|8,3:2|3:2,0:0:0:0:
206,66,19161,6,0,P|141:41|69:88,1,120,4|0,3:2|3:2,0:0:0:0:
55,81,19742,2,0,L|77:216,1,120,2|2,0:0|0:0,0:0:0:0:
83,246,20322,1,0,3:2:0:0:
157,307,20710,2,0,P|149:330|136:371,2,60,0|2|0,3:2|0:0|3:2,0:0:0:0:
202,290,21290,2,0,P|266:303|351:314,1,120,2|2,0:0|0:0,0:0:0:0:
363,289,21871,1,2,3:2:0:0:
436,226,22258,6,0,L|418:79,1,120,0|0,3:2|3:2,0:0:0:0:
386,73,22839,2,0,P|370:138|348:202,1,120,2|2,0:0|0:0,0:0:0:0:
308,206,23419,1,0,3:2:0:0:
226,155,23806,2,0,P|160:127|83:149,1,120,0|0,3:2|3:2,0:0:0:0:
74,160,24387,2,0,P|54:230|76:281,1,120,2|2,0:0|0:0,0:0:0:0:
102,307,24968,2,0,P|131:295|167:286,1,60,0|2,3:2|0:0,0:0:0:0:
206,291,25355,6,0,P|271:305|345:316,1,120,0|0,3:2|3:2,0:0:0:0:
351,221,26129,2,0,P|291:211|233:198,1,120,0|0,3:2|3:2,0:0:0:0:
204,159,26710,1,2,0:0:0:0:
204,159,26903,2,0,L|188:27,1,120,0|0,3:2|3:2,0:0:0:0:
281,10,27677,2,0,L|295:129,1,120,0|0,3:2|3:2,0:0:0:0:
375,182,28451,6,0,P|446:157|516:185,2,120,0|0|0,3:2|3:2|3:2,0:0:0:0:
340,271,29613,1,0,3:2:0:0:
258,321,30000,2,0,P|234:313|172:292,1,60,0|2,3:2|0:0,0:0:0:0:
171,264,30387,1,0,3:2:0:0:
171,264,30580,2,0,L|53:290,1,120,6|6,0:0|0:0,0:0:0:0:
13,263,31161,1,0,3:2:0:0:
51,175,31548,6,0,P|43:130|31:38,1,120,4|4,3:2|3:3,0:0:0:0:
65,20,32129,2,0,P|138:42|201:71,1,120,4|4,0:3|0:3,0:0:0:0:
219,84,32710,1,4,3:3:0:0:
252,174,33097,2,0,P|316:158|373:134,1,120,4|4,3:3|3:3,0:0:0:0:
408,115,33677,2,0,P|390:179|383:244,1,120,4|4,0:3|0:3,0:0:0:0:
407,273,34258,1,4,3:3:0:0:
346,347,34645,6,0,P|273:352|221:299,1,120,4|4,3:3|3:3,0:0:0:0:
212,285,35226,2,0,P|151:297|93:305,1,120,4|4,0:3|0:3,0:0:0:0:
53,279,35806,1,4,3:3:0:0:
11,192,36193,2,0,P|21:152|42:55,1,120,4|4,3:3|3:3,0:0:0:0:
70,39,36774,2,0,P|141:53|150:119,1,120,4|4,0:3|0:3,0:0:0:0:
146,138,37355,1,4,3:3:0:0:
225,192,37742,6,0,P|231:236|243:335,1,120,4|4,3:3|3:3,0:0:0:0:
232,358,38322,2,0,P|294:328|374:313,1,120,4|4,0:3|0:3,0:0:0:0:
391,313,38903,1,4,3:3:0:0:
476,268,39290,2,0,P|503:207|457:136,1,120,4|4,3:3|3:3,0:0:0:0:
448,130,39871,1,4,0:3:0:0:
362,85,40258,2,0,P|326:93|288:102,1,60,4|4,0:3|3:3,0:0:0:0:
224,44,40839,6,0,L|99:33,1,120,4|0,3:3|3:2,0:0:0:0:
56,32,41419,2,0,P|81:91|93:150,1,120,4|4,0:3|0:3,0:0:0:0:
131,174,42000,2,0,L|120:243,1,60,4|2,3:3|0:0,0:0:0:0:
139,277,42387,2,0,P|181:312|274:279,1,120,4|4,3:3|3:3,0:0:0:0:
268,266,42968,2,0,L|254:133,1,120,4|8,0:3|3:3,0:0:0:0:
249,99,43548,1,8,3:3:0:0:
315,30,43935,6,0,P|377:37|419:101,1,120,4|0,3:2|3:2,0:0:0:0:
434,121,44516,1,8,3:2:0:0:
434,121,44710,2,0,L|417:257,1,120,0|8,3:2|3:3,0:0:0:0:
342,297,45484,1,0,3:2:0:0:
342,297,45677,2,0,L|326:168,1,120,0|8,0:0|3:2,0:0:0:0:
294,142,46258,2,0,P|301:109|311:76,2,60,0|8|8,3:2|3:2|3:3,0:0:0:0:
210,190,47032,6,0,P|142:197|95:143,1,120,0|0,3:2|3:2,0:0:0:0:
81,124,47613,1,8,3:2:0:0:
81,124,47806,2,0,L|98:43,2,60,0|8|8,3:2|3:2|3:3,0:0:0:0:
12,191,48580,2,0,P|25:251|44:315,1,120,0|0,3:2|3:2,0:0:0:0:
76,340,49161,2,0,P|105:332|165:315,1,60,8|0,3:2|3:2,0:0:0:0:
172,295,49548,1,8,3:2:0:0:
172,295,49742,2,0,P|218:310|243:318,1,60,8|8,3:2|3:2,0:0:0:0:
274,296,50129,6,0,L|405:278,1,120,4|0,3:2|3:2,0:0:0:0:
431,250,50710,1,8,3:2:0:0:
431,250,50903,2,0,P|447:188|412:124,1,120,0|8,3:2|3:3,0:0:0:0:
414,42,51677,2,0,P|352:58|287:71,1,120,0|0,3:2|3:2,0:0:0:0:
255,92,52258,2,0,L|172:72,1,60,8|0,3:2|3:2,0:0:0:0:
156,51,52645,2,0,L|77:77,1,60,8|8,3:2|3:3,0:0:0:0:
8,102,53226,6,0,P|17:127|38:231,1,120,0|0,3:2|3:2,0:0:0:0:
71,251,53806,2,0,P|102:239|148:225,1,60,8|0,3:2|3:2,0:0:0:0:
174,218,54193,2,0,P|179:194|199:150,2,60,8|8|0,3:2|3:3|0:0,0:0:0:0:
200,258,54774,2,0,P|250:291|312:276,1,120,0|0,3:2|3:2,0:0:0:0:
339,245,55355,2,0,L|346:176,1,60,8|0,3:2|3:2,0:0:0:0:
377,149,55742,2,0,L|366:77,1,60,8|8,3:2|3:2,0:0:0:0:
355,43,56129,1,8,3:2:0:0:
355,43,56322,6,0,P|291:71|217:64,1,120,4|8,3:2|3:2,0:0:0:0:
203,42,56903,2,0,P|143:43|89:69,1,120,4|8,3:2|3:2,0:0:0:0:
69,113,57484,1,4,3:2:0:0:
130,186,57871,1,0,3:2:0:0:
130,186,58064,2,0,L|114:258,1,60,8|0,3:2|3:2,0:0:0:0:
82,278,58451,1,8,3:2:0:0:
82,278,58645,2,0,P|59:264|24:232,2,60,8|8|8,3:3|3:3|3:3,0:0:0:0:
155,339,59419,6,0,P|209:319|285:313,1,120,4|8,3:2|3:2,0:0:0:0:
309,283,60000,2,0,P|281:234|276:161,1,120,4|8,3:2|3:2,0:0:0:0:
299,130,60580,2,0,P|363:100|437:121,1,120,4|8,3:2|3:2,0:0:0:0:
455,91,61161,2,0,P|443:144|433:221,1,120,4|8,3:2|3:2,0:0:0:0:
447,255,61742,2,0,L|530:244,2,60,0|8|8,3:2|3:2|3:2,0:0:0:0:
364,304,62516,6,0,P|321:298|208:288,1,120,12|8,3:2|3:2,0:0:0:0:
211,256,63097,2,0,P|166:256|101:329,1,120,8|8,3:2|3:2,0:0:0:0:
81,340,63677,2,0,L|53:201,1,120,8|8,3:2|3:2,0:0:0:0:
20,191,64258,2,0,L|40:62,1,120,8|8,3:2|3:2,0:0:0:0:
46,24,64839,1,12,3:2:0:0:
46,24,65032,1,12,3:2:0:0:
153,119,65613,6,0,P|216:113|292:107,1,120,4|8,3:2|3:2,0:0:0:0:
305,18,66387,2,0,P|386:41|439:60,1,120,0|8,3:2|3:2,0:0:0:0:
487,121,67161,2,0,P|473:169|457:248,1,120,0|8,3:2|3:2,0:0:0:0:
425,272,67742,2,0,P|371:268|329:198,1,120,2|2,0:0|0:0,0:0:0:0:
318,173,68322,1,8,3:2:0:0:
245,109,68710,6,0,P|229:174|220:236,1,120,0|8,3:2|3:2,0:0:0:0:
234,272,69290,2,0,P|192:259|109:241,1,120,2|2,0:0|0:0,0:0:0:0:
70,248,69871,1,8,3:2:0:0:
7,175,70258,1,0,3:2:0:0:
57,93,70645,1,8,3:2:0:0:
152,93,71032,2,0,P|168:62|178:32,2,60,0|8|8,3:2|3:2|3:2,0:0:0:0:
148,140,71613,1,8,3:2:0:0:
148,140,71806,6,0,L|299:121,1,120,4|8,3:2|3:2,0:0:0:0:
352,81,72580,1,0,3:2:0:0:
352,81,72774,2,0,P|343:49|336:17,2,60,2|8|2,0:0|3:2|0:0,0:0:0:0:
393,105,73355,2,0,P|381:174|372:236,1,120,0|8,3:2|3:2,0:0:0:0:
341,258,73935,2,0,P|304:242|204:229,1,120,2|2,0:0|0:0,0:0:0:0:
181,247,74516,1,8,3:2:0:0:
95,203,74903,6,0,P|55:149|80:77,1,120,0|8,3:2|3:2,0:0:0:0:
87,59,75484,2,0,L|219:81,1,120,2|2,0:0|0:0,0:0:0:0:
248,58,76064,1,8,3:2:0:0:
340,82,76451,2,0,P|352:57|361:18,2,60,4|8|0,3:2|3:2|3:2,0:0:0:0:
311,120,77032,1,8,3:2:0:0:
311,120,77226,2,0,L|324:215,1,60,4|8,3:2|3:3,0:0:0:0:
350,215,77613,2,0,L|324:317,1,60,8|8,3:3|3:2,0:0:0:0:
298,303,78000,6,0,P|239:324|173:289,1,120,4|8,3:2|3:2,0:0:0:0:
98,268,78774,2,0,P|108:220|122:137,1,120,0|8,3:2|3:2,0:0:0:0:
107,54,79548,2,0,P|165:80|222:96,1,120,0|8,3:2|3:2,0:0:0:0:
262,116,80129,2,0,L|408:87,1,120,2|2,0:0|0:0,0:0:0:0:
426,101,80710,1,8,3:2:0:0:
506,153,81097,6,0,L|475:308,1,120,0|8,3:2|3:2,0:0:0:0:
451,306,81677,2,0,P|351:323|316:280,1,120,2|2,0:0|0:0,0:0:0:0:
320,274,82258,1,8,3:2:0:0:
242,216,82645,2,0,P|181:225|119:239,1,120,0|8,3:2|3:2,0:0:0:0:
37,278,83419,2,0,P|41:314|51:351,2,60,0|8|8,3:2|3:2|3:2,0:0:0:0:
14,235,84000,1,8,3:2:0:0:
14,235,84193,6,0,L|35:79,1,120,4|8,3:2|3:2,0:0:0:0:
124,99,84968,2,0,L|107:217,1,120,0|8,3:2|3:2,0:0:0:0:
135,257,85548,1,2,0:0:0:0:
135,257,85742,2,0,P|179:226|268:221,1,120,0|8,3:2|3:2,0:0:0:0:
287,234,86322,2,0,P|335:262|416:256,1,120,2|2,0:0|0:0,0:0:0:0:
438,235,86903,1,8,3:2:0:0:
480,149,87290,6,0,P|465:90|405:43,1,120,0|8,3:2|3:2,0:0:0:0:
378,32,87871,2,0,L|237:50,1,120,2|2,0:0|0:0,0:0:0:0:
213,60,88451,1,8,3:2:0:0:
121,29,88839,1,4,3:2:0:0:
39,79,89226,1,4,3:2:0:0:
29,174,89613,2,0,L|54:239,1,60,8|0,3:2|3:2,0:0:0:0:
93,251,90000,2,0,L|76:323,1,60,8|8,3:2|3:2,0:0:0:0:
64,355,90387,5,4,3:2:0:0:
256,192,90580,12,2,93484,0:0:0:0:
156,155,102774,6,0,P|76:193|84:252,1,120,6|0,3:2|3:2,0:0:0:0:
83,261,103355,1,10,3:2:0:0:
160,316,103742,1,2,0:0:0:0:
160,316,103935,2,0,L|292:303,1,120,2|0,3:2|3:2,0:0:0:0:
326,296,104516,1,8,3:3:0:0:
393,228,104903,1,10,3:2:0:0:
393,228,105097,2,0,L|459:247,2,60,0|10|0,3:2|3:2|3:2,0:0:0:0:
305,187,105871,6,0,P|314:128|334:47,1,120,6|0,3:2|3:2,0:0:0:0:
326,21,106451,2,0,P|253:56|181:47,1,120,8|8,3:2|3:2,0:0:0:0:
171,35,107032,2,0,B|53:27|53:27|13:64|34:112,1,180,8|8,3:3|3:2,0:0:0:0:
3,174,108000,1,8,3:3:0:0:
3,174,108193,2,0,L|24:256,1,60,0|8,3:2|3:2,0:0:0:0:
65,238,108580,2,0,L|55:309,1,60,8|8,3:2|3:2,0:0:0:0:
69,344,108968,6,0,P|125:371|185:362,1,120,6|0,3:2|3:2,0:0:0:0:
225,347,109548,1,10,3:2:0:0:
281,269,109935,1,2,0:0:0:0:
281,269,110129,2,0,L|264:125,1,120,2|0,3:2|3:2,0:0:0:0:
256,102,110710,1,2,0:0:0:0:
169,65,111097,1,8,3:2:0:0:
169,65,111290,2,0,P|174:34|183:1,2,60,2|8|2,3:2|3:2|3:2,0:0:0:0:
82,107,112064,6,0,P|48:169|75:232,1,120,6|0,3:2|3:2,0:0:0:0:
66,261,112645,2,0,L|197:249,1,120,8|8,3:2|3:2,0:0:0:0:
230,267,113226,2,0,P|223:308|220:349,1,60,0|2,3:2|0:0,0:0:0:0:
313,354,113806,2,0,P|316:324|321:294,1,60,8|8,3:2|3:2,0:0:0:0:
355,260,114193,1,0,3:2:0:0:
355,260,114387,2,0,L|444:280,1,60,8|8,3:3|3:3,0:0:0:0:
453,246,114774,2,0,P|457:219|453:173,1,60,8|8,3:3|3:3,0:0:0:0:
451,138,115161,6,0,P|427:104|308:95,1,120,6|0,3:2|3:2,0:0:0:0:
317,48,115742,2,0,L|190:66,1,120,14|2,3:2|0:0,0:0:0:0:
157,89,116322,2,0,B|124:92|88:79|88:79|62:110|69:139,1,120,6|0,3:2|3:2,0:0:0:0:
51,168,116903,2,0,P|66:219|80:284,1,120,4|0,3:2|3:2,0:0:0:0:
63,329,117484,2,0,P|37:323|-10:317,2,60,10|8|8,3:2|3:3|3:3,0:0:0:0:
148,373,118258,6,0,B|183:360|230:361|230:361|261:326,1,120,6|0,3:2|3:2,0:0:0:0:
282,297,118839,2,0,L|343:312,1,60,12|0,3:2|3:0,0:0:0:0:
433,289,119419,2,0,B|465:275|480:259|480:259|482:215|454:188,1,120,4|0,3:2|3:2,0:0:0:0:
450,152,120000,2,0,P|417:159|390:167,1,60,12|0,3:2|3:0,0:0:0:0:
336,88,120580,2,0,L|263:75,1,60,8|8,3:2|3:3,0:0:0:0:
238,48,120968,2,0,L|168:64,1,60,8|8,3:2|3:2,0:0:0:0:
138,85,121355,6,0,P|39:85|16:110,1,120,6|0,3:2|3:2,0:0:0:0:
3,135,121935,2,0,P|16:178|36:271,1,120,14|2,3:2|0:0,0:0:0:0:
62,288,122516,2,0,P|128:296|208:303,1,120,6|0,3:2|3:2,0:0:0:0:
223,278,123097,1,4,3:2:0:0:
263,190,123484,1,0,3:2:0:0:
263,190,123677,2,0,P|255:166|245:112,2,60,10|10|10,3:2|3:2|3:2,0:0:0:0:
337,251,124451,6,0,P|394:227|462:218,1,120,12|0,3:2|3:2,0:0:0:0:
498,207,125032,2,0,P|468:186|416:90,1,120,12|0,3:2|3:2,0:0:0:0:
413,70,125613,2,0,B|382:110|382:110|302:128,1,120,12|0,3:2|3:2,0:0:0:0:
267,116,126193,1,12,3:2:0:0:
179,76,126580,1,12,3:2:0:0:
179,76,126774,2,0,P|143:87|105:107,1,60,0|10,3:2|3:2,0:0:0:0:
76,108,127161,2,0,P|70:147|71:199,1,60,10|10,3:2|3:2,0:0:0:0:
48,210,127548,6,0,L|76:344,1,120,12|0,3:2|3:2,0:0:0:0:
115,349,128129,2,0,P|190:373|243:346,1,120,12|0,3:2|3:2,0:0:0:0:
260,326,128710,2,0,B|247:247|247:247|263:189,1,120,12|8,3:2|3:3,0:0:0:0:
289,172,129290,2,0,P|366:162|420:218,1,120,12|8,3:2|3:3,0:0:0:0:
424,223,129871,2,0,L|501:212,1,60,12|12,3:2|3:2,0:0:0:0:
65,103,137612,6,0,B|95:129|151:121|151:121|200:77|284:94|284:94|256:133|256:183|256:183|235:178|219:176,1,360,4|0,3:2|0:0,0:0:0:0:
151,240,139160,2,0,B|180:228|251:249|251:249|315:203|315:203|356:231|409:221|409:221|461:249|440:303,1,360,4|0,3:2|0:0,0:0:0:0:
352,314,140709,6,0,P|393:368|505:362,2,180,4|2|2,3:2|0:0|0:0,0:0:0:0:
325,221,142257,2,0,L|345:152,1,60,8|4,3:2|3:2,0:0:0:0:
375,73,142838,1,8,3:2:0:0:
285,38,143225,1,8,3:2:0:0:
242,59,143419,2,0,L|164:42,1,60,8|8,3:2|3:2,0:0:0:0:
136,54,143806,6,0,P|80:116|91:177,1,120,8|8,3:2|3:2,0:0:0:0:
83,244,144580,2,0,P|51:239|11:231,2,60,8|8|8,3:2|3:2|3:2,0:0:0:0:
112,281,145160,1,8,3:2:0:0:
112,281,145354,2,0,L|251:265,1,120,8|8,3:2|3:2,0:0:0:0:
299,200,146128,2,0,L|358:217,1,60,8|8,3:2|3:2,0:0:0:0:
402,201,146515,2,0,P|411:177|426:133,1,60,8|8,3:2|3:2,0:0:0:0:
433,97,146902,6,0,P|365:117|301:102,1,120,8|8,3:2|3:2,0:0:0:0:
226,77,147677,2,0,L|242:149,1,60,8|8,3:2|3:2,0:0:0:0:
203,168,148064,2,0,P|175:160|136:148,1,60,8|8,3:2|3:2,0:0:0:0:
104,176,148451,2,0,P|87:244|85:304,1,120,8|8,3:2|3:2,0:0:0:0:
144,369,149225,2,0,L|215:353,1,60,8|8,3:2|3:2,0:0:0:0:
235,320,149612,2,0,L|304:338,1,60,8|8,3:2|3:2,0:0:0:0:
338,349,149999,6,0,L|477:328,1,120,8|8,3:2|3:2,0:0:0:0:
505,248,150773,2,0,P|497:222|479:174,1,60,8|8,3:2|3:2,0:0:0:0:
449,159,151160,2,0,L|463:86,1,60,8|8,3:2|3:2,0:0:0:0:
450,52,151548,2,0,P|392:16|331:35,1,120,8|8,3:2|3:2,0:0:0:0:
268,84,152322,2,0,L|187:62,1,60,8|8,3:2|3:2,0:0:0:0:
166,48,152709,2,0,L|96:66,1,60,8|8,3:2|3:2,0:0:0:0:
63,45,153096,6,0,P|82:113|93:174,1,120,8|8,3:2|3:2,0:0:0:0:
58,251,153870,2,0,P|36:244|-14:236,2,60,8|8|8,3:2|3:2|3:2,0:0:0:0:
87,289,154451,1,8,3:2:0:0:
263,363,155225,1,0,3:3:0:0:
295,327,155418,2,0,L|285:240,1,60,8|8,3:2|3:2,0:0:0:0:
283,219,155806,2,0,L|273:132,1,60,8|8,3:2|3:2,0:0:0:0:
255,115,156193,6,0,P|211:87|126:101,1,120,4|8,3:2|3:2,0:0:0:0:
54,59,156967,2,0,P|66:112|86:209,1,120,0|8,3:2|3:2,0:0:0:0:
27,257,157741,2,0,P|93:272|156:236,1,120,0|8,3:2|3:2,0:0:0:0:
176,221,158322,2,0,L|298:237,1,120,2|2,0:0|0:0,0:0:0:0:
339,218,158902,1,8,3:2:0:0:
404,147,159289,6,0,P|393:92|338:47,1,120,0|8,3:2|3:2,0:0:0:0:
300,38,159870,2,0,L|154:59,1,120,2|2,0:0|0:0,0:0:0:0:
134,67,160451,1,8,3:2:0:0:
62,130,160838,2,0,P|45:204|85:259,1,120,0|8,3:2|3:2,0:0:0:0:
142,294,161612,2,0,L|152:366,2,60,0|8|8,3:2|3:2|3:2,0:0:0:0:
171,255,162193,1,8,3:2:0:0:
171,255,162386,6,0,P|231:220|293:240,1,120,4|8,3:2|3:2,0:0:0:0:
294,324,163160,2,0,L|416:308,1,120,0|8,3:2|3:2,0:0:0:0:
487,247,163935,2,0,P|506:184|479:123,1,120,0|8,3:2|3:2,0:0:0:0:
459,97,164515,2,0,P|397:74|325:106,1,120,2|2,0:0|0:0,0:0:0:0:
312,121,165096,1,8,3:2:0:0:
265,203,165483,6,0,P|211:192|133:182,1,120,0|8,3:2|3:2,0:0:0:0:
104,160,166064,2,0,P|73:100|112:37,1,120,2|2,0:0|0:0,0:0:0:0:
135,37,166644,1,8,3:2:0:0:
216,88,167031,2,0,P|224:68|238:16,2,60,4|8|8,3:2|3:2|3:2,0:0:0:0:
208,135,167612,1,0,3:2:0:0:
208,135,167806,2,0,L|226:218,1,60,8|8,3:3|3:3,0:0:0:0:
240,237,168193,2,0,L|231:314,1,60,8|8,3:3|3:3,0:0:0:0:
260,336,168580,6,0,P|327:346|389:285,1,120,4|8,3:2|3:2,0:0:0:0:
445,264,169354,2,0,L|423:132,1,120,0|8,3:2|3:2,0:0:0:0:
472,61,170128,2,0,P|405:48|349:86,1,120,0|8,3:2|3:2,0:0:0:0:
330,108,170709,2,0,B|298:126|298:126|187:112,1,120,2|2,0:0|0:0,0:0:0:0:
169,98,171289,1,8,3:2:0:0:
85,145,171677,6,0,P|77:211|111:262,1,120,0|8,3:2|3:2,0:0:0:0:
136,288,172257,2,0,P|148:283|272:258,1,120,2|2,0:0|0:0,0:0:0:0:
300,262,172838,1,8,3:2:0:0:
383,309,173225,1,0,3:2:0:0:
466,261,173612,1,8,3:2:0:0:
446,167,173999,2,0,P|475:154|518:148,2,60,0|8|8,3:2|3:2|3:2,0:0:0:0:
402,145,174580,1,8,3:2:0:0:
402,145,174773,6,0,L|276:127,1,120,4|8,3:2|3:2,0:0:0:0:
215,59,175548,2,0,L|80:78,1,120,0|8,3:2|3:2,0:0:0:0:
65,112,176128,1,2,0:0:0:0:
65,112,176322,2,0,P|53:174|102:246,1,120,0|8,3:2|3:2,0:0:0:0:
105,261,176902,2,0,P|154:232|226:222,1,120,2|2,0:0|0:0,0:0:0:0:
258,242,177483,1,8,3:2:0:0:
303,326,177870,6,0,P|374:355|438:337,1,120,0|8,3:2|3:2,0:0:0:0:
454,320,178451,2,0,P|464:250|430:197,1,120,2|2,0:0|0:0,0:0:0:0:
405,177,179031,1,8,3:2:0:0:
351,97,179418,2,0,L|231:117,1,120,4|4,3:2|3:2,0:0:0:0:
144,77,180193,1,8,3:2:0:0:
55,114,180580,2,0,P|39:150|42:182,1,60,8|8,3:2|3:2,0:0:0:0:
4,203,180967,6,0,P|26:273|49:324,1,120,4|8,3:2|3:2,0:0:0:0:
82,345,181548,2,0,P|96:339|220:318,1,120,4|0,3:2|3:2,0:0:0:0:
236,289,182128,2,0,P|179:271|120:238,1,120,12|0,3:2|3:2,0:0:0:0:
120,194,182709,2,0,P|125:159|136:128,1,60,4|8,3:2|3:2,0:0:0:0:
204,72,183289,2,0,L|266:92,1,60,4|8,3:2|3:3,0:0:0:0:
286,131,183677,2,0,L|361:116,1,60,12|8,3:2|3:3,0:0:0:0:
391,108,184064,6,0,P|446:144|456:210,1,120,4|8,3:2|3:2,0:0:0:0:
481,236,184644,2,0,L|356:215,1,120,4|0,3:2|3:2,0:0:0:0:
324,245,185225,2,0,L|186:263,1,120,12|0,3:2|3:2,0:0:0:0:
171,294,185806,2,0,P|144:288|99:274,1,60,4|8,3:2|3:2,0:0:0:0:
58,200,186386,2,0,P|25:213|-8:220,2,60,0|8|8,3:0|3:3|3:2,0:0:0:0:
83,159,186967,1,8,3:2:0:0:
83,159,187160,6,0,P|96:88|107:19,1,120,4|8,3:2|3:2,0:0:0:0:
148,22,187741,2,0,P|216:9|263:55,1,120,4|0,3:2|3:2,0:0:0:0:
267,82,188322,2,0,L|411:65,1,120,12|0,3:2|3:2,0:0:0:0:
430,85,188902,2,0,L|416:158,1,60,4|8,3:2|3:2,0:0:0:0:
338,197,189483,2,0,L|353:272,1,60,4|0,3:2|3:0,0:0:0:0:
317,291,189870,2,0,L|215:263,1,60,8|8,3:2|3:2,0:0:0:0:
216,252,190257,6,0,P|153:268|93:278,1,120,4|8,3:2|3:2,0:0:0:0:
54,257,190838,2,0,P|30:191|33:128,1,120,4|0,3:2|3:2,0:0:0:0:
4,101,191418,2,0,L|128:132,1,120,12|0,3:2|3:2,0:0:0:0:
163,109,191999,2,0,P|170:69|166:27,1,60,4|8,3:2|3:2,0:0:0:0:
264,62,192580,2,0,P|261:32|253:1,2,60,12|8|12,3:2|3:3|3:2,0:0:0:0:
298,94,193160,1,0,3:2:0:0:
298,94,193354,6,0,P|359:83|431:79,1,120,4|0,3:2|3:2,0:0:0:0:
433,173,194128,2,0,P|373:177|314:187,1,120,0|0,3:2|3:2,0:0:0:0:
250,259,194902,2,0,P|260:290|267:325,2,60,8|8|8,3:2|3:2|3:2,0:0:0:0:
206,239,195483,1,8,3:2:0:0:
206,239,195677,2,0,L|114:265,1,60,8|8,3:2|3:2,0:0:0:0:
102,269,196064,2,0,L|36:252,1,60,8|8,3:2|3:2,0:0:0:0:
