osu file format v14

[General]
AudioFilename: audio.mp3
AudioLeadIn: 0
PreviewTime:62123
Countdown: 0
SampleSet: Soft
StackLeniency: 0.3
Mode: 0
LetterboxInBreaks: 0
WidescreenStoryboard: 1

[Editor]
DistanceSpacing: 1.3
BeatDivisor: 4
GridSize: 4
TimelineZoom: 2

[Metadata]
Title:Friend Shitai
TitleUnicode:ふ・れ・ん・ど・し・た・い
Artist:Takeya Yuki (CV: Minase Inori)
ArtistUnicode:丈槍由紀 (CV: 水瀬いのり)
Creator:Blitzifyyy
Version:Stormi's Hard
Source:がっこうぐらし!
Tags:gakkou gurashi school live school-live op opening cut version tv size japanese anime living club takeya yuki 丈槍由紀 ebisuzawa kurumi 恵飛須沢胡桃 ozawa ari 小澤亜李 wakasa yuuri 若狭悠里 ichimichi mao M·A·O 市道真央 naoki miki 直樹美紀 takahashi rie 高橋李依 TheShadowOfDark Ayucchi Stormiverse Zan1to
BeatmapID:2185175
BeatmapSetID:1041991

[Difficulty]
HPDrainRate:4.5
CircleSize:3.5
OverallDifficulty:6
ApproachRate:7
SliderMultiplier:1.4
SliderTickRate:1

[Events]
//Background and Video events
0,0,"700454.jpg",0,0
Video,0,"video.avi"
//Break Periods
//Storyboard Layer 0 (Background)
//Storyboard Layer 1 (Fail)
//Storyboard Layer 2 (Pass)
//Storyboard Layer 3 (Foreground)
//Storyboard Layer 4 (Overlay)
//Storyboard Sound Samples

[TimingPoints]
604,405.405405405405,4,2,1,50,1,0
604,-111.111111111111,4,2,1,50,0,0
1414,-105.263157894737,4,2,1,50,0,0
2225,-100,4,2,1,50,0,0
3036,-95.2380952380952,4,2,1,50,0,0
3847,-111.111111111111,4,2,1,50,0,0
4658,-105.263157894737,4,2,1,50,0,0
5468,-100,4,2,1,50,0,0
6279,-95.2380952380952,4,2,1,50,0,0
8306,-86.9565217391304,4,2,1,50,0,0
8610,-86.9565217391304,4,2,1,5,0,0
8712,-90.9090909090909,4,2,1,50,0,1
20164,-90.9090909090909,4,2,1,5,0,1
20266,-90.9090909090909,4,2,1,50,0,1
20874,-90.9090909090909,4,2,1,50,0,0
21279,-100,4,2,1,50,0,0
21583,-100,4,2,1,5,0,0
21685,-95.2380952380952,4,2,1,70,0,0
34658,-105.263157894737,4,2,1,65,0,0
39522,-100,4,2,1,65,0,0
41144,-105.263157894737,4,2,1,65,0,0
44387,-100,4,2,1,65,0,0
47631,-111.111111111111,4,2,1,65,0,0
54117,-100,4,2,1,65,0,0
57360,-111.111111111111,4,2,1,65,0,0
58171,-105.263157894737,4,2,1,65,0,0
58982,-100,4,2,1,65,0,0
59793,-95.2380952380952,4,2,1,65,0,0
61820,-86.9565217391304,4,2,1,65,0,0
62225,-90.9090909090909,4,2,1,65,0,1
74387,-90.9090909090909,4,2,1,65,0,0
74793,-86.9565217391304,4,2,1,65,0,0
75097,-86.9565217391304,4,2,1,5,0,0
75198,-90.9090909090909,4,2,1,65,0,1
86651,-90.9090909090909,4,2,1,5,0,1
86752,-90.9090909090909,4,2,1,65,0,1
87360,-90.9090909090909,4,2,1,65,0,0

[Colours]
Combo1 : 164,100,240
Combo2 : 230,110,150
Combo3 : 100,200,200
Combo4 : 130,120,255

[HitObjects]
24,316,604,6,0,P|87:316|149:327,1,125.999996154785,0|8,1:2|0:2,0:0:0:0:
289,225,1414,2,0,P|223:225|157:237,1,132.999996448517,0|8,1:2|0:2,0:0:0:0:
10,129,2225,2,0,P|80:129|149:141,1,140,0|8,1:2|0:2,0:0:0:0:
304,29,3036,2,0,P|231:29|158:42,1,146.999995513916,0|8,1:2|0:2,0:0:0:0:
10,129,3847,5,4,1:2:0:0:
10,129,3948,2,0,L|2:221,1,62.9999980773926,0|0,0:0|0:0,0:0:0:0:
1,233,4252,1,8,0:2:0:0:
149,141,4658,1,4,1:2:0:0:
149,141,4759,2,0,L|141:49,1,66.4999982242585,0|0,0:0|0:0,0:0:0:0:
139,31,5063,1,8,0:2:0:0:
292,129,5468,5,4,1:2:0:0:
292,129,5570,2,0,L|284:221,1,70,0|0,0:0|0:0,0:0:0:0:
282,244,5874,1,8,0:2:0:0:
444,142,6279,1,4,1:2:0:0:
444,142,6381,2,0,L|436:50,1,73.4999977569581,0|0,0:0|0:0,0:0:0:0:
434,21,6685,1,8,0:2:0:0:
511,231,8306,6,0,B|453:247|453:247|361:239,1,120.750002303124,14|0,0:2|0:0,0:0:0:0:
357,206,8712,6,0,L|265:214,1,77.0000023498536,6|2,1:2|0:2,0:0:0:0:
180,222,9117,1,10,0:2:0:0:
117,300,9320,2,0,B|148:325|189:322|189:322|281:314,1,154.000004699707,2|2,0:2|0:2,0:0:0:0:
366,306,9928,1,10,0:2:0:0:
366,306,10131,1,2,0:2:0:0:
299,382,10333,6,0,P|265:315|265:297,1,77.0000023498536,2|2,1:2|0:2,0:0:0:0:
166,322,10739,2,0,P|172:280|231:221,1,77.0000023498536,10|2,0:2|0:2,0:0:0:0:
113,185,11144,2,0,B|140:156|180:151|180:151|272:143,1,154.000004699707,2|8,1:2|0:2,0:0:0:0:
357,135,11752,1,2,0:2:0:0:
278,72,11955,6,0,P|256:126|256:144,1,77.0000023498536,2|2,1:2|0:2,0:0:0:0:
266,244,12360,1,10,0:2:0:0:
200,320,12563,2,0,B|171:293|166:253|166:253|158:161,1,154.000004699707,2|2,0:2|0:2,0:0:0:0:
150,76,13171,1,10,0:2:0:0:
150,76,13374,1,2,1:2:0:0:
87,154,13576,6,0,P|141:176|159:176,1,77.0000023498536,6|2,1:2|1:2,0:0:0:0:
259,167,13982,1,10,0:2:0:0:
335,233,14185,2,0,B|308:262|268:267|268:267|176:275,1,154.000004699707,6|8,1:2|0:3,0:0:0:0:
191,273,14691,1,8,0:3:0:0:
191,273,14793,1,8,0:3:0:0:
182,174,14995,1,8,0:3:0:0:
182,174,15097,1,8,0:3:0:0:
182,174,15198,6,0,L|274:166,1,77.0000023498536,2|2,1:2|0:2,0:0:0:0:
359,158,15603,1,14,0:2:0:0:
435,224,15806,2,0,B|408:253|368:258|368:258|276:266,1,154.000004699707,2|2,0:2|0:2,0:0:0:0:
191,274,16414,1,10,0:2:0:0:
191,274,16617,1,2,0:2:0:0:
269,336,16820,6,0,P|291:282|291:264,1,77.0000023498536,2|2,1:2|0:2,0:0:0:0:
391,254,17225,2,0,P|362:194|300:165,1,77.0000023498536,10|2,0:2|0:2,0:0:0:0:
418,110,17631,2,0,B|387:85|346:88|346:88|254:96,1,154.000004699707,2|8,1:2|0:2,0:0:0:0:
169,104,18239,1,2,0:2:0:0:
235,27,18441,6,0,P|269:94|269:112,1,77.0000023498536,2|2,1:2|0:2,0:0:0:0:
278,195,18847,1,10,0:2:0:0:
356,258,19049,2,0,B|381:227|378:186|378:186|370:94,1,154.000004699707,2|2,1:2|1:2,0:0:0:0:
419,14,19658,1,10,0:2:0:0:
484,99,19860,6,0,B|428:114|428:114|336:106,1,115.50000352478,6|0,1:2|0:0,0:0:0:0:
321,105,20266,1,6,1:2:0:0:
235,45,20468,1,6,1:2:0:0:
140,89,20671,1,6,1:2:0:0:
54,29,20874,1,14,0:2:0:0:
54,29,21279,6,0,B|40:80|40:80|46:149,1,105,0|0,0:0|0:0,0:0:0:0:
79,166,21685,6,0,L|71:258,2,73.4999977569581,2|2|10,1:2|0:2|0:2,0:0:0:0:
153,106,22293,2,0,B|178:135|174:174|174:174|166:266,1,146.999995513916,2|2,0:2|0:2,0:0:0:0:
160,342,22901,1,10,0:2:0:0:
160,342,23103,1,2,0:2:0:0:
99,268,23306,6,0,P|151:247|167:247,1,73.4999977569581,2|0,1:2|0:0,0:0:0:0:
240,184,23712,2,0,P|304:216|320:216,1,73.4999977569581,10|0,0:2|0:0,0:0:0:0:
364,290,24117,2,0,B|393:265|432:269|432:269|524:277,1,146.999995513916,2|8,1:2|0:2,0:0:0:0:
448,79,24928,6,0,L|356:71,2,73.4999977569581,2|2|10,1:2|0:2|0:2,0:0:0:0:
508,153,25536,2,0,B|479:178|440:174|440:174|348:166,1,146.999995513916,2|2,0:2|0:2,0:0:0:0:
272,160,26144,1,10,0:2:0:0:
272,160,26347,1,2,0:2:0:0:
266,255,26549,6,0,P|366:168|366:152,1,146.999995513916,6|8,1:2|0:2,0:0:0:0:
372,73,27158,1,2,0:2:0:0:
372,73,27360,2,0,P|272:160|272:176,1,146.999995513916,6|8,1:2|0:2,0:0:0:0:
456,249,28171,6,0,L|464:157,2,73.4999977569581,2|2|10,1:2|0:2|0:2,0:0:0:0:
382,309,28779,2,0,B|357:280|361:241|361:241|369:149,1,146.999995513916,2|2,0:2|0:2,0:0:0:0:
375,73,29387,1,10,0:2:0:0:
375,73,29590,1,2,0:2:0:0:
435,147,29793,6,0,P|383:168|367:168,1,73.4999977569581,2|0,1:2|0:0,0:0:0:0:
295,231,30198,2,0,P|231:199|215:199,1,73.4999977569581,10|0,0:2|0:0,0:0:0:0:
171,125,30603,2,0,B|142:150|103:146|103:146|11:138,1,146.999995513916,2|8,1:2|0:2,0:0:0:0:
87,336,31414,6,0,L|179:344,2,73.4999977569581,2|2|10,1:2|0:2|0:2,0:0:0:0:
27,262,32022,2,0,B|56:237|95:241|95:241|187:249,1,146.999995513916,2|2,1:2|1:2,0:0:0:0:
263,255,32631,1,10,0:2:0:0:
263,255,32833,1,2,1:2:0:0:
268,160,33036,5,2,1:2:0:0:
268,160,33441,2,0,L|276:68,1,73.4999977569581,2|0,1:2|0:0,0:0:0:0:
369,95,33847,2,0,B|363:168|363:168|360:207|331:232|331:232|302:257|299:296|299:296|291:388,1,293.999991027832,2|4,1:2|1:2,0:0:0:0:
388,370,34860,5,2,0:2:0:0:
388,370,35063,2,0,L|396:278,1,66.4999982242585,10|0,0:2|0:2,0:0:0:0:
444,234,35468,2,0,L|452:142,1,66.4999982242585,2|2,1:2|0:2,0:0:0:0:
454,127,35772,1,2,0:0:0:0:
454,127,35874,1,8,0:2:0:0:
368,119,36076,1,2,0:2:0:0:
368,119,36279,6,0,P|315:94|290:41,1,66.4999982242585,2|2,1:2|0:2,0:0:0:0:
244,144,36685,2,0,P|224:97|224:81,1,66.4999982242585,10|2,0:2|0:2,0:0:0:0:
138,74,37090,2,0,P|163:21|216:-4,1,66.4999982242585,2|2,1:2|0:2,0:0:0:0:
188,4,37394,1,2,0:0:0:0:
188,4,37495,1,8,0:2:0:0:
224,82,37698,1,0,0:2:0:0:
138,74,37901,6,0,L|46:66,1,66.4999982242585,0|2,1:2|0:2,0:0:0:0:
97,157,38306,2,0,L|189:165,1,66.4999982242585,10|2,0:2|0:2,0:0:0:0:
122,246,38712,2,0,L|30:238,1,66.4999982242585,2|2,1:2|0:2,0:0:0:0:
81,329,39117,2,0,L|173:337,1,66.4999982242585,10|2,0:2|0:2,0:0:0:0:
238,343,39522,5,2,1:2:0:0:
279,260,39725,1,2,1:2:0:0:
254,171,39928,2,0,L|262:79,1,70,2|10,1:2|0:3,0:0:0:0:
181,24,40333,1,2,1:2:0:0:
140,107,40536,1,10,0:3:0:0:
165,196,40739,2,0,L|157:288,1,70,10|10,0:3|0:3,0:0:0:0:
151,352,41144,5,0,1:2:0:0:
151,352,41347,1,2,0:2:0:0:
65,344,41549,2,0,L|73:252,1,66.4999982242585,10|2,0:2|0:2,0:0:0:0:
35,200,41955,2,0,L|43:108,1,66.4999982242585,2|2,1:2|0:2,0:0:0:0:
45,93,42259,1,2,0:0:0:0:
45,93,42360,1,8,0:2:0:0:
131,101,42563,1,2,0:2:0:0:
131,101,42766,6,0,P|147:101|200:76,1,66.4999982242585,2|2,1:2|0:2,0:0:0:0:
248,148,43171,2,0,P|279:90|279:74,1,66.4999982242585,10|2,0:2|0:2,0:0:0:0:
365,99,43576,2,0,P|365:83|340:30,1,66.4999982242585,2|2,1:2|0:2,0:0:0:0:
329,21,43881,1,2,0:0:0:0:
329,21,43982,1,8,0:2:0:0:
278,90,44185,1,8,0:3:0:0:
282,94,44286,1,8,0:3:0:0:
286,98,44387,6,0,L|470:114,1,140,8|10,1:3|0:2,0:0:0:0:
501,163,44995,1,2,0:2:0:0:
418,202,45198,2,0,L|326:194,1,70,2|2,1:2|0:2,0:0:0:0:
278,255,45603,2,0,L|186:247,1,70,10|2,0:2|0:2,0:0:0:0:
149,179,46009,6,0,L|57:171,2,70,2|2|2,1:2|1:2|1:2,0:0:0:0:
219,120,46617,1,2,1:2:0:0:
219,120,47631,6,0,B|225:58|225:58|228:25|252:3,1,125.999996154785,2|0,1:2|0:0,0:0:0:0:
306,65,48239,1,2,1:2:0:0:
306,65,48442,2,0,L|298:157,1,62.9999980773926,2|0,1:2|0:0,0:0:0:0:
294,209,48847,1,10,0:2:0:0:
294,209,49050,1,2,0:2:0:0:
374,213,49252,6,0,P|300:127|286:127,1,125.999996154785,2|2,1:2|0:2,0:0:0:0:
294,209,49860,1,2,1:2:0:0:
294,209,50063,2,0,P|368:295|382:295,1,125.999996154785,2|8,1:2|0:2,0:0:0:0:
382,135,50874,6,0,B|387:72|387:72|389:39|369:13,1,125.999996154785,2|0,1:2|0:0,0:0:0:0:
306,65,51482,1,2,1:2:0:0:
306,65,51684,2,0,L|298:157,1,62.9999980773926,2|2,1:2|0:2,0:0:0:0:
294,209,52090,1,10,0:2:0:0:
294,209,52292,1,2,0:2:0:0:
212,199,52495,6,0,P|286:127|300:127,1,125.999996154785,2|2,1:2|0:2,0:0:0:0:
294,209,53103,1,2,1:2:0:0:
294,209,53306,2,0,P|220:281|206:281,1,125.999996154785,2|8,1:2|0:2,0:0:0:0:
30,195,54117,6,0,L|22:287,1,70,2|2,1:2|0:2,0:0:0:0:
112,308,54523,2,0,L|120:216,1,70,2|2,0:2|0:2,0:0:0:0:
189,181,54928,1,10,0:2:0:0:
189,181,55333,6,0,L|181:89,1,70,2|2,1:2|0:2,0:0:0:0:
271,68,55739,2,0,L|279:160,1,70,2|2,0:2|0:2,0:0:0:0:
348,195,56144,1,10,0:2:0:0:
348,195,56549,6,0,B|370:166|368:130|368:130|360:38,1,140,2|2,1:2|0:2,0:0:0:0:
453,52,57158,1,2,0:2:0:0:
460,133,57360,5,4,1:2:0:0:
460,133,57462,2,0,L|468:225,1,62.9999980773926,0|0,0:0|0:0,0:0:0:0:
469,237,57766,1,0,0:0:0:0:
340,122,58171,1,4,1:2:0:0:
340,122,58272,2,0,L|348:30,1,66.4999982242585,0|0,0:0|0:0,0:0:0:0:
350,12,58576,1,0,0:0:0:0:
214,133,58982,5,4,1:2:0:0:
214,133,59083,2,0,L|222:225,1,70,0|0,0:0|0:0,0:0:0:0:
224,248,59387,1,0,0:0:0:0:
81,121,59793,1,4,1:2:0:0:
81,121,59894,2,0,L|89:29,1,73.4999977569581,0|0,0:0|0:0,0:0:0:0:
91,0,60198,1,0,0:0:0:0:
14,210,61820,6,0,B|72:226|72:226|164:218,1,120.750002303124,14|0,0:2|0:0,0:0:0:0:
168,185,62225,6,0,L|260:193,1,77.0000023498536,6|2,1:2|0:2,0:0:0:0:
345,201,62631,1,10,0:2:0:0:
408,279,62833,2,0,B|377:304|336:301|336:301|244:293,1,154.000004699707,2|2,0:2|0:2,0:0:0:0:
159,285,63441,1,10,0:2:0:0:
159,285,63644,1,2,0:2:0:0:
225,361,63847,6,0,P|259:294|259:276,1,77.0000023498536,2|2,1:2|0:2,0:0:0:0:
359,301,64252,2,0,P|353:259|294:200,1,77.0000023498536,10|2,0:2|0:2,0:0:0:0:
412,164,64658,2,0,B|385:135|345:130|345:130|253:122,1,154.000004699707,2|8,1:2|0:2,0:0:0:0:
168,114,65266,1,2,0:2:0:0:
246,51,65468,6,0,P|268:105|268:123,1,77.0000023498536,2|2,1:2|0:2,0:0:0:0:
259,223,65874,1,10,0:2:0:0:
325,299,66076,2,0,B|354:272|359:232|359:232|367:140,1,154.000004699707,2|2,0:2|0:2,0:0:0:0:
375,55,66685,1,10,0:2:0:0:
375,55,66887,1,2,1:2:0:0:
437,133,67090,6,0,P|383:155|365:155,1,77.0000023498536,2|2,1:2|1:2,0:0:0:0:
266,146,67495,1,10,0:2:0:0:
190,212,67698,2,0,B|217:241|257:246|257:246|349:254,1,154.000004699707,6|8,1:2|0:3,0:0:0:0:
425,210,68306,1,8,0:3:0:0:
343,153,68509,1,8,0:3:0:0:
343,153,68610,1,8,0:3:0:0:
343,153,68712,6,0,L|251:145,1,77.0000023498536,2|2,1:2|0:2,0:0:0:0:
166,137,69117,1,14,0:2:0:0:
90,203,69320,2,0,B|117:232|157:237|157:237|249:245,1,154.000004699707,2|2,0:2|0:2,0:0:0:0:
334,253,69928,1,10,0:2:0:0:
334,253,70131,1,2,0:2:0:0:
255,315,70333,6,0,P|233:261|233:243,1,77.0000023498536,2|2,1:2|0:2,0:0:0:0:
134,233,70739,2,0,P|163:173|225:144,1,77.0000023498536,10|2,0:2|0:2,0:0:0:0:
107,89,71144,2,0,B|138:64|179:67|179:67|271:75,1,154.000004699707,2|8,1:2|0:2,0:0:0:0:
356,83,71752,1,2,0:2:0:0:
290,7,71955,6,0,P|256:74|256:92,1,77.0000023498536,2|2,1:2|0:2,0:0:0:0:
247,174,72360,1,10,0:2:0:0:
169,237,72563,2,0,B|144:206|147:165|147:165|155:73,1,154.000004699707,2|2,1:2|1:2,0:0:0:0:
247,174,73171,1,10,0:2:0:0:
247,174,73374,6,0,B|272:205|269:246|269:246|266:287|291:318,1,154.000004699707,6|8,1:2|0:3,0:0:0:0:
366,384,73982,1,8,0:3:0:0:
366,384,74185,1,8,1:3:0:0:
461,352,74387,5,2,1:2:0:0:
429,257,74590,1,2,1:2:0:0:
495,182,74793,2,0,B|437:166|437:166|345:174,1,120.750002303124,2|0,1:2|1:2,0:0:0:0:
341,207,75198,6,0,L|249:199,1,77.0000023498536,6|2,1:2|0:2,0:0:0:0:
164,191,75603,1,10,0:2:0:0:
88,257,75806,2,0,B|115:286|155:291|155:291|247:299,1,154.000004699707,2|2,0:2|0:2,0:0:0:0:
332,307,76414,1,10,0:2:0:0:
332,307,76617,1,2,0:2:0:0:
254,370,76820,6,0,P|232:316|232:298,1,77.0000023498536,2|2,1:2|0:2,0:0:0:0:
132,287,77225,2,0,P|161:227|223:198,1,77.0000023498536,10|2,0:2|0:2,0:0:0:0:
105,143,77631,2,0,B|136:118|177:121|177:121|269:129,1,154.000004699707,2|8,1:2|0:2,0:0:0:0:
354,137,78239,1,2,0:2:0:0:
288,61,78441,6,0,P|254:128|254:146,1,77.0000023498536,2|2,1:2|0:2,0:0:0:0:
245,228,78847,1,10,0:2:0:0:
167,291,79049,2,0,B|142:260|145:219|145:219|153:127,1,154.000004699707,2|2,0:2|0:2,0:0:0:0:
161,42,79658,1,10,0:2:0:0:
161,42,79860,1,2,1:2:0:0:
85,108,80063,6,0,P|152:142|170:142,1,77.0000023498536,2|2,1:2|1:2,0:0:0:0:
252,151,80468,1,10,0:2:0:0:
315,229,80671,2,0,B|284:254|243:251|243:251|151:243,1,154.000004699707,6|8,1:2|0:3,0:0:0:0:
166,244,81178,1,8,0:3:0:0:
166,244,81279,1,8,0:3:0:0:
175,144,81482,1,8,0:3:0:0:
175,144,81583,1,8,0:3:0:0:
175,144,81685,6,0,L|267:152,1,77.0000023498536,2|2,1:2|0:2,0:0:0:0:
352,160,82090,1,14,0:2:0:0:
415,238,82293,2,0,B|384:263|343:260|343:260|251:252,1,154.000004699707,2|2,0:2|0:2,0:0:0:0:
166,244,82901,1,10,0:2:0:0:
166,244,83104,1,2,0:2:0:0:
232,320,83306,6,0,P|266:253|266:235,1,77.0000023498536,2|2,1:2|0:2,0:0:0:0:
366,260,83712,2,0,P|360:218|301:159,1,77.0000023498536,10|2,0:2|0:2,0:0:0:0:
419,123,84117,2,0,B|392:94|352:89|352:89|260:81,1,154.000004699707,2|8,1:2|0:2,0:0:0:0:
175,73,84725,1,2,0:2:0:0:
253,10,84928,6,0,P|275:64|275:82,1,77.0000023498536,2|2,1:2|0:2,0:0:0:0:
266,178,85333,1,10,0:2:0:0:
332,254,85536,2,0,B|361:227|366:187|366:187|374:95,1,154.000004699707,2|2,1:2|1:2,0:0:0:0:
437,25,86144,1,10,0:2:0:0:
486,120,86347,6,0,B|428:125|428:125|368:109,1,115.50000352478,2|0,1:2|0:0,0:0:0:0:
325,97,86752,1,6,1:2:0:0:
254,168,86955,1,6,1:2:0:0:
157,142,87158,1,6,1:2:0:0:
131,45,87360,1,14,0:2:0:0:
