osu file format v14

[General]
AudioFilename: audio.mp3
AudioLeadIn: 0
PreviewTime: 62123
Countdown: 0
SampleSet: Soft
StackLeniency: 0.7
Mode: 0
LetterboxInBreaks: 0
WidescreenStoryboard: 0

[Editor]
DistanceSpacing: 1
BeatDivisor: 4
GridSize: 4
TimelineZoom: 1

[Metadata]
Title:Friend Shitai
TitleUnicode:ふ・れ・ん・ど・し・た・い
Artist:Takeya Yuki (CV: Minase Inori)
ArtistUnicode:丈槍由紀 (CV: 水瀬いのり)
Creator:Blitzifyyy
Version:Sanguine
Source:がっこうぐらし!
Tags:gakkou gurashi school live school-live op opening cut version tv size japanese anime living club takeya yuki 丈槍由紀 ebisuzawa kurumi 恵飛須沢胡桃 ozawa ari 小澤亜李 wakasa yuuri 若狭悠里 ichimichi mao M·A·O 市道真央 naoki miki 直樹美紀 takahashi rie 高橋李依 TheShadowOfDark Ayucchi Stormiverse Zan1to
BeatmapID:2177707
BeatmapSetID:1041991

[Difficulty]
HPDrainRate:6
CircleSize:4
OverallDifficulty:8
ApproachRate:8.6
SliderMultiplier:1.6
SliderTickRate:1

[Events]
//Background and Video events
0,0,"700454.jpg",0,0
Video,0,"video.avi"
//Break Periods
//Storyboard Layer 0 (Background)
//Storyboard Layer 1 (Fail)
//Storyboard Layer 2 (Pass)
//Storyboard Layer 3 (Foreground)
//Storyboard Layer 4 (Overlay)
//Storyboard Sound Samples

[TimingPoints]
604,405.405405405405,4,2,1,50,1,0
908,-100,4,2,1,5,0,0
1009,-100,4,2,1,50,0,0
1718,-100,4,2,1,5,0,0
1820,-100,4,2,1,50,0,0
2529,-100,4,2,1,5,0,0
2631,-100,4,2,1,50,0,0
3340,-100,4,2,1,5,0,0
3441,-100,4,2,1,50,0,0
3847,-100,4,2,1,40,0,0
4658,-100,4,2,1,50,0,0
5468,-100,4,2,1,60,0,0
6279,-100,4,2,1,70,0,0
8306,-100,4,2,3,70,0,0
8712,-100,4,2,1,70,0,1
20164,-100,4,2,1,5,0,1
20266,-100,4,2,1,70,0,1
20874,-100,4,2,3,70,0,0
21279,-133.333333333333,4,2,3,70,0,0
21583,-133.333333333333,4,2,3,70,0,0
21685,-100,4,2,1,50,0,0
33847,-133.333333333333,4,2,1,50,0,0
34658,-125,4,2,2,60,0,0
47631,-142.857142857143,4,2,1,40,0,0
54117,-142.857142857143,4,2,1,50,0,0
57360,-100,4,2,1,40,0,0
58171,-100,4,2,1,50,0,0
58982,-100,4,2,1,60,0,0
59793,-100,4,2,1,70,0,0
61820,-100,4,2,3,70,0,0
62225,-83.3333333333333,4,2,1,70,0,1
87360,-83.3333333333333,4,2,3,70,0,0

[Colours]
Combo1 : 164,100,240
Combo2 : 230,110,150
Combo3 : 100,200,200
Combo4 : 130,120,255

[HitObjects]
58,131,604,6,0,P|112:111|179:143,1,120,0|0,1:2|0:0,0:0:0:0:
219,187,1009,2,0,L|214:288,1,80,8|0,0:2|0:0,0:0:0:0:
312,118,1414,6,0,L|463:111,1,120,0|0,1:2|0:0,0:0:0:0:
510,151,1820,2,0,P|517:199|502:243,1,80,8|0,0:2|0:0,0:0:0:0:
399,342,2225,6,0,B|338:319|338:364|258:337,1,120,0|0,1:2|0:0,0:0:0:0:
213,301,2631,2,0,L|217:215,1,80,8|0,0:2|0:0,0:0:0:0:
397,86,3036,6,0,P|341:118|262:100,1,120,0|0,1:2|0:0,0:0:0:0:
209,58,3441,2,0,P|163:58|119:84,1,80,8|0,0:2|0:0,0:0:0:0:
55,229,3847,6,0,L|59:290,3,40,4|0|0|0,1:2|0:0|0:0|0:0,0:0:0:0:
116,163,4252,2,0,P|155:149|210:156,1,80,8|0,0:2|0:0,0:0:0:0:
348,263,4658,6,0,L|357:308,3,40,4|0|0|0,1:2|0:0|0:0|0:0,0:0:0:0:
272,199,5063,2,0,L|277:104,1,80,8|0,0:2|0:0,0:0:0:0:
418,22,5468,6,0,L|369:19,3,40,4|0|0|0,1:2|0:0|0:0|0:0,0:0:0:0:
485,90,5874,2,0,P|498:148|488:190,1,80,8|0,0:2|0:0,0:0:0:0:
447,314,6279,6,0,L|458:355,3,40,4|0|0|0,1:2|0:0|0:0|0:0,0:0:0:0:
364,268,6685,2,0,B|289:228|287:300|207:280,1,160,8|0,0:2|0:0,0:0:0:0:
226,124,7293,6,0,L|234:229,1,80,2|2,0:2|0:2,0:0:0:0:
127,89,7698,1,2,0:2:0:0:
127,89,7901,2,0,L|135:-16,1,80,2|0,0:2|0:0,0:0:0:0:
117,189,8306,1,14,0:2:0:0:
117,189,8712,6,0,L|125:96,1,80,6|2,1:2|0:2,0:0:0:0:
243,220,9117,1,10,0:2:0:0:
39,168,9320,2,0,B|44:94|44:94|57:78|57:78|60:7,1,160,2|2,0:2|0:2,0:0:0:0:
201,107,9928,2,0,P|152:115|121:108,1,80,10|2,0:2|0:2,0:0:0:0:
247,25,10333,5,2,1:2:0:0:
314,152,10536,1,2,0:2:0:0:
343,44,10739,1,10,0:2:0:0:
201,107,10941,1,2,0:2:0:0:
292,262,11144,1,2,1:2:0:0:
399,189,11347,1,0,0:2:0:0:
253,332,11549,2,0,P|291:340|342:324,1,80,8|2,0:2|0:2,0:0:0:0:
192,221,11955,6,0,L|168:330,1,80,2|2,1:2|0:2,0:0:0:0:
96,165,12360,1,10,0:2:0:0:
287,175,12563,2,0,L|248:349,1,160,2|2,0:2|0:2,0:0:0:0:
96,165,13171,2,0,P|119:129|169:117,1,80,10|2,0:2|1:2,0:0:0:0:
231,101,13475,1,0,1:2:0:0:
231,101,13576,5,6,1:2:0:0:
176,195,13779,1,2,1:2:0:0:
121,34,13982,1,10,0:2:0:0:
293,147,14185,2,0,B|375:129|371:190|452:174,1,160,6|8,1:2|0:3,0:0:0:0:
510,138,14691,1,8,0:3:0:0:
510,138,14793,1,8,0:3:0:0:
405,59,14995,1,8,0:3:0:0:
327,218,15198,6,0,P|316:269|328:308,1,80,2|2,1:2|0:2,0:0:0:0:
435,261,15603,1,14,0:2:0:0:
253,186,15806,2,0,P|233:276|254:345,1,160,2|2,0:2|0:2,0:0:0:0:
435,261,16414,2,0,P|395:253|350:259,1,80,10|2,0:2|0:2,0:0:0:0:
251,339,16820,5,2,1:2:0:0:
253,186,17022,1,2,0:2:0:0:
138,275,17225,1,10,0:2:0:0:
135,125,17428,1,2,0:2:0:0:
254,265,17631,1,2,1:2:0:0:
335,144,17833,1,0,0:2:0:0:
335,144,17935,1,0,0:0:0:0:
335,144,18036,2,0,L|421:137,1,80,8|2,0:2|0:2,0:0:0:0:
252,107,18441,6,0,P|248:148|267:194,1,80,2|2,1:2|0:2,0:0:0:0:
354,98,18847,1,10,0:2:0:0:
260,25,19049,2,0,B|183:10|191:94|96:75,1,160,2|2,1:2|1:2,0:0:0:0:
16,22,19658,1,10,0:2:0:0:
28,174,19860,2,0,P|98:153|99:79,1,120,6|0,1:2|1:0,0:0:0:0:
115,77,20266,1,6,1:2:0:0:
153,231,20468,5,6,1:2:0:0:
222,72,20671,1,6,1:2:0:0:
251,308,20874,1,14,0:2:0:0:
251,308,21279,2,0,P|213:314|179:351,1,90.0000034332277,0|0,0:0|0:0,0:0:0:0:
151,380,21685,6,0,L|146:285,1,80,2|2,1:2|0:2,0:0:0:0:
18,190,22090,1,10,0:2:0:0:
0,271,22293,2,0,B|85:285|68:216|145:218,1,160,2|2,0:2|0:2,0:0:0:0:
279,262,22901,2,0,L|283:346,1,80,10|2,0:2|0:2,0:0:0:0:
415,223,23306,6,0,P|373:200|322:206,1,80,2|0,1:2|0:0,0:0:0:0:
429,101,23712,2,0,P|471:78|522:84,1,80,10|0,0:2|0:0,0:0:0:0:
317,47,24117,1,2,1:2:0:0:
341,199,24320,1,0,0:0:0:0:
214,76,24522,2,0,P|173:69|128:80,1,80,8|0,0:2|0:0,0:0:0:0:
58,141,24826,1,0,0:0:0:0:
58,141,24928,6,0,L|59:224,1,80,2|2,1:2|0:2,0:0:0:0:
110,322,25333,1,10,0:2:0:0:
187,218,25536,2,0,P|197:162|149:208,1,160,2|2,0:2|0:2,0:0:0:0:
208,315,26144,1,10,0:2:0:0:
328,205,26347,1,2,0:2:0:0:
328,205,26448,1,0,0:0:0:0:
328,205,26549,5,6,1:2:0:0:
145,201,26752,1,0,0:0:0:0:
254,380,26955,1,8,0:2:0:0:
328,205,27158,1,2,0:2:0:0:
328,205,27259,1,0,0:0:0:0:
328,205,27360,2,0,L|324:108,1,80,6|8,1:2|0:2,0:0:0:0:
285,44,27664,1,8,0:2:0:0:
285,44,27766,1,8,0:2:0:0:
233,161,27968,1,8,0:2:0:0:
109,25,28171,6,0,P|97:70|105:115,1,80,2|2,1:2|0:2,0:0:0:0:
196,39,28576,1,10,0:2:0:0:
76,180,28779,2,0,B|125:176|125:176|154:162|154:162|239:160,1,160,2|2,0:2|0:2,0:0:0:0:
316,151,29286,1,0,0:0:0:0:
316,151,29387,1,10,0:2:0:0:
215,64,29590,1,2,0:2:0:0:
385,109,29793,6,0,P|399:141|388:200,1,80,2|0,1:2|0:0,0:0:0:0:
484,18,30198,2,0,P|470:50|481:109,1,80,10|0,0:2|0:0,0:0:0:0:
376,26,30603,2,0,L|286:28,1,80,2|0,1:2|0:0,0:0:0:0:
221,80,30908,1,0,0:0:0:0:
221,80,31009,1,8,0:2:0:0:
320,155,31212,1,0,0:0:0:0:
158,216,31414,6,0,P|202:222|244:209,1,80,2|2,1:2|0:2,0:0:0:0:
109,122,31820,1,10,0:2:0:0:
88,295,32022,2,0,P|170:272|152:211,1,160,2|2,1:2|1:2,0:0:0:0:
20,249,32631,1,10,0:2:0:0:
35,353,32833,1,2,1:2:0:0:
30,138,33036,6,0,L|118:119,1,80,2|0,1:2|0:0,0:0:0:0:
229,49,33441,2,0,L|141:30,1,80,2|0,1:2|0:0,0:0:0:0:
289,140,33847,2,0,B|313:229|250:231|286:325,1,180.000006866455,2|0,1:2|0:0,0:0:0:0:
144,169,34658,6,0,L|211:174,1,64,4|2,1:2|0:2,0:0:0:0:
66,70,35063,2,0,L|133:65,1,64,10|0,0:2|0:2,0:0:0:0:
171,64,35367,1,0,0:0:0:0:
171,64,35468,1,2,1:2:0:0:
39,212,35671,2,0,P|21:183|28:128,1,64,2|8,0:2|0:2,0:0:0:0:
134,205,36076,1,2,0:2:0:0:
36,314,36279,6,0,L|106:307,1,64,2|2,1:2|0:2,0:0:0:0:
150,187,36685,2,0,L|220:194,1,64,10|2,0:2|0:2,0:0:0:0:
254,200,36989,1,0,0:0:0:0:
254,200,37090,1,2,1:2:0:0:
250,48,37293,2,0,P|261:82|292:109,1,64,2|8,0:2|0:2,0:0:0:0:
352,27,37698,1,0,0:2:0:0:
417,126,37901,6,0,L|412:203,1,64,0|2,1:2|0:2,0:0:0:0:
325,287,38306,2,0,L|320:210,1,64,10|2,0:2|0:2,0:0:0:0:
314,177,38610,1,0,0:0:0:0:
314,177,38712,1,2,1:2:0:0:
199,248,38914,1,2,0:2:0:0:
201,63,39117,1,10,0:2:0:0:
287,102,39320,1,2,0:2:0:0:
132,173,39522,5,2,1:2:0:0:
296,231,39725,1,2,1:2:0:0:
128,297,39928,1,2,1:2:0:0:
222,140,40131,1,10,0:3:0:0:
236,300,40333,5,2,1:2:0:0:
78,237,40536,1,10,0:3:0:0:
158,384,40739,1,10,0:3:0:0:
194,224,40941,1,10,0:3:0:0:
256,376,41144,6,0,P|292:381|329:373,1,64,0|2,1:2|0:2,0:0:0:0:
442,278,41549,2,0,P|406:273|369:281,1,64,10|2,0:2|0:2,0:0:0:0:
340,292,41853,1,0,0:0:0:0:
340,292,41955,1,2,1:2:0:0:
446,134,42158,2,0,L|452:206,1,64,2|8,0:2|0:2,0:0:0:0:
344,136,42563,1,2,0:2:0:0:
439,50,42766,6,0,P|478:52|503:70,1,64,2|2,1:2|0:2,0:0:0:0:
289,38,43171,2,0,P|328:36|353:18,1,64,10|2,0:2|0:2,0:0:0:0:
384,1,43475,1,0,0:0:0:0:
384,1,43577,1,2,1:2:0:0:
251,177,43779,2,0,L|247:105,1,64,2|8,0:2|0:2,0:0:0:0:
371,259,44185,1,8,0:3:0:0:
371,259,44286,1,8,0:3:0:0:
371,259,44387,6,0,P|337:268|306:263,1,64,8|2,1:3|0:2,0:0:0:0:
424,150,44793,1,10,0:2:0:0:
479,276,44995,1,2,0:2:0:0:
329,98,45198,2,0,L|337:176,1,64,2|2,1:2|0:2,0:0:0:0:
426,50,45603,1,10,0:2:0:0:
302,0,45806,1,2,0:2:0:0:
266,145,46009,5,2,1:2:0:0:
426,50,46212,1,2,1:2:0:0:
212,24,46414,1,2,1:2:0:0:
301,241,46617,1,2,1:2:0:0:
301,241,47022,2,0,P|342:233|378:240,2,64,2|2|2,0:2|0:2|0:2,0:0:0:0:
241,313,47631,6,0,B|182:346|194:301|122:338,1,111.999996582031,2|0,1:2|0:0,0:0:0:0:
42,375,48239,1,2,1:2:0:0:
0,281,48441,2,0,L|8:207,1,55.9999982910157,2|0,1:2|0:0,0:0:0:0:
85,145,48847,1,10,0:2:0:0:
85,145,49252,6,0,B|120:142|120:142|144:155|144:155|212:150,1,111.999996582031,2|2,1:2|0:2,0:0:0:0:
286,88,49860,1,2,1:2:0:0:
354,178,50063,2,0,P|358:211|344:253,1,55.9999982910157,2|0,1:2|0:0,0:0:0:0:
299,327,50468,1,8,0:2:0:0:
299,327,50874,6,0,L|419:322,1,111.999996582031,2|0,1:2|0:0,0:0:0:0:
483,254,51482,1,2,1:2:0:0:
402,180,51685,2,0,B|399:105,1,55.9999982910157,2|2,1:2|0:2,0:0:0:0:
469,24,52090,1,10,0:2:0:0:
469,24,52495,6,0,P|430:9|358:22,1,111.999996582031,2|2,1:2|0:2,0:0:0:0:
271,106,53103,1,2,1:2:0:0:
182,41,53306,2,0,L|109:47,1,55.9999982910157,2|0,1:2|0:0,0:0:0:0:
45,128,53712,1,8,0:2:0:0:
45,128,54117,5,2,1:2:0:0:
76,305,54320,1,2,0:2:0:0:
144,201,54522,1,2,0:2:0:0:
30,214,54725,1,2,0:2:0:0:
137,384,54928,1,10,0:2:0:0:
137,384,55333,5,2,1:2:0:0:
235,222,55536,1,2,0:2:0:0:
237,338,55739,1,2,0:2:0:0:
144,270,55941,1,2,0:2:0:0:
330,269,56144,1,10,0:2:0:0:
294,167,56347,1,2,0:2:0:0:
370,353,56549,6,0,B|431:333|429:373|493:359,1,111.999996582031,2|2,1:2|0:2,0:0:0:0:
330,269,57158,1,2,0:2:0:0:
437,210,57360,6,0,L|482:214,3,40,4|0|0|0,1:2|0:0|0:0|0:0,0:0:0:0:
361,138,57766,2,0,L|257:140,1,80,0|0,0:0|0:0,0:0:0:0:
139,91,58171,6,0,L|129:51,3,40,4|0|0|0,1:2|0:0|0:0|0:0,0:0:0:0:
207,166,58576,2,0,P|206:213|180:254,1,80,0|0,0:0|0:0,0:0:0:0:
66,301,58982,6,0,L|19:292,3,40,4|0|0|0,1:2|0:0|0:0|0:0,0:0:0:0:
135,362,59387,2,0,L|215:346,1,80,0|0,0:0|0:0,0:0:0:0:
291,268,59793,6,0,L|286:229,3,40,4|0|0|0,1:2|0:0|0:0|0:0,0:0:0:0:
363,360,60198,2,0,B|357:319|357:319|369:282|369:282|358:192,1,160,0|0,0:0|0:0,0:0:0:0:
214,257,60806,6,0,P|262:272|301:264,1,80,2|2,0:2|0:2,0:0:0:0:
213,160,61212,1,2,0:2:0:0:
213,160,61414,2,0,P|165:145|126:153,1,80,2|0,0:2|0:0,0:0:0:0:
310,91,61820,1,14,0:2:0:0:
310,91,62225,6,0,L|305:187,1,95.9999970703126,6|2,1:2|0:2,0:0:0:0:
206,69,62631,1,10,0:2:0:0:
395,4,62833,2,0,L|385:195,1,191.999994140625,2|2,0:2|0:2,0:0:0:0:
265,311,63441,2,0,P|306:278|356:279,1,95.9999970703126,10|2,0:2|0:2,0:0:0:0:
479,323,63847,5,2,1:2:0:0:
384,195,64049,1,2,0:2:0:0:
333,350,64252,1,10,0:2:0:0:
244,222,64455,1,2,0:2:0:0:
410,280,64658,1,2,1:2:0:0:
305,145,64860,1,0,0:2:0:0:
265,311,65063,2,0,P|222:331|171:318,1,95.9999970703126,8|2,0:2|0:2,0:0:0:0:
131,168,65468,6,0,L|124:266,1,95.9999970703126,2|2,1:2|0:2,0:0:0:0:
234,159,65874,1,10,0:2:0:0:
63,70,66076,2,0,L|48:263,1,191.999994140625,2|2,0:2|0:2,0:0:0:0:
209,384,66685,2,0,P|178:347|132:333,1,95.9999970703126,10|2,0:2|1:2,0:0:0:0:
48,344,66989,1,0,1:2:0:0:
48,344,67090,5,2,1:2:0:0:
192,135,67293,1,2,1:2:0:0:
196,277,67495,1,10,0:2:0:0:
6,137,67698,2,0,B|102:92|102:172|202:131,1,191.999994140625,6|8,1:2|0:3,0:0:0:0:
308,19,68306,1,8,0:3:0:0:
285,36,68407,1,8,0:0:0:0:
271,61,68508,1,8,0:3:0:0:
269,90,68610,1,8,0:3:0:0:
272,118,68712,6,0,P|302:153|362:160,1,95.9999970703126,2|2,1:2|0:2,0:0:0:0:
359,50,69117,1,14,0:2:0:0:
203,155,69320,2,0,P|259:220|372:234,1,191.999994140625,2|2,0:2|0:2,0:0:0:0:
494,106,69928,2,0,P|449:137|444:193,1,95.9999970703126,10|2,0:2|0:2,0:0:0:0:
470,342,70333,5,2,1:2:0:0:
359,237,70536,1,2,0:2:0:0:
355,384,70739,1,10,0:2:0:0:
447,253,70941,1,2,0:2:0:0:
290,315,71144,1,2,1:2:0:0:
299,160,71347,1,0,0:0:0:0:
213,362,71549,2,0,L|106:358,1,95.9999970703126,8|2,0:2|0:2,0:0:0:0:
243,198,71955,6,0,P|255:255|244:294,1,95.9999970703126,2|2,1:2|0:2,0:0:0:0:
136,205,72360,1,10,0:2:0:0:
318,155,72563,2,0,P|341:266|319:342,1,191.999994140625,2|2,1:2|1:2,0:0:0:0:
217,247,73171,1,10,0:2:0:0:
318,155,73374,6,0,B|427:185|397:91|501:104,1,191.999994140625,6|8,1:2|0:3,0:0:0:0:
479,187,73881,1,8,0:3:0:0:
479,187,73982,1,8,0:3:0:0:
355,75,74185,1,8,1:3:0:0:
371,264,74387,5,2,1:2:0:0:
492,103,74590,1,2,1:2:0:0:
383,359,74793,2,0,L|369:253,1,95.9999970703126,2|0,1:2|1:2,0:0:0:0:
168,293,75198,6,0,P|219:305|265:292,1,95.9999970703126,6|2,1:2|0:2,0:0:0:0:
147,204,75603,1,10,0:2:0:0:
121,359,75806,2,0,P|221:382|311:357,1,191.999994140625,2|2,0:2|0:2,0:0:0:0:
415,243,76414,2,0,P|388:284|420:355,1,95.9999970703126,10|2,0:2|0:2,0:0:0:0:
506,209,76820,5,2,1:2:0:0:
390,87,77022,1,2,0:2:0:0:
415,243,77225,1,10,0:2:0:0:
493,107,77428,1,2,0:2:0:0:
365,15,77631,1,2,1:2:0:0:
440,170,77833,1,0,0:0:0:0:
295,191,78036,2,0,P|243:192|187:161,1,95.9999970703126,8|2,0:2|0:2,0:0:0:0:
369,90,78441,6,0,L|374:193,1,95.9999970703126,2|2,1:2|0:2,0:0:0:0:
458,59,78847,1,10,0:2:0:0:
286,0,79049,2,0,L|295:192,1,191.999994140625,2|2,0:2|0:2,0:0:0:0:
422,327,79658,2,0,P|386:290|317:288,1,95.9999970703126,10|2,0:2|1:2,0:0:0:0:
272,293,79962,1,0,1:2:0:0:
272,293,80063,5,2,1:2:0:0:
430,194,80266,1,2,1:2:0:0:
337,374,80468,1,10,0:2:0:0:
242,181,80671,2,0,B|300:179|300:179|333:196|333:196|434:193,1,191.999994140625,6|8,1:2|0:3,0:0:0:0:
512,190,81178,1,8,0:3:0:0:
512,190,81279,1,8,0:3:0:0:
340,104,81482,1,8,0:3:0:0:
340,104,81583,1,8,0:3:0:0:
340,104,81685,6,0,L|239:106,1,95.9999970703126,2|2,1:2|0:2,0:0:0:0:
353,193,82090,1,14,0:2:0:0:
428,23,82293,2,0,L|233:26,1,191.999994140625,2|2,0:2|0:2,0:0:0:0:
95,133,82901,2,0,P|130:106|139:43,1,95.9999970703126,10|2,0:2|0:2,0:0:0:0:
51,251,83306,5,2,1:2:0:0:
54,55,83509,1,2,0:2:0:0:
192,207,83712,1,10,0:2:0:0:
19,150,83914,1,2,0:2:0:0:
181,77,84117,1,2,1:2:0:0:
251,265,84320,2,0,P|273:220|263:164,1,95.9999970703126,0|8,0:2|0:2,0:0:0:0:
181,77,84725,1,2,0:2:0:0:
352,101,84928,6,0,L|453:98,1,95.9999970703126,2|2,1:2|0:2,0:0:0:0:
382,203,85333,1,10,0:2:0:0:
259,28,85536,2,0,L|458:22,1,191.999994140625,2|2,1:2|1:2,0:0:0:0:
489,183,86144,1,10,0:2:0:0:
302,248,86347,2,0,P|290:201|314:150,1,95.9999970703126,2|0,1:2|0:0,0:0:0:0:
394,325,86752,5,6,1:2:0:0:
314,144,86955,1,6,1:2:0:0:
257,384,87158,1,6,1:2:0:0:
486,281,87360,1,14,0:2:0:0:
