osu file format v14

[General]
AudioFilename: audio.mp3
AudioLeadIn: 0
PreviewTime: 54616
Countdown: 0
SampleSet: Soft
StackLeniency: 0.5
Mode: 0
LetterboxInBreaks: 0
WidescreenStoryboard: 1

[Editor]
DistanceSpacing: 1
BeatDivisor: 4
GridSize: 32
TimelineZoom: 2.2

[Metadata]
Title:Pink no Heart Ball
TitleUnicode:ピンクのハートボール
Artist:Takeya Yuki (CV: Minase Inori) & Naoki Miki (CV: Takahashi Rie)
ArtistUnicode:丈槍由紀 (CV: 水瀬いのり) & 直樹美紀 (CV: 高橋李依)
Creator:xHappy-
Version:Lost's Friendship
Source:がっこうぐらし!
Tags:school live gakkou gurashi! character song sotsugyou album graduate 卒業あるばむ anime japanese p_kung [_lost_] conner c_o_n_n_e_r typ4
BeatmapID:2158249
BeatmapSetID:1011236

[Difficulty]
HPDrainRate:6
CircleSize:4
OverallDifficulty:8
ApproachRate:9
SliderMultiplier:1.69
SliderTickRate:1

[Events]
//Background and Video events
0,0,"bg.jpg",0,0
//Break Periods
//Storyboard Layer 0 (Background)
//Storyboard Layer 1 (Fail)
//Storyboard Layer 2 (Pass)
//Storyboard Layer 3 (Foreground)
//Storyboard Layer 4 (Overlay)
//Storyboard Sound Samples

[TimingPoints]
420,357.142857142857,4,2,1,50,1,0
420,-100,4,2,1,50,0,0
777,-100,4,2,1,42,0,0
1134,-100,4,2,1,34,0,0
1491,-100,4,2,1,26,0,0
1937,-100,4,2,1,5,0,0
2027,-100,4,2,1,50,0,0
2205,-100,4,2,1,52,0,0
2384,-100,4,2,1,54,0,0
2562,-100,4,2,1,56,0,0
2741,-100,4,2,1,58,0,0
2919,-58.8235294117647,4,2,1,60,0,0
3187,-58.8235294117647,4,2,1,5,0,0
3277,-74.0740740740741,4,2,1,70,0,0
5687,-74.0740740740741,4,2,1,5,0,0
5777,-74.0740740740741,4,2,1,70,0,0
11759,-74.0740740740741,4,2,1,5,0,0
11848,-74.0740740740741,4,2,1,70,0,0
14705,-86.9565217391306,4,2,1,65,0,0
14794,-86.9565217391306,4,2,2,65,0,0
17205,-117.647058823529,4,2,2,65,0,0
17473,-117.647058823529,4,2,2,5,0,0
17562,-86.9565217391306,4,2,2,65,0,0
19705,-86.9565217391303,4,2,2,65,0,0
19973,-86.9565217391303,4,2,2,5,0,0
20062,-105.263157894737,4,2,2,30,0,0
20330,-105.263157894737,4,2,2,5,0,0
20419,-90.9090909090908,4,2,1,60,0,0
28991,-80.0000000000001,4,2,1,65,0,0
30598,-80.0000000000003,4,2,1,55,0,0
30955,-80.0000000000001,4,2,1,65,0,0
31402,-80.0000000000001,4,2,1,5,0,0
31491,-80.0000000000001,4,2,1,65,0,0
31580,-80.0000000000001,4,2,1,45,0,0
31848,-90.9090909090909,4,2,1,60,0,0
37473,-90.9090909090908,4,2,1,5,0,0
37562,-90.9090909090908,4,2,1,60,0,0
40419,-105.263157894737,4,2,1,55,0,0
41937,-105.263157894737,4,2,1,5,0,0
42027,-105.263157894737,4,2,1,55,0,0
42294,-105.263157894737,4,2,1,5,0,0
42384,-105.263157894737,4,2,1,55,0,0
42652,-86.9565217391303,4,2,1,25,0,0
42741,-86.9565217391303,4,2,1,35,0,0
42830,-86.9565217391303,4,2,1,45,0,0
42919,-86.9565217391303,4,2,1,55,0,0
43277,-74.0740740740741,4,2,1,70,0,0
52027,-66.6666666666667,4,2,1,70,0,0
52562,-76.9230769230769,4,2,1,70,0,0
53098,-90.9090909090909,4,2,1,70,0,0
53544,-90.9090909090909,4,2,1,5,0,0
53634,-90.9090909090909,4,2,1,70,0,0
54169,-116.279069767442,4,2,1,80,0,0
54705,-69.9300699300699,4,2,1,80,0,1
57205,-69.9300699300699,4,2,1,90,0,1
57562,-69.9300699300699,4,2,1,95,0,1
57830,-69.9300699300699,4,2,1,5,0,1
57919,-69.9300699300699,4,2,1,80,0,1
58991,-69.9300699300699,4,2,1,85,0,1
60419,-69.9300699300699,4,2,1,80,0,1
60687,-69.9300699300699,4,2,1,5,0,1
60777,-69.9300699300699,4,2,1,80,0,1
61848,-69.9300699300699,4,2,1,75,0,1
62205,-69.9300699300699,4,2,1,70,0,1
62562,-69.9300699300699,4,2,1,75,0,1
62919,-69.9300699300699,4,2,1,80,0,1
63277,-83.3333333333333,4,2,1,90,0,1
63991,-73.5294117647059,4,2,1,80,0,1
64527,-62.5,4,2,1,95,0,1
64794,-62.5,4,2,1,5,0,1
64884,-62.5,4,2,1,90,0,1
65777,-62.5,4,2,1,80,0,0
66134,-69.9300699300699,4,2,1,80,0,1
68634,-69.9300699300699,4,2,1,90,0,1
68991,-69.9300699300699,4,2,1,95,0,1
69259,-69.9300699300699,4,2,1,5,0,1
69348,-69.9300699300699,4,2,1,80,0,1
70419,-69.9300699300699,4,2,1,90,0,1
71848,-81.3008130081301,4,2,1,80,0,1
71967,-81.3008130081301,4,2,1,5,0,1
72086,-81.3008130081301,4,2,1,80,0,1
72205,-81.3008130081301,4,2,1,5,0,1
72324,-81.3008130081301,4,2,1,80,0,1
72443,-81.3008130081301,4,2,1,5,0,1
72562,-81.3008130081301,4,2,1,80,0,1
72681,-81.3008130081301,4,2,1,5,0,1
72800,-81.3008130081301,4,2,1,80,0,1
72919,-81.3008130081301,4,2,1,5,0,1
73039,-81.3008130081301,4,2,1,80,0,1
73158,-81.3008130081301,4,2,1,5,0,1
73277,-81.3008130081301,4,2,1,80,0,1
73902,-81.3008130081301,4,2,1,5,0,1
73991,-81.3008130081301,4,2,1,80,0,1
74705,-69.9300699300699,4,2,1,80,0,1
79705,-181.818181818182,4,2,1,80,0,1
80419,-100,4,2,1,50,0,0
87919,400,4,2,1,50,1,0
88319,371.517027863777,4,2,1,50,1,0
89062,387.096774193548,4,2,1,30,1,0
89449,333.333333333333,4,2,1,27,1,8
89782,389.61038961039,4,2,1,24,1,8
90171,382.165605095541,4,2,1,21,1,8
90553,419.58041958042,4,2,1,21,1,8
90973,441.176470588235,4,2,1,16,1,8
91414,530.973451327434,4,2,1,14,1,8
91944,1048.03493449782,4,2,1,12,1,8
92992,983.606557377049,4,2,1,12,1,0
93176,833.333333333333,4,2,1,12,1,0
93280,714.285714285714,4,2,1,10,1,0

[Colours]
Combo1 : 102,132,253
Combo2 : 62,255,62
Combo3 : 88,199,252
Combo4 : 252,106,75

[HitObjects]
169,141,420,5,2,0:0:0:0:
169,141,509,1,0,0:0:0:0:
169,141,598,2,0,P|217:147|261:121,1,84.5,0|2,0:0|0:0,0:0:0:0:
323,63,955,1,0,0:0:0:0:
422,84,1134,2,0,L|419:41,2,42.25,2|0|0,0:0|0:0|0:0,0:0:0:0:
481,169,1491,1,2,0:0:0:0:
481,169,1580,1,0,0:0:0:0:
481,169,1669,2,0,B|478:295,1,126.75,2|0,0:0|0:0,0:0:0:0:
477,317,2027,5,2,0:0:0:0:
383,228,2205,1,2,0:0:0:0:
477,317,2384,1,2,0:0:0:0:
305,267,2562,1,2,0:0:0:0:
481,169,2741,1,2,0:0:0:0:
380,348,2919,6,0,B|338:376|285:348|287:299|234:277|176:310,1,215.47500410986,8|0,0:1|0:0,0:0:0:0:
118,358,3277,6,0,P|168:306|96:181,1,228.150000870323,6|8,1:2|0:0,0:0:0:0:
20,273,3812,1,2,1:2:0:0:
1,148,3991,2,0,B|45:177|101:148|99:95|156:72|217:107,1,228.150000870323,10|8,0:0|0:0,0:0:0:0:
383,26,4527,6,0,P|306:31|274:66,1,114.075000435162,2|8,1:2|0:0,0:0:0:0:
455,167,4884,2,0,P|392:121|345:127,1,114.075000435162,2|8,1:2|0:0,0:0:0:0:
302,209,5241,1,2,1:2:0:0:
387,365,5419,2,0,P|426:311|359:227,1,171.112500652742,10|0,0:0|0:0,0:0:0:0:
302,209,5777,2,0,L|231:234,1,57.0375002175808,10|0,0:0|0:0,0:0:0:0:
174,179,5955,2,0,L|103:154,1,57.0375002175808,2|2,1:2|0:0,0:0:0:0:
79,269,6134,6,0,B|123:239|179:269|177:321|234:344|295:309,1,228.150000870323,10|8,0:0|0:0,0:0:0:0:
331,198,6669,1,2,1:2:0:0:
272,86,6848,2,0,P|210:59|112:171,1,228.150000870323,10|8,0:0|0:0,0:0:0:0:
285,314,7384,6,0,P|298:256|279:202,1,114.075000435162,2|8,1:2|0:0,0:0:0:0:
188,264,7741,1,0,1:2:0:0:
367,343,7919,1,10,0:0:0:0:
480,143,8098,2,0,B|416:113|361:153|393:190|338:231|265:199,1,228.150000870323,2|2,1:2|1:2,0:0:0:0:
160,182,8634,1,10,0:0:0:0:
143,372,8812,1,10,0:0:0:0:
143,372,8902,1,8,0:0:0:0:
143,372,8991,6,0,P|87:329|137:203,1,228.150000870323,14|8,0:0|0:0,0:0:0:0:
213,93,9527,1,2,1:2:0:0:
91,64,9705,2,0,B|219:95|161:-11|314:15,1,228.150000870323,10|8,0:0|0:0,0:0:0:0:
512,0,10241,6,0,P|448:11|417:53,1,114.075000435162,2|8,1:2|0:0,0:0:0:0:
385,121,10598,1,2,1:2:0:0:
484,213,10777,1,8,0:0:0:0:
501,84,10955,1,2,1:2:0:0:
296,142,11134,2,0,L|426:133,1,114.075000435162,10|0,0:0|0:0,0:0:0:0:
484,235,11491,2,0,B|440:217|397:238|426:275|372:295|316:276,1,171.112500652742,10|0,0:0|0:0,0:0:0:0:
260,233,11848,5,10,0:0:0:0:
363,360,12027,1,2,0:0:0:0:
179,262,12205,1,8,0:0:0:0:
310,123,12384,1,2,1:2:0:0:
170,358,12562,5,8,0:0:0:0:
193,124,12741,1,2,0:0:0:0:
326,285,12919,1,8,0:0:0:0:
385,86,13098,6,0,P|347:45|292:40,1,114.075000435162,2|8,1:2|0:0,0:0:0:0:
188,154,13455,1,2,1:2:0:0:
110,24,13634,2,0,P|164:10|218:56,1,114.075000435162,10|2,0:0|1:2,0:0:0:0:
390,186,13991,2,0,P|329:179|291:221,1,114.075000435162,10|10,0:0|0:0,0:0:0:0:
255,289,14259,1,8,0:0:0:0:
237,304,14348,2,0,L|168:292,1,57.0375002175808,8|0,3:0|0:0,0:0:0:0:
126,218,14527,2,0,L|69:227,1,57.0375002175808,4|0,3:0|0:0,0:0:0:0:
80,331,14705,6,0,B|118:315|175:320|165:374|223:388|275:368,1,194.350003706932,6|8,1:2|0:0,0:0:0:0:
342,303,15241,1,2,1:2:0:0:
428,364,15419,2,0,B|479:338|479:338|468:178,1,194.350003706932,10|8,1:2|0:0,0:0:0:0:
398,122,15955,6,0,P|438:93|493:97,1,97.1750018534661,2|8,1:2|0:0,0:0:0:0:
332,203,16312,2,0,P|284:202|245:174,1,97.1750018534661,2|8,1:2|0:0,0:0:0:0:
228,68,16669,1,2,1:2:0:0:
151,234,16848,2,0,P|129:190|136:143,1,97.1750018534661,10|0,1:2|0:0,0:0:0:0:
306,48,17205,6,0,L|305:144,1,71.8250013699532,0|0,3:0|0:0,0:0:0:0:
306,120,17562,6,0,B|271:106|217:118|235:165|185:189|128:164,1,194.350003706932,2|8,1:2|0:0,0:0:0:0:
57,86,18098,1,2,1:2:0:0:
16,185,18277,2,0,P|90:176|114:277,1,194.350003706932,10|8,1:2|0:0,0:0:0:0:
42,352,18812,6,0,P|26:299|45:257,1,97.1750018534661,2|8,1:2|0:0,0:0:0:0:
205,314,19169,2,0,L|95:305,1,97.1750018534661,2|8,1:2|0:0,0:0:0:0:
201,229,19527,1,2,1:2:0:0:
291,352,19705,2,0,B|331:371|391:351|367:310|425:284|471:308,1,194.350003706932,10|0,1:2|0:0,0:0:0:0:
478,141,20419,6,0,P|388:155|340:82,1,185.900005673218,6|10,1:2|0:0,0:0:0:0:
258,23,20955,1,0,1:0:0:0:
171,77,21134,2,0,P|211:135|179:243,1,185.900005673218,2|10,0:2|0:0,0:0:0:0:
74,266,21669,6,0,P|110:244|163:248,1,92.950002836609,2|0,1:2|0:0,0:0:0:0:
132,336,22027,1,2,1:2:0:0:
4,311,22205,2,0,P|-11:253|7:216,1,92.950002836609,8|2,0:0|1:2,0:0:0:0:
76,169,22562,1,0,1:2:0:0:
76,169,22652,1,0,1:2:0:0:
76,169,22741,1,2,1:2:0:0:
4,17,22919,2,0,P|-11:75|7:112,1,92.950002836609,10|0,0:0|0:0,0:0:0:0:
76,169,23277,6,0,B|179:174|142:104|272:119,1,185.900005673218,2|10,1:2|0:0,0:0:0:0:
335,136,23812,1,0,1:0:0:0:
303,223,23991,2,0,P|219:207|194:295,1,185.900005673218,2|8,0:2|0:0,0:0:0:0:
382,295,24527,6,0,P|397:242|379:199,1,92.950002836609,2|0,1:2|0:0,0:0:0:0:
298,328,24884,1,2,1:2:0:0:
424,373,25062,2,0,P|476:354|492:313,1,92.950002836609,8|2,0:0|1:2,0:0:0:0:
303,223,25419,1,0,1:2:0:0:
303,223,25509,1,0,1:2:0:0:
303,223,25598,1,2,1:2:0:0:
190,287,25777,1,10,0:0:0:0:
298,328,25955,1,2,0:0:0:0:
115,364,26134,6,0,L|108:158,1,185.900005673218,2|8,1:2|0:0,0:0:0:0:
64,97,26669,1,2,1:2:0:0:
108,178,26848,2,0,B|156:188|198:164|192:126|234:108|283:126,1,185.900005673218,2|8,1:2|0:0,0:0:0:0:
339,226,27384,6,0,P|293:227|254:203,1,92.950002836609,0|0,1:2|0:0,0:0:0:0:
368,135,27741,1,0,1:0:0:0:
448,181,27919,2,0,P|459:225|448:270,1,92.950002836609,8|0,0:0|0:0,0:0:0:0:
377,331,28277,1,2,0:0:0:0:
339,226,28455,1,2,1:2:0:0:
448,270,28634,1,10,0:0:0:0:
284,319,28812,1,2,0:0:0:0:
457,373,28991,6,0,L|459:146,1,211.25,6|8,1:2|0:0,0:0:0:0:
413,65,29527,1,2,1:2:0:0:
309,45,29705,2,0,P|265:14|166:117,1,211.25,2|8,1:2|0:0,0:0:0:0:
63,136,30241,6,0,P|49:77|64:33,1,105.625,2|0,1:2|0:0,0:0:0:0:
143,187,30598,2,0,P|157:246|141:292,1,105.625,2|8,1:2|0:0,0:0:0:0:
50,237,30955,1,2,1:2:0:0:
143,187,31134,2,0,B|189:172|216:197|215:227|261:244|296:224,1,158.4375,2|0,1:2|0:0,0:0:0:0:
300,211,31491,2,0,B|310:157|310:157|289:96,1,105.625,8|0,0:0|0:0,0:0:0:0:
485,231,31848,6,0,P|408:228|365:318,1,185.900005673218,6|10,1:2|0:0,0:0:0:0:
294,376,32384,1,0,1:0:0:0:
216,330,32562,2,0,P|182:247|220:149,1,185.900005673218,2|10,0:2|0:0,0:0:0:0:
287,90,33098,6,0,P|293:31|282:-1,1,92.950002836609,2|0,1:2|0:0,0:0:0:0:
199,42,33455,1,2,1:2:0:0:
246,173,33634,2,0,L|358:161,1,92.950002836609,8|2,0:0|1:2,0:0:0:0:
144,106,33991,1,0,1:2:0:0:
144,106,34080,1,0,1:2:0:0:
144,106,34169,1,2,1:2:0:0:
71,164,34348,2,0,P|60:214|77:258,1,92.950002836609,10|0,0:0|0:0,0:0:0:0:
86,344,34705,6,0,B|154:338|154:338|190:352|190:352|285:344,1,185.900005673218,2|10,1:2|0:2,0:0:0:0:
339,284,35241,1,0,1:0:0:0:
414,347,35419,2,0,P|454:325|441:177,1,185.900005673218,2|10,0:2|0:0,0:0:0:0:
392,138,35955,6,0,P|380:91|394:47,1,92.950002836609,2|0,1:2|0:0,0:0:0:0:
471,98,36312,1,2,1:2:0:0:
337,198,36491,2,0,P|292:178|280:122,1,92.950002836609,8|2,0:0|1:2,0:0:0:0:
309,51,36848,1,0,1:2:0:0:
309,51,36937,1,0,1:2:0:0:
309,51,37027,1,2,1:2:0:0:
210,247,37205,2,0,L|202:95,1,139.425004254913,10|0,0:0|0:0,0:0:0:0:
192,86,37562,6,0,L|203:276,1,185.900005673218,2|8,1:2|0:0,0:0:0:0:
239,354,38098,1,2,1:2:0:0:
75,350,38277,2,0,P|95:288|205:273,1,185.900005673218,2|8,0:0|0:0,0:0:0:0:
340,354,38812,6,0,P|367:257|329:173,1,185.900005673218,2|2,1:2|1:2,0:0:0:0:
256,129,39348,2,0,P|244:179|261:228,1,92.950002836609,8|0,0:0|0:0,0:0:0:0:
374,106,39705,1,2,0:0:0:0:
374,106,39884,1,2,1:2:0:0:
273,17,40062,2,0,L|164:26,1,92.950002836609,10|0,0:0|0:0,0:0:0:0:
20,94,40419,6,0,B|53:79|96:89|93:124|137:141|179:113,1,160.549995712853,6|0,1:2|0:0,0:0:0:0:
148,32,40955,1,2,1:2:0:0:
46,164,41134,2,0,L|54:331,1,160.549995712853,10|0,0:0|0:0,0:0:0:0:
130,366,41669,6,0,P|158:318|231:318,1,120.412496784639,2|0,1:2|0:0,0:0:0:0:
230,300,42027,2,0,P|294:305|335:358,1,120.412496784639,2|0,1:2|0:0,0:0:0:0:
346,357,42384,1,10,0:0:0:0:
479,241,42562,5,2,1:2:0:0:
461,232,42651,1,8,0:0:0:0:
444,223,42740,1,8,0:0:0:0:
427,214,42829,1,8,0:0:0:0:
410,205,42919,2,0,L|419:315,1,97.1750018534661,8|4,3:0|3:0,0:0:0:0:
512,122,43277,6,0,B|463:105|417:133|422:171|381:211|301:185,1,228.150000870323,6|8,1:2|0:0,0:0:0:0:
215,103,43812,1,2,0:0:0:0:
317,0,43991,2,0,P|337:59|323:107,1,114.075000435162,10|0,0:0|1:0,0:0:0:0:
146,164,44348,2,0,P|126:105|140:57,1,114.075000435162,10|0,0:0|0:0,0:0:0:0:
228,254,44705,5,10,0:0:0:0:
78,202,44884,1,2,0:0:0:0:
228,254,45062,2,0,P|289:244|321:193,1,114.075000435162,10|2,0:0|1:2,0:0:0:0:
108,273,45419,2,0,P|93:330|119:382,1,114.075000435162,10|2,0:0|1:2,0:0:0:0:
146,164,45777,2,0,P|100:124|41:136,1,114.075000435162,10|0,0:0|0:0,0:0:0:0:
228,254,46134,6,0,B|291:275|360:230|313:206|375:164|438:198,1,228.150000870323,10|8,0:0|0:0,0:0:0:0:
424,330,46669,1,2,0:0:0:0:
257,181,46848,2,0,P|240:138|256:67,1,114.075000435162,10|0,0:0|1:0,0:0:0:0:
371,4,47205,2,0,P|388:47|372:118,1,114.075000435162,10|0,0:0|0:0,0:0:0:0:
323,238,47562,5,10,0:0:0:0:
160,158,47741,1,2,0:0:0:0:
323,238,47919,2,0,P|389:224|415:173,1,114.075000435162,10|2,0:0|1:2,0:0:0:0:
228,254,48277,2,0,P|215:323|243:368,1,114.075000435162,10|2,0:0|1:2,0:0:0:0:
160,158,48634,2,0,P|94:172|68:223,1,114.075000435162,10|0,0:0|0:0,0:0:0:0:
23,337,48991,6,0,B|78:352|143:327|120:281|171:251|226:270,1,228.150000870323,10|8,0:0|0:0,0:0:0:0:
347,333,49527,1,2,0:2:0:0:
436,230,49705,1,10,0:0:0:0:
436,230,49794,1,8,0:0:0:0:
436,230,49884,1,8,3:0:0:0:
352,121,50062,2,0,P|296:116|243:159,1,114.075000435162,4|8,3:0|0:0,0:0:0:0:
226,270,50419,5,2,1:2:0:0:
226,270,51848,1,2,1:2:0:0:
226,270,52027,6,0,P|252:196|381:269,1,253.500009670258,4|0,1:2|0:0,0:0:0:0:
380,357,52562,6,0,L|384:127,1,219.699989942933,4|0,1:2|0:0,0:0:0:0:
331,49,53098,6,0,B|267:28|228:68|237:107|192:146|116:114,1,232.375007091522,4|0,1:2|0:0,0:0:0:0:
54,70,53634,2,0,L|39:6,1,46.4750014183045,0|0,0:0|0:0,0:0:0:0:
70,170,53812,2,0,L|55:234,1,46.4750014183045,0|0,0:0|0:0,0:0:0:0:
0,130,53991,1,2,1:2:0:0:
66,364,54169,6,0,P|96:299|205:309,1,181.675002772141,8|0,1:0|0:0,0:0:0:0:
261,343,54705,6,0,P|329:339|370:298,1,120.835001659416,6|0,1:2|0:0,0:0:0:0:
278,129,55062,2,0,P|262:188|290:253,1,120.835001659416,10|0,0:0|0:0,0:0:0:0:
349,299,55330,1,8,0:0:0:0:
366,305,55419,2,0,P|431:267|445:215,1,120.835001659416,2|0,1:2|1:0,0:0:0:0:
428,94,55777,2,0,P|362:131|349:184,1,120.835001659416,10|0,0:2|1:0,0:0:0:0:
271,354,56134,6,0,L|265:234,1,120.835001659416,2|0,0:0|1:0,0:0:0:0:
449,184,56491,2,0,L|442:55,1,120.835001659416,10|0,0:0|0:0,0:0:0:0:
372,20,56759,1,8,0:0:0:0:
350,16,56848,2,0,P|285:18|248:64,1,120.835001659416,2|0,1:2|1:2,0:0:0:0:
266,213,57205,2,0,P|331:211|370:164,1,120.835001659416,10|0,0:0|0:0,0:0:0:0:
250,57,57562,6,0,B|210:41|169:54|173:100|133:124|87:106,1,181.252502489124,2|0,1:2|0:0,0:0:0:0:
26,61,57919,1,8,0:0:0:0:
170,186,58098,1,2,0:0:0:0:
170,186,58187,1,8,0:0:0:0:
170,186,58277,2,0,P|185:250|166:317,1,120.835001659416,0|2,1:0|1:2,0:0:0:0:
29,177,58634,2,0,P|14:118|25:60,1,120.835001659416,8|0,0:0|1:0,0:0:0:0:
0,346,58991,6,0,P|44:283|199:312,1,241.670003318832,2|10,0:0|0:0,0:0:0:0:
316,367,59527,1,2,1:2:0:0:
316,367,59616,1,0,1:2:0:0:
316,367,59705,2,0,P|381:357|425:303,1,120.835001659416,0|2,1:0|1:2,0:0:0:0:
474,203,60062,1,8,0:0:0:0:
331,84,60241,1,0,1:0:0:0:
331,84,60330,1,8,0:0:0:0:
331,84,60419,6,0,P|300:176|350:261,1,181.252502489124,6|0,1:2|0:0,0:0:0:0:
403,301,60777,2,0,P|341:262|282:274,1,120.835001659416,10|0,0:0|0:0,0:0:0:0:
218,239,61044,1,8,0:0:0:0:
203,260,61134,2,0,L|211:389,1,120.835001659416,2|0,1:2|1:0,0:0:0:0:
349,187,61491,2,0,L|341:58,1,120.835001659416,10|0,0:2|1:0,0:0:0:0:
217,16,61848,6,0,B|153:2|106:27|127:88|62:120|-6:87,1,241.670003318832,2|10,0:0|0:0,0:0:0:0:
14,225,62384,1,0,1:0:0:0:
27,208,62473,1,8,0:0:0:0:
39,192,62562,2,0,P|105:193|146:237,1,120.835001659416,2|0,1:2|1:0,0:0:0:0:
80,379,62919,2,0,P|58:320|79:263,1,120.835001659416,10|4,0:0|3:0,0:0:0:0:
191,165,63277,6,0,B|242:153|279:173|272:218|325:248|387:221,1,202.799993811035,14|0,0:0|1:0,0:0:0:0:
460,158,63812,1,0,1:0:0:0:
434,33,63991,6,0,P|360:2|266:115,1,229.840001402832,10|0,0:0|1:0,0:0:0:0:
233,241,64527,6,0,P|265:166|221:35,1,202.8,6|0,1:2|0:0,0:0:0:0:
164,29,64884,6,0,L|26:49,1,135.2,8|10,0:0|0:0,0:0:0:0:
109,174,65241,1,2,1:2:0:0:
134,170,65330,1,0,1:0:0:0:
155,167,65419,1,0,1:0:0:0:
21,60,65598,1,2,1:2:0:0:
27,248,65777,6,0,L|16:320,1,67.6,8|0,3:0|3:0,0:0:0:0:
127,370,65955,2,0,L|116:298,1,67.6,4|0,3:0|3:0,0:0:0:0:
226,283,66134,6,0,P|290:320|344:308,1,120.835001659416,6|0,1:2|0:0,0:0:0:0:
466,76,66491,2,0,P|406:72|358:106,1,120.835001659416,10|0,0:0|0:0,0:0:0:0:
326,173,66759,1,8,0:0:0:0:
321,192,66848,2,0,L|335:330,1,120.835001659416,2|0,1:2|1:0,0:0:0:0:
478,196,67205,2,0,L|464:58,1,120.835001659416,10|0,0:2|1:0,0:0:0:0:
406,258,67562,6,0,P|463:299|527:292,1,120.835001659416,2|0,0:0|1:0,0:0:0:0:
326,173,67919,2,0,P|266:175|220:213,1,120.835001659416,10|0,0:0|0:0,0:0:0:0:
170,273,68187,1,8,0:0:0:0:
154,284,68277,2,0,P|92:264|61:213,1,120.835001659416,2|0,1:2|1:0,0:0:0:0:
143,78,68634,2,0,P|161:139|136:204,1,120.835001659416,10|0,0:0|0:0,0:0:0:0:
59,19,68991,6,0,B|92:4|139:23|130:66|190:84|239:63,1,181.252502489124,2|0,1:2|0:0,0:0:0:0:
285,19,69348,1,10,0:0:0:0:
414,160,69527,1,2,0:0:0:0:
416,140,69616,1,8,0:0:0:0:
418,121,69705,2,0,L|423:-5,1,120.835001659416,0|2,1:0|1:2,0:0:0:0:
312,230,70062,2,0,L|307:104,1,120.835001659416,8|0,0:0|1:0,0:0:0:0:
473,272,70419,6,0,B|417:244|352:289|377:314|314:363|241:322,1,241.670003318832,2|8,0:2|0:0,0:0:0:0:
166,210,70955,2,0,P|111:191|64:233,1,120.835001659416,4|8,1:2|0:0,0:0:0:0:
49,252,71223,1,8,0:0:0:0:
35,279,71312,1,2,1:2:0:0:
23,307,71402,1,0,1:0:0:0:
12,335,71491,2,0,L|6:208,1,120.835001659416,8|0,0:0|0:0,0:0:0:0:
14,87,71848,6,0,P|57:133|107:137,1,69.2900010572815,6|0,1:2|0:0,0:0:0:0:
160,37,72086,2,0,P|98:51|74:90,1,69.2900010572815,8|0,3:0|0:0,0:0:0:0:
137,190,72324,2,0,P|155:129|134:89,1,69.2900010572815,4|0,3:0|0:0,0:0:0:0:
312,230,72562,6,0,P|365:197|380:149,1,69.2900010572815,2|0,1:2|0:0,0:0:0:0:
293,77,72800,2,0,P|293:140|326:172,1,69.2900010572815,2|0,1:2|0:0,0:0:0:0:
438,131,73038,2,0,P|382:100|338:112,1,69.2900010572815,2|0,1:2|0:0,0:0:0:0:
296,144,73277,1,2,1:2:0:0:
296,144,73634,6,0,B|346:160|378:136|371:115|397:95|445:111,1,155.902502378883,2|0,0:0|0:0,0:0:0:0:
504,156,73991,1,10,0:0:0:0:
504,156,74080,1,8,0:0:0:0:
504,156,74169,1,8,3:0:0:0:
407,254,74348,2,0,P|363:227|311:229,1,103.935001585922,8|4,3:0|3:0,0:0:0:0:
234,370,74705,5,10,0:0:0:0:
150,223,74884,1,0,1:0:0:0:
321,338,75062,1,2,1:2:0:0:
103,298,75241,1,10,0:0:0:0:
103,298,75777,5,10,0:0:0:0:
285,191,75956,1,0,1:0:0:0:
234,370,76134,1,2,1:2:0:0:
161,116,76312,1,10,0:0:0:0:
186,80,76729,6,0,L|177:36,1,40.2783338864721,0|0,1:0|1:0,0:0:0:0:
194,94,76848,6,0,L|257:111,1,60.4175008297081,8|8,3:0|3:0,0:0:0:0:
128,138,77027,2,0,L|111:74,1,60.4175008297081,4|4,3:0|3:0,0:0:0:0:
200,186,77205,2,0,L|153:232,1,60.4175008297081,8|0,3:0|1:0,0:0:0:0:
26,188,77384,2,0,L|89:205,1,60.4175008297081,4|0,3:0|0:0,0:0:0:0:
237,268,77562,5,6,1:2:0:0:
46,361,77741,1,0,1:0:0:0:
200,186,77919,1,2,1:2:0:0:
55,87,78098,1,10,0:0:0:0:
55,87,78634,5,2,1:2:0:0:
237,268,78812,1,0,1:0:0:0:
174,1,78991,1,2,1:2:0:0:
26,188,79169,1,10,0:0:0:0:
26,188,79705,6,0,B|71:171|108:192|98:222|139:240|183:218,1,162.662504964066,10|2,0:2|0:0,0:0:0:0:
241,169,80419,5,6,1:2:0:0:
256,192,80509,12,2,83277,0:0:0:0:
