osu file format v14

[General]
AudioFilename: audio.mp3
AudioLeadIn: 0
PreviewTime: 54616
Countdown: 0
SampleSet: Soft
StackLeniency: 0.5
Mode: 0
LetterboxInBreaks: 0
WidescreenStoryboard: 1

[Editor]
DistanceSpacing: 1
BeatDivisor: 4
GridSize: 32
TimelineZoom: 2.2

[Metadata]
Title:Pink no Heart Ball
TitleUnicode:ピンクのハートボール
Artist:Takeya Yuki (CV: Minase Inori) & Naoki Miki (CV: Takahashi Rie)
ArtistUnicode:丈槍由紀 (CV: 水瀬いのり) & 直樹美紀 (CV: 高橋李依)
Creator:xHappy-
Version:Insane
Source:がっこうぐらし!
Tags:school live gakkou gurashi! character song sotsugyou album graduate 卒業あるばむ anime japanese p_kung [_lost_] conner c_o_n_n_e_r typ4
BeatmapID:2117169
BeatmapSetID:1011236

[Difficulty]
HPDrainRate:5.5
CircleSize:4
OverallDifficulty:7
ApproachRate:8.8
SliderMultiplier:1.7
SliderTickRate:1

[Events]
//Background and Video events
0,0,"bg.jpg",0,0
//Break Periods
//Storyboard Layer 0 (Background)
//Storyboard Layer 1 (Fail)
//Storyboard Layer 2 (Pass)
//Storyboard Layer 3 (Foreground)
//Storyboard Layer 4 (Overlay)
//Storyboard Sound Samples

[TimingPoints]
420,357.142857142857,4,2,1,50,1,0
420,-125,4,2,1,50,0,0
777,-125,4,2,1,42,0,0
1134,-125,4,2,1,34,0,0
1491,-125,4,2,1,26,0,0
2027,-125,4,2,1,50,0,0
2205,-125,4,2,1,52,0,0
2384,-125,4,2,1,54,0,0
2562,-125,4,2,1,56,0,0
2741,-125,4,2,1,58,0,0
2919,-83.3333333333333,4,2,1,60,0,0
3187,-83.3333333333333,4,2,1,5,0,0
3277,-100,4,2,1,70,0,0
14705,-105.263157894737,4,2,1,65,0,0
14794,-105.263157894737,4,2,2,65,0,0
17205,-133.333333333333,4,2,2,65,0,0
17473,-133.333333333333,4,2,2,5,0,0
17562,-105.263157894737,4,2,2,65,0,0
19705,-133.333333333333,4,2,2,65,0,0
20062,-133.333333333333,4,2,2,30,0,0
20419,-111.111111111111,4,2,1,60,0,0
28991,-105.263157894737,4,2,1,65,0,0
30598,-117.64705882353,4,2,1,55,0,0
30955,-105.263157894737,4,2,1,65,0,0
31848,-111.111111111111,4,2,1,60,0,0
37473,-111.111111111111,4,2,1,5,0,0
37562,-111.111111111111,4,2,1,60,0,0
40419,-133.333333333333,4,2,1,55,0,0
42652,-133.333333333333,4,2,1,25,0,0
42741,-133.333333333333,4,2,1,35,0,0
42830,-133.333333333333,4,2,1,45,0,0
42919,-133.333333333333,4,2,1,55,0,0
43277,-100,4,2,1,70,0,0
52027,-125,4,2,1,70,0,0
52562,-111.111111111111,4,2,1,70,0,0
53098,-100,4,2,1,70,0,0
54169,-90.9090909090909,4,2,1,80,0,0
54705,-90.9090909090909,4,2,1,80,0,1
57205,-83.3333333333333,4,2,1,90,0,1
57562,-76.9230769230769,4,2,1,95,0,1
57830,-76.9230769230769,4,2,1,5,0,1
57919,-90.9090909090909,4,2,1,80,0,1
58991,-83.3333333333333,4,2,1,85,0,1
60419,-90.9090909090909,4,2,1,80,0,1
61848,-100,4,2,1,75,0,1
62205,-111.111111111111,4,2,1,70,0,1
62562,-100,4,2,1,75,0,1
62919,-90.9090909090909,4,2,1,80,0,1
63277,-83.3333333333333,4,2,1,90,0,1
63991,-90.9090909090909,4,2,1,80,0,1
64527,-76.9230769230769,4,2,1,95,0,1
64794,-76.9230769230769,4,2,1,5,0,1
64884,-83.3333333333333,4,2,1,90,0,1
65777,-90.9090909090909,4,2,1,80,0,0
66134,-90.9090909090909,4,2,1,80,0,1
68634,-83.3333333333333,4,2,1,90,0,1
68991,-76.9230769230769,4,2,1,95,0,1
69259,-76.9230769230769,4,2,1,5,0,1
69348,-90.9090909090909,4,2,1,80,0,1
70419,-83.3333333333333,4,2,1,90,0,1
71848,-90.9090909090909,4,2,1,80,0,1
79705,-181.818181818182,4,2,1,80,0,1
80419,-100,4,2,1,50,0,0
87919,400,4,2,1,50,1,0
88319,371.517027863777,4,2,1,50,1,0
89062,387.096774193548,4,2,1,30,1,0
89449,333.333333333333,4,2,1,27,1,8
89782,389.61038961039,4,2,1,24,1,8
90171,382.165605095541,4,2,1,21,1,8
90553,419.58041958042,4,2,1,21,1,8
90973,441.176470588235,4,2,1,16,1,8
91414,530.973451327434,4,2,1,14,1,8
91944,1048.03493449782,4,2,1,12,1,8
92992,983.606557377049,4,2,1,12,1,0
93176,833.333333333333,4,2,1,12,1,0
93280,714.285714285714,4,2,1,10,1,0

[Colours]
Combo1 : 102,132,253
Combo2 : 62,255,62
Combo3 : 88,199,252
Combo4 : 252,106,75

[HitObjects]
191,31,420,6,0,L|149:41,2,34,2|0|0,0:0|0:0|0:0,0:0:0:0:
319,31,777,2,0,L|361:41,2,34,2|0|0,0:0|0:0|0:0,0:0:0:0:
230,119,1134,1,2,0:0:0:0:
275,209,1312,1,0,0:0:0:0:
256,309,1491,2,0,L|257:343,2,34,2|0|2,0:0|0:0|0:0,0:0:0:0:
122,267,2027,5,2,0:0:0:0:
95,168,2205,1,2,0:0:0:0:
16,271,2384,1,2,0:0:0:0:
79,141,2562,1,2,0:0:0:0:
135,291,2741,1,2,0:0:0:0:
68,111,2919,6,0,P|131:67|217:75,1,152.999995330811,8|0,0:1|0:0,0:0:0:0:
285,89,3277,6,0,P|354:96|422:22,1,170,6|8,1:2|0:0,0:0:0:0:
507,121,3812,1,2,1:2:0:0:
432,225,3991,2,0,P|400:189|357:179,1,85,10|0,0:0|0:0,0:0:0:0:
274,202,4348,1,8,0:0:0:0:
350,354,4527,6,0,L|356:270,1,85,2|8,1:2|0:0,0:0:0:0:
267,117,4884,2,0,L|273:201,1,85,2|8,1:2|0:0,0:0:0:0:
183,346,5241,1,2,1:2:0:0:
81,210,5419,2,0,P|117:185|167:183,1,85,10|0,0:0|0:0,0:0:0:0:
273,201,5777,1,10,0:0:0:0:
197,59,5955,1,2,1:2:0:0:
197,59,6044,1,2,1:2:0:0:
197,59,6134,6,0,L|25:50,1,170,10|8,0:0|0:0,0:0:0:0:
122,179,6669,1,2,1:2:0:0:
25,308,6848,2,0,L|194:299,1,170,10|8,0:0|0:0,0:0:0:0:
342,365,7384,6,0,P|360:324|360:284,1,85,2|8,1:2|0:0,0:0:0:0:
330,196,7741,1,0,1:2:0:0:
270,308,7919,1,10,0:0:0:0:
153,208,8098,2,0,P|189:186|231:183,1,85,2|8,1:2|0:0,0:0:0:0:
357,202,8455,1,2,1:2:0:0:
297,88,8634,1,10,0:0:0:0:
454,24,8812,1,10,0:0:0:0:
454,24,8902,1,8,0:0:0:0:
454,24,8991,6,0,L|449:197,1,170,14|8,0:0|0:0,0:0:0:0:
511,305,9527,1,2,1:2:0:0:
395,357,9705,2,0,P|357:338|314:335,1,85,10|0,0:0|0:0,0:0:0:0:
223,354,10062,1,8,0:0:0:0:
300,211,10241,6,0,P|318:173|321:130,1,85,2|8,1:2|0:0,0:0:0:0:
164,94,10598,2,0,P|187:129|222:152,1,85,2|8,1:2|0:0,0:0:0:0:
309,16,10955,1,2,1:2:0:0:
147,6,11134,2,0,L|56:11,1,85,10|0,0:0|0:0,0:0:0:0:
33,169,11491,2,0,L|82:92,1,85,10|0,0:0|0:0,0:0:0:0:
123,225,11848,5,10,0:0:0:0:
123,225,12027,2,0,L|119:309,1,85,2|8,0:0|0:0,0:0:0:0:
198,373,12384,1,2,1:2:0:0:
283,318,12562,1,8,0:0:0:0:
282,318,12741,2,0,P|320:298|362:299,1,85,2|8,0:0|0:0,0:0:0:0:
506,302,13098,6,0,P|481:267|476:226,1,85,2|8,1:2|0:0,0:0:0:0:
501,118,13455,1,2,1:2:0:0:
379,79,13634,1,10,0:0:0:0:
501,118,13812,1,2,1:2:0:0:
403,170,13991,1,10,0:0:0:0:
254,83,14169,5,10,0:0:0:0:
256,112,14258,1,8,0:0:0:0:
258,142,14347,1,8,3:0:0:0:
260,171,14436,1,8,3:0:0:0:
262,201,14526,1,4,3:0:0:0:
160,267,14705,6,0,P|119:220|16:208,1,161.499995687485,6|8,1:2|0:0,0:0:0:0:
2,325,15241,1,2,1:2:0:0:
115,366,15419,2,0,L|286:357,1,161.499995687485,10|8,1:2|0:0,0:0:0:0:
397,352,15955,6,0,L|365:277,1,80.7499978437424,2|8,1:2|0:0,0:0:0:0:
480,238,16312,2,0,L|402:206,1,80.7499978437424,2|8,1:2|0:0,0:0:0:0:
459,98,16669,1,2,1:2:0:0:
459,98,16848,2,0,L|384:129,1,80.7499978437424,10|0,1:2|0:0,0:0:0:0:
312,57,17205,6,0,P|303:83|308:122,1,63.7500024318696,0|0,3:0|0:0,0:0:0:0:
298,196,17562,6,0,P|222:202|166:144,1,161.499995687485,2|8,1:2|0:0,0:0:0:0:
114,34,18098,1,2,1:2:0:0:
13,102,18277,2,0,L|23:272,1,161.499995687485,10|8,1:2|0:0,0:0:0:0:
111,344,18812,6,0,L|116:258,1,80.7499978437424,2|8,1:2|0:0,0:0:0:0:
186,362,19169,2,0,L|258:325,1,80.7499978437424,2|8,1:2|0:0,0:0:0:0:
370,373,19527,1,2,1:2:0:0:
369,373,19705,6,0,P|412:328|409:266,1,127.500004863739,10|0,1:2|0:0,0:0:0:0:
463,123,20419,6,0,P|422:154|311:150,1,152.999995330811,6|10,1:2|0:0,0:0:0:0:
255,94,20955,1,0,1:0:0:0:
188,156,21134,2,0,P|113:162|49:123,1,152.999995330811,2|10,0:2|0:0,0:0:0:0:
30,243,21669,6,0,P|52:273|57:311,1,76.4999976654053,2|0,1:2|0:0,0:0:0:0:
173,267,22027,2,0,P|210:272|240:295,1,76.4999976654053,2|8,1:2|0:0,0:0:0:0:
302,191,22384,2,0,P|332:168|370:163,1,76.4999976654053,2|0,1:2|1:0,0:0:0:0:
415,173,22652,1,0,1:0:0:0:
415,173,22741,1,2,1:2:0:0:
365,250,22919,2,0,L|362:326,1,76.4999976654053,10|0,0:0|0:0,0:0:0:0:
491,337,23277,6,0,L|488:172,1,152.999995330811,2|10,1:2|0:0,0:0:0:0:
483,92,23812,1,0,1:0:0:0:
408,38,23991,2,0,B|334:36|352:86|266:83,1,152.999995330811,2|8,0:2|0:0,0:0:0:0:
168,6,24527,6,0,P|182:42|181:80,1,76.4999976654053,2|0,1:2|0:0,0:0:0:0:
271,163,24884,2,0,P|247:192|213:210,1,76.4999976654053,2|8,1:2|0:0,0:0:0:0:
216,332,25241,2,0,P|178:326|146:305,1,76.4999976654053,2|0,1:2|1:0,0:0:0:0:
112,274,25509,1,0,1:0:0:0:
112,274,25598,1,2,1:2:0:0:
37,327,25777,1,10,0:0:0:0:
2,209,25955,1,2,1:2:0:0:
2,209,26044,1,0,1:2:0:0:
2,208,26134,6,0,P|55:156|130:152,1,152.999995330811,2|8,1:2|0:0,0:0:0:0:
230,188,26669,1,2,1:2:0:0:
333,159,26848,2,0,P|336:229|275:287,1,152.999995330811,2|8,1:2|0:0,0:0:0:0:
196,321,27384,6,0,B|274:316|255:367|338:363,1,152.999995330811,0|0,1:2|1:0,0:0:0:0:
427,383,27919,2,0,P|429:341|414:310,1,76.4999976654053,8|0,0:0|0:0,0:0:0:0:
460,195,28277,1,2,0:0:0:0:
339,216,28455,1,2,1:2:0:0:
384,69,28634,1,10,0:0:0:0:
348,185,28812,1,2,0:0:0:0:
245,62,28991,6,0,P|180:15|102:21,1,161.499995687485,6|8,1:2|0:0,0:0:0:0:
33,121,29527,1,2,1:2:0:0:
76,233,29705,2,0,P|139:186|155:109,1,161.499995687485,2|8,1:2|0:0,0:0:0:0:
259,184,30241,6,0,L|256:274,1,80.7499978437424,2|0,1:2|0:0,0:0:0:0:
177,349,30598,2,0,L|175:277,1,72.2500013780594,2|8,1:2|0:0,0:0:0:0:
275,359,30955,1,2,1:2:0:0:
370,271,31134,2,0,P|386:237|386:193,1,80.7499978437424,2|0,1:2|0:0,0:0:0:0:
354,71,31491,1,8,0:0:0:0:
333,72,31580,1,0,3:0:0:0:
313,73,31669,1,0,3:0:0:0:
293,74,31758,1,0,3:0:0:0:
272,74,31848,6,0,P|244:49|207:40,1,76.4999976654053,6|0,1:2|0:0,0:0:0:0:
120,12,32205,2,0,P|112:49|122:85,1,76.4999976654053,10|0,0:0|1:0,0:0:0:0:
76,165,32562,2,0,P|139:128|205:160,1,152.999995330811,2|10,0:2|0:0,0:0:0:0:
296,242,33098,6,0,L|302:160,1,76.4999976654053,2|0,1:2|0:0,0:0:0:0:
367,269,33455,2,0,L|424:218,1,76.4999976654053,2|8,1:2|0:0,0:0:0:0:
399,338,33812,2,0,L|474:343,1,76.4999976654053,2|0,1:2|1:0,0:0:0:0:
512,349,34080,1,0,1:0:0:0:
512,349,34169,1,2,1:2:0:0:
510,253,34348,2,0,P|497:218|498:180,1,76.4999976654053,10|0,0:0|0:0,0:0:0:0:
508,57,34705,6,0,P|484:85|450:103,1,76.4999976654053,2|0,1:2|0:0,0:0:0:0:
407,185,35062,2,0,P|378:161|360:127,1,76.4999976654053,10|0,0:2|1:0,0:0:0:0:
367,34,35419,2,0,P|296:58|267:127,1,152.999995330811,2|10,0:2|0:0,0:0:0:0:
151,169,35955,6,0,P|142:131|148:89,1,76.4999976654053,2|0,1:2|0:0,0:0:0:0:
70,190,36312,2,0,P|33:201|0:227,1,76.4999976654053,2|8,1:2|0:0,0:0:0:0:
124,247,36669,2,0,P|147:277|179:297,1,76.4999976654053,2|0,1:2|1:0,0:0:0:0:
224,305,36937,1,0,1:0:0:0:
224,305,37027,1,2,1:2:0:0:
292,245,37205,2,0,P|348:242|389:287,1,114.749996498108,10|0,0:0|0:0,0:0:0:0:
403,326,37562,6,0,P|475:311|503:244,1,152.999995330811,2|8,1:2|0:0,0:0:0:0:
460,145,38098,1,2,1:2:0:0:
503,46,38277,2,0,B|473:21|473:21|355:25,1,152.999995330811,2|8,0:0|0:0,0:0:0:0:
270,0,38812,6,0,B|245:30|245:30|249:148,1,152.999995330811,2|2,1:2|1:2,0:0:0:0:
200,222,39348,2,0,P|235:235|275:231,1,76.4999976654053,8|0,0:0|0:0,0:0:0:0:
385,205,39705,1,2,0:0:0:0:
372,319,39884,1,2,1:2:0:0:
404,185,40062,2,0,L|407:101,1,76.4999976654053,10|0,0:0|0:0,0:0:0:0:
499,260,40419,6,0,P|502:322|455:367,1,127.500004863739,6|0,1:2|0:0,0:0:0:0:
385,302,40955,1,2,1:2:0:0:
308,359,41134,2,0,L|165:355,1,127.500004863739,10|0,0:0|0:0,0:0:0:0:
111,319,41669,5,2,1:2:0:0:
114,293,42027,1,2,1:2:0:0:
117,267,42384,1,10,0:0:0:0:
65,211,42562,5,2,1:2:0:0:
63,188,42651,1,8,0:0:0:0:
62,166,42740,1,8,0:0:0:0:
61,144,42829,1,8,0:0:0:0:
60,121,42919,1,8,3:0:0:0:
117,44,43098,1,4,3:0:0:0:
225,110,43277,6,0,P|284:55|371:63,1,170,6|8,1:2|0:0,0:0:0:0:
457,151,43812,1,2,0:0:0:0:
376,221,43991,2,0,P|344:177|343:135,1,85,10|0,0:0|1:0,0:0:0:0:
451,211,44348,2,0,P|444:256|416:287,1,85,10|0,0:0|0:0,0:0:0:0:
287,274,44705,5,10,0:0:0:0:
194,229,44884,1,2,0:0:0:0:
274,141,45062,1,10,0:0:0:0:
175,208,45241,1,2,1:2:0:0:
187,72,45419,1,10,0:0:0:0:
141,209,45598,1,2,1:2:0:0:
55,71,45777,2,0,L|73:160,1,85,10|0,0:0|0:0,0:0:0:0:
11,274,46134,6,8,P|90:257|161:303,1,170,10|8,0:0|0:0,0:0:0:0:
259,382,46669,1,2,0:0:0:0:
359,302,46848,2,0,L|367:217,1,85,10|0,0:0|1:0,0:0:0:0:
266,137,47205,2,0,L|274:222,1,85,10|0,0:0|0:0,0:0:0:0:
359,126,47562,5,10,0:0:0:0:
384,26,47741,1,2,0:0:0:0:
339,135,47919,1,10,0:0:0:0:
452,99,48098,1,2,1:2:0:0:
325,115,48277,1,10,0:0:0:0:
433,210,48455,1,2,1:2:0:0:
335,80,48634,2,0,L|237:67,1,85,10|0,0:0|0:0,0:0:0:0:
71,93,48991,6,0,P|137:91|187:-1,1,170,10|8,0:0|0:0,0:0:0:0:
212,137,49527,1,2,0:2:0:0:
131,213,49705,1,10,0:0:0:0:
131,213,49794,1,8,0:0:0:0:
131,213,49884,2,0,L|133:264,1,42.5,8|0,3:0|0:0,0:0:0:0:
140,331,50062,1,4,3:0:0:0:
37,254,50241,1,8,0:0:0:0:
212,137,50419,5,2,1:2:0:0:
212,137,51848,1,2,1:2:0:0:
212,137,52027,6,0,L|217:279,1,136,4|0,1:2|0:0,0:0:0:0:
300,279,52562,6,0,L|294:126,1,152.999995330811,4|0,1:2|0:0,0:0:0:0:
375,58,53098,6,0,L|387:313,1,255,4|0,1:2|0:0,0:0:0:0:
461,91,53991,5,2,1:2:0:0:
461,91,54169,2,0,L|469:277,1,187.000005706787,8|0,1:0|0:0,0:0:0:0:
319,179,54705,6,0,P|279:154|233:149,1,93.5000028533936,6|0,1:2|0:0,0:0:0:0:
76,211,55062,2,0,P|122:212|164:193,1,93.5000028533936,10|0,0:0|0:0,0:0:0:0:
160,109,55329,1,8,0:0:0:0:
160,109,55419,2,0,P|158:62|177:20,1,93.5000028533936,2|0,1:2|1:0,0:0:0:0:
319,179,55777,6,0,P|279:154|233:149,1,93.5000028533936,10|0,0:2|1:0,0:0:0:0:
76,211,56134,2,0,P|122:212|164:193,1,93.5000028533936,2|0,0:0|1:0,0:0:0:0:
176,20,56491,2,0,P|157:62|160:109,1,93.5000028533936,10|0,0:0|0:0,0:0:0:0:
246,253,56848,5,2,1:2:0:0:
142,333,57027,1,0,1:2:0:0:
246,253,57205,2,0,L|350:258,1,101.999996887207,10|0,0:0|0:0,0:0:0:0:
463,348,57562,6,0,P|428:268|440:189,1,165.749992412568,2|0,1:2|0:0,0:0:0:0:
478,120,57919,1,8,0:0:0:0:
355,22,58098,1,2,0:0:0:0:
355,22,58187,1,8,0:0:0:0:
355,22,58277,1,0,1:0:0:0:
245,92,58455,1,2,1:2:0:0:
341,180,58634,2,0,P|375:136|376:86,1,93.5000028533936,8|0,0:0|1:0,0:0:0:0:
213,65,58991,6,0,L|219:175,1,101.999996887207,2|0,0:0|1:0,0:0:0:0:
228,299,59348,1,10,0:0:0:0:
121,370,59527,1,2,1:2:0:0:
78,243,59705,2,0,L|82:183,1,50.9999984436036,0|8,1:0|0:0,0:0:0:0:
86,116,59884,1,2,1:2:0:0:
38,26,60062,2,0,P|87:14|135:29,1,101.999996887207,8|0,0:0|1:0,0:0:0:0:
161,72,60330,1,8,0:0:0:0:
161,72,60419,6,0,P|203:93|249:90,1,93.5000028533936,6|0,1:2|0:0,0:0:0:0:
376,55,60777,2,0,P|422:51|463:71,1,93.5000028533936,10|0,0:0|0:0,0:0:0:0:
491,109,61044,1,8,0:0:0:0:
491,109,61134,2,0,L|486:207,1,93.5000028533936,2|0,1:2|1:0,0:0:0:0:
350,318,61491,6,0,L|345:220,1,93.5000028533936,10|0,0:2|1:0,0:0:0:0:
178,153,61848,2,0,L|175:238,1,85,2|0,0:0|1:0,0:0:0:0:
262,281,62205,2,0,L|263:204,1,76.4999976654053,10|0,0:0|1:0,0:0:0:0:
265,158,62473,1,8,0:0:0:0:
264,158,62562,2,0,P|297:131|339:127,1,85,2|0,1:2|1:0,0:0:0:0:
422,265,62919,2,0,P|380:259|343:222,1,93.5000028533936,10|4,0:0|3:0,0:0:0:0:
352,31,63277,6,0,P|427:82|417:185,1,203.999993774414,14|0,0:0|1:0,0:0:0:0:
337,126,63812,1,0,1:0:0:0:
383,17,63991,2,0,P|459:69|455:160,1,187.000005706787,10|0,0:0|1:0,0:0:0:0:
417,283,64527,6,0,B|319:285|353:230|255:232,1,165.749992412568,6|0,1:2|0:0,0:0:0:0:
182,241,64884,5,8,0:0:0:0:
153,80,65062,1,10,0:0:0:0:
48,205,65241,2,0,P|16:165|4:116,1,101.999996887207,2|0,1:2|1:0,0:0:0:0:
123,4,65598,1,2,1:2:0:0:
138,44,65687,1,8,0:0:0:0:
153,80,65777,6,0,L|148:141,1,46.7500014266968,8|0,3:0|3:0,0:0:0:0:
220,235,65955,2,0,L|217:189,1,46.7500014266968,4|0,3:0|3:0,0:0:0:0:
269,101,66134,6,0,P|309:126|355:131,1,93.5000028533936,6|0,1:2|0:0,0:0:0:0:
512,69,66491,2,0,P|465:68|423:87,1,93.5000028533936,10|0,0:0|0:0,0:0:0:0:
428,171,66758,1,8,0:0:0:0:
428,171,66848,2,0,P|429:217|410:260,1,93.5000028533936,2|0,1:2|1:0,0:0:0:0:
269,101,67206,6,0,P|309:126|355:131,1,93.5000028533936,10|0,0:2|1:0,0:0:0:0:
512,69,67563,2,0,P|465:68|423:87,1,93.5000028533936,2|0,0:0|1:0,0:0:0:0:
410,260,67920,2,0,P|429:217|428:171,1,93.5000028533936,10|0,0:0|0:0,0:0:0:0:
303,286,68277,5,2,1:2:0:0:
403,369,68455,1,0,1:0:0:0:
303,286,68634,2,0,L|200:280,1,101.999996887207,10|0,0:0|0:0,0:0:0:0:
69,347,68991,6,0,P|104:304|110:198,1,165.749992412568,2|0,1:2|0:0,0:0:0:0:
79,122,69348,1,10,0:0:0:0:
210,32,69527,1,2,0:0:0:0:
210,32,69616,1,8,0:0:0:0:
210,32,69705,1,0,1:0:0:0:
79,21,69884,1,2,1:2:0:0:
168,115,70062,2,0,P|212:124|258:112,1,93.5000028533936,8|0,0:0|1:0,0:0:0:0:
408,27,70419,6,0,L|403:140,1,101.999996887207,2|0,0:2|1:0,0:0:0:0:
397,257,70777,1,8,0:0:0:0:
261,347,70955,2,0,L|210:340,1,50.9999984436036,4|2,1:2|3:0,0:0:0:0:
142,199,71134,2,0,L|193:193,1,50.9999984436036,8|8,0:0|0:0,0:0:0:0:
273,180,71312,1,2,1:2:0:0:
172,276,71491,2,0,L|59:271,1,101.999996887207,8|0,0:0|0:0,0:0:0:0:
140,121,71848,6,0,P|79:112|19:126,2,124.666670471192,6|8|4,1:2|3:0|3:0,0:0:0:0:
262,143,72562,2,0,P|324:151|384:137,2,124.666670471192,2|2|2,1:2|1:2|1:2,0:0:0:0:
218,27,73277,5,2,1:2:0:0:
263,284,73634,1,2,0:0:0:0:
464,116,73991,5,10,0:0:0:0:
464,116,74080,1,8,0:0:0:0:
464,116,74169,1,8,3:0:0:0:
488,205,74348,2,0,P|482:251|454:288,1,93.5000028533936,8|4,3:0|3:0,0:0:0:0:
323,359,74705,5,10,0:0:0:0:
317,209,74884,1,0,1:0:0:0:
167,211,75062,1,2,1:2:0:0:
173,361,75241,1,10,0:0:0:0:
333,369,75777,5,10,0:0:0:0:
326,198,75956,1,0,1:0:0:0:
156,200,76134,1,2,1:2:0:0:
163,371,76313,1,10,0:0:0:0:
480,372,76729,6,0,L|481:340,1,31.1666676177979,0|0,1:0|1:0,0:0:0:0:
421,302,76848,6,0,L|419:247,3,46.7500014266968,8|8|4|4,3:0|3:0|3:0|3:0,0:0:0:0:
396,176,77205,5,8,3:0:0:0:
397,152,77294,1,0,1:0:0:0:
398,129,77383,1,4,3:0:0:0:
399,105,77472,1,0,1:0:0:0:
400,82,77562,5,6,1:2:0:0:
253,54,77741,1,0,1:0:0:0:
303,194,77919,1,2,1:2:0:0:
331,46,78098,1,10,0:0:0:0:
424,74,78634,5,2,1:2:0:0:
258,41,78813,1,0,1:0:0:0:
314,199,78991,1,2,1:2:0:0:
345,32,79170,1,10,0:0:0:0:
446,63,79705,6,0,L|439:235,1,163.625004993439,10|2,0:2|0:0,0:0:0:0:
438,260,80419,1,6,1:2:0:0:
256,192,80509,12,2,83277,0:0:0:0:
