osu file format v14

[General]
AudioFilename: audio.mp3
AudioLeadIn: 0
PreviewTime: 54616
Countdown: 0
SampleSet: Soft
StackLeniency: 0.7
Mode: 0
LetterboxInBreaks: 0
WidescreenStoryboard: 0

[Editor]
DistanceSpacing: 1
BeatDivisor: 4
GridSize: 32
TimelineZoom: 1

[Metadata]
Title:Pink no Heart Ball
TitleUnicode:ピンクのハートボール
Artist:Takeya Yuki (CV: Minase Inori) & Naoki Miki (CV: Takahashi Rie)
ArtistUnicode:丈槍由紀 (CV: 水瀬いのり) & 直樹美紀 (CV: 高橋李依)
Creator:xHappy-
Version:Easy
Source:がっこうぐらし!
Tags:school live gakkou gurashi! character song sotsugyou album graduate 卒業あるばむ anime japanese p_kung [_lost_] conner c_o_n_n_e_r typ4
BeatmapID:2116602
BeatmapSetID:1011236

[Difficulty]
HPDrainRate:2
CircleSize:3
OverallDifficulty:2
ApproachRate:3
SliderMultiplier:0.8
SliderTickRate:1

[Events]
//Background and Video events
0,0,"bg.jpg",0,0
//Break Periods
//Storyboard Layer 0 (Background)
//Storyboard Layer 1 (Fail)
//Storyboard Layer 2 (Pass)
//Storyboard Layer 3 (Foreground)
//Storyboard Layer 4 (Overlay)
//Storyboard Sound Samples

[TimingPoints]
420,357.142857142857,4,2,1,50,1,0
777,-100,4,2,1,42,0,0
1134,-100,4,2,1,34,0,0
1491,-100,4,2,1,26,0,0
2027,-100,4,2,1,50,0,0
2205,-100,4,2,1,52,0,0
2384,-100,4,2,1,54,0,0
2562,-100,4,2,1,56,0,0
2741,-100,4,2,1,58,0,0
2919,-100,4,2,1,60,0,0
3277,-100,4,2,1,70,0,0
14705,-100,4,2,1,65,0,0
14794,-100,4,2,2,65,0,0
17473,-100,4,2,2,5,0,0
17562,-100,4,2,2,65,0,0
20062,-100,4,2,2,30,0,0
20419,-100,4,2,1,60,0,0
28991,-100,4,2,1,65,0,0
30598,-100,4,2,1,55,0,0
30955,-100,4,2,1,65,0,0
31580,-100,4,2,1,45,0,0
31848,-100,4,2,1,60,0,0
37473,-100,4,2,1,5,0,0
37562,-100,4,2,1,60,0,0
40419,-100,4,2,1,55,0,0
42652,-100,4,2,1,25,0,0
42741,-100,4,2,1,35,0,0
42830,-100,4,2,1,45,0,0
42919,-100,4,2,1,55,0,0
43277,-100,4,2,1,70,0,0
54169,-100,4,2,1,80,0,0
54705,-100,4,2,1,80,0,1
57205,-100,4,2,1,90,0,1
57562,-100,4,2,1,95,0,1
57830,-100,4,2,1,5,0,1
57919,-100,4,2,1,80,0,1
58991,-100,4,2,1,85,0,1
60419,-100,4,2,1,80,0,1
60687,-100,4,2,1,5,0,1
60777,-100,4,2,1,80,0,1
61848,-100,4,2,1,75,0,1
62205,-100,4,2,1,70,0,1
62562,-100,4,2,1,75,0,1
62919,-100,4,2,1,80,0,1
63277,-100,4,2,1,90,0,1
63991,-100,4,2,1,80,0,1
64527,-100,4,2,1,95,0,1
64794,-100,4,2,1,5,0,1
64884,-100,4,2,1,90,0,1
65777,-100,4,2,1,80,0,0
65866,-100,4,2,1,5,0,0
65955,-100,4,2,1,80,0,0
66044,-100,4,2,1,5,0,0
66134,-100,4,2,1,80,0,1
68634,-100,4,2,1,90,0,1
68991,-100,4,2,1,95,0,1
69259,-100,4,2,1,5,0,1
69348,-100,4,2,1,80,0,1
70419,-100,4,2,1,90,0,1
71848,-100,4,2,1,80,0,1
80419,-100,4,2,1,50,0,0
87919,400,4,2,1,50,1,0
88319,371.517027863777,4,2,1,50,1,0
89062,387.096774193548,4,2,1,30,1,0
89449,333.333333333333,4,2,1,27,1,8
89782,389.61038961039,4,2,1,24,1,8
90171,382.165605095541,4,2,1,21,1,8
90553,419.58041958042,4,2,1,21,1,8
90973,441.176470588235,4,2,1,16,1,8
91414,530.973451327434,4,2,1,14,1,8
91944,1048.03493449782,4,2,1,12,1,8
92992,983.606557377049,4,2,1,12,1,0
93176,833.333333333333,4,2,1,12,1,0
93280,714.285714285714,4,2,1,10,1,0

[Colours]
Combo1 : 102,132,253
Combo2 : 62,255,62
Combo3 : 88,199,252
Combo4 : 252,106,75

[HitObjects]
38,171,420,6,0,P|87:86|146:88,1,160,2|2,0:0|0:0,0:0:0:0:
212,118,1491,1,2,0:0:0:0:
320,66,2027,2,0,P|332:138|312:187,1,120,2|2,0:0|0:0,0:0:0:0:
273,248,2919,1,8,0:1:0:0:
301,323,3277,6,0,P|339:312|379:314,1,80,6|8,1:2|0:0,0:0:0:0:
458,324,3991,2,0,L|455:231,1,80,10|8,0:0|0:0,0:0:0:0:
503,180,4705,1,8,0:0:0:0:
454,116,5062,1,8,0:0:0:0:
507,56,5419,2,0,P|484:39|435:38,1,80,10|10,0:0|0:0,0:0:0:0:
359,66,6134,6,0,L|276:63,1,80,10|8,0:0|0:0,0:0:0:0:
205,32,6848,2,0,L|122:35,1,80,10|8,0:0|0:0,0:0:0:0:
49,61,7562,2,0,P|22:90|18:140,2,80,8|10|8,0:0|0:0|0:0,0:0:0:0:
96,125,8634,1,10,0:0:0:0:
175,126,8991,6,0,L|266:127,1,80,14|8,0:0|0:0,0:0:0:0:
315,74,9705,2,0,P|334:123|326:159,1,80,10|8,0:0|0:0,0:0:0:0:
282,213,10419,1,8,0:0:0:0:
269,292,10777,1,8,0:0:0:0:
325,349,11134,2,0,L|412:344,1,80,10|10,0:0|0:0,0:0:0:0:
479,374,11848,6,0,P|484:330|471:297,1,80,10|8,0:0|0:0,0:0:0:0:
413,241,12562,2,0,P|408:197|421:164,1,80,8|8,0:0|0:0,0:0:0:0:
499,149,13277,2,0,P|469:99|370:103,1,160,8|10,0:0|0:0,0:0:0:0:
314,46,14348,1,8,3:0:0:0:
252,97,14705,6,0,L|172:105,1,80,6|8,1:2|0:0,0:0:0:0:
124,40,15419,2,0,P|97:77|109:156,1,120,10|2,1:2|1:2,0:0:0:0:
154,209,16312,2,0,L|165:328,1,120,2|10,1:2|1:2,0:0:0:0:
101,377,17205,1,0,3:0:0:0:
23,358,17562,6,0,L|28:278,1,80,2|8,1:2|0:0,0:0:0:0:
33,197,18277,2,0,P|74:156|75:97,1,120,10|2,1:2|1:2,0:0:0:0:
27,33,19169,2,0,P|90:18|144:53,1,120,2|10,1:2|1:2,0:0:0:0:
256,149,20419,6,0,P|293:162|333:162,1,80,6|10,1:2|0:0,0:0:0:0:
399,116,21134,2,0,P|452:130|481:190,1,120,2|2,0:2|1:2,0:0:0:0:
507,260,22027,1,2,1:2:0:0:
450,316,22384,2,0,L|352:311,1,80,2|2,1:2|0:0,0:0:0:0:
259,265,23277,6,0,L|168:272,1,80,2|10,1:2|0:0,0:0:0:0:
124,329,23991,2,0,P|99:276|117:220,1,120,2|2,0:2|1:2,0:0:0:0:
174,164,24884,1,2,1:2:0:0:
113,112,25241,2,0,P|98:64|105:23,1,80,2|2,1:2|0:0,0:0:0:0:
221,18,26134,6,0,P|297:3|370:37,1,160,2|2,1:2|1:2,0:0:0:0:
438,77,27205,1,8,0:0:0:0:
428,156,27562,2,0,P|391:172|351:172,1,80,2|8,0:0|0:0,0:0:0:0:
290,120,28277,1,2,0:0:0:0:
231,174,28634,1,10,0:0:0:0:
160,135,28991,6,0,L|66:139,1,80,6|8,1:2|0:0,0:0:0:0:
13,95,29705,2,0,P|-1:142|33:207,1,120,2|2,1:2|1:2,0:0:0:0:
87,257,30598,2,0,L|206:251,1,120,2|2,1:2|1:2,0:0:0:0:
270,202,31491,1,8,0:0:0:0:
336,244,31848,6,0,P|348:207|340:168,1,80,6|10,1:2|0:0,0:0:0:0:
310,94,32562,2,0,P|366:75|424:85,1,120,2|2,0:2|1:2,0:0:0:0:
502,103,33455,1,2,1:2:0:0:
480,180,33812,2,0,P|471:220|476:261,1,80,2|2,1:2|0:0,0:0:0:0:
405,356,34705,6,0,L|315:351,1,80,2|10,1:2|0:2,0:0:0:0:
244,349,35419,2,0,P|211:301|215:243,1,120,2|2,0:2|1:2,0:0:0:0:
238,166,36312,1,2,1:2:0:0:
303,119,36669,2,0,P|279:97|228:87,1,80,2|2,1:2|1:2,0:0:0:0:
113,90,37562,6,0,P|72:157|81:235,1,160,2|2,1:2|0:0,0:0:0:0:
107,311,38634,1,8,0:0:0:0:
186,316,38991,2,0,L|271:310,1,80,2|8,0:0|0:0,0:0:0:0:
335,271,39705,2,0,L|420:277,1,80,2|10,0:0|0:0,0:0:0:0:
474,328,40419,6,0,P|489:253|434:200,1,160,6|10,1:2|0:0,0:0:0:0:
357,107,41669,2,0,L|153:116,1,200,2|2,1:2|1:2,0:0:0:0:
36,221,43277,6,0,L|124:225,1,80,6|8,1:2|0:0,0:0:0:0:
186,261,43991,2,0,L|274:257,1,80,10|10,0:0|0:0,0:0:0:0:
328,306,44705,2,0,P|402:308|460:240,1,160,10|10,0:0|0:0,0:0:0:0:
410,183,45777,1,10,0:0:0:0:
435,107,46134,6,0,P|465:81|481:45,1,80,10|8,0:0|0:0,0:0:0:0:
413,0,46848,2,0,P|373:-3|336:11,1,80,10|10,0:0|0:0,0:0:0:0:
258,29,47562,2,0,L|94:30,1,160,10|10,0:0|0:0,0:0:0:0:
17,33,48634,1,10,0:0:0:0:
5,112,48991,6,0,P|0:151|5:190,1,80,10|8,0:0|0:0,0:0:0:0:
41,262,49705,2,0,L|124:259,1,80,10|4,0:0|3:0,0:0:0:0:
200,256,50419,1,2,1:2:0:0:
473,20,52027,6,0,L|479:154,1,120,4|4,1:2|1:2,0:0:0:0:
479,259,53098,2,0,P|403:240|337:282,1,160,4|0,1:2|0:0,0:0:0:0:
288,345,54169,1,8,1:0:0:0:
174,301,54705,6,0,P|157:266|157:226,1,80,6|10,1:2|0:0,0:0:0:0:
173,148,55419,1,2,1:2:0:0:
104,106,55777,2,0,L|24:110,2,80,10|2|10,0:2|0:0|0:0,0:0:0:0:
150,41,56848,1,2,1:2:0:0:
230,44,57205,1,10,0:0:0:0:
299,3,57562,6,0,P|338:4|372:23,1,80,2|8,1:2|0:0,0:0:0:0:
440,66,58277,2,0,P|411:92|374:103,1,80,0|8,1:0|0:0,0:0:0:0:
293,112,58991,2,0,P|286:186|339:249,1,160,2|0,0:0|1:0,0:0:0:0:
417,257,60062,1,8,0:0:0:0:
480,208,60419,6,0,P|496:265|487:294,1,80,6|10,1:2|0:0,0:0:0:0:
447,350,61134,1,2,1:2:0:0:
370,326,61491,1,10,0:2:0:0:
293,350,61848,2,0,L|204:347,1,80,2|10,0:0|0:0,0:0:0:0:
145,304,62562,2,0,L|56:307,1,80,2|10,1:2|0:0,0:0:0:0:
7,362,63277,6,0,P|-14:289|34:231,1,160,14|10,0:0|0:0,0:0:0:0:
65,113,64527,2,0,P|97:162|151:186,1,120,6|10,1:2|0:0,0:0:0:0:
215,138,65419,2,0,L|295:142,1,80,0|8,1:0|3:0,0:0:0:0:
357,91,66134,6,0,P|374:129|368:176,1,80,6|10,1:2|0:0,0:0:0:0:
350,243,66848,1,2,1:2:0:0:
417,285,67205,2,0,L|500:282,2,80,10|2|10,0:2|0:0|0:0,0:0:0:0:
390,360,68277,1,2,1:2:0:0:
310,352,68634,1,10,0:0:0:0:
232,374,68991,6,0,P|229:335|246:300,1,80,2|10,1:2|0:0,0:0:0:0:
266,222,69705,2,0,L|257:138,1,80,0|8,1:0|0:0,0:0:0:0:
310,83,70419,2,0,P|241:63|195:92,1,120,2|6,0:2|1:2,0:0:0:0:
155,149,71312,1,2,1:2:0:0:
35,143,71848,6,0,L|46:312,2,160,6|2|2,1:2|1:2|1:2,0:0:0:0:
27,63,73634,1,2,0:0:0:0:
93,18,73991,2,0,P|132:11|171:18,1,80,10|8,0:0|3:0,0:0:0:0:
231,70,74705,6,0,P|270:76|349:54,1,120,10|10,0:0|0:0,0:0:0:0:
455,18,75777,2,0,P|452:76|475:138,1,120,10|10,0:0|0:0,0:0:0:0:
511,247,76848,2,0,P|476:264|427:266,1,80,8|8,3:0|3:0,0:0:0:0:
365,228,77562,6,0,L|232:221,1,120,6|10,1:2|0:0,0:0:0:0:
139,278,78634,2,0,L|132:158,1,120,2|10,1:2|0:0,0:0:0:0:
123,38,79705,1,10,0:2:0:0:
255,127,80419,5,6,1:2:0:0:
256,192,80598,12,2,83277,0:0:0:0:
