osu file format v14

[General]
AudioFilename: audio.mp3
AudioLeadIn: 0
PreviewTime: 83702
Countdown: 0
SampleSet: None
StackLeniency: 0.2
Mode: 0
LetterboxInBreaks: 0
WidescreenStoryboard: 0

[Editor]
Bookmarks: 16714,17028,18915,20016,21274,23947,28350,41559,42188,44390,51938,52252,59800,72380,73638,74896,76154,77727,82444,82916,83388,83702,110749,112007,113108,129619,130877,133393,133865,134336,134651,138110,141884,142356,142828,149747,150219,151005,157295,159811,161069,162641,163585,164843,188745,189216,190003,207614
DistanceSpacing: 0.9
BeatDivisor: 4
GridSize: 4
TimelineZoom: 1

[Metadata]
Title:Chie to Yuuki da! Medarot
TitleUnicode:知恵と勇気だ!メダロット
Artist:Takeuchi Junko
ArtistUnicode:竹内順子
Creator:-NeBu-
Version:Ba-bang-bang! Ba-bang-bang!
Source:メダロット
Tags:takeuchi junko medarot medarotto medabots anime opening vocal
BeatmapID:1608864
BeatmapSetID:765189

[Difficulty]
HPDrainRate:5
CircleSize:4
OverallDifficulty:9.3
ApproachRate:9.7
SliderMultiplier:2
SliderTickRate:1

[Events]
//Background and Video events
0,0,"736357.jpg",0,0
//Break Periods
//Storyboard Layer 0 (Background)
//Storyboard Layer 1 (Fail)
//Storyboard Layer 2 (Pass)
//Storyboard Layer 3 (Foreground)
//Storyboard Sound Samples

[TimingPoints]
13412,314.498375091729,4,1,1,65,1,0
13412,-5,4,1,1,5,0,0
13805,-100,4,1,1,5,0,0
13884,314.498375091729,4,1,1,70,1,0
13884,-100,4,1,1,70,0,0
14198,-50,4,1,1,70,0,0
14984,-90.9090909090909,4,1,1,70,0,0
15456,-50,4,1,1,70,0,0
16242,-100,4,1,1,70,0,0
16714,-66.6666666666667,4,1,1,70,0,0
17657,-100,4,1,1,70,0,0
18915,-80,4,1,1,70,0,0
61058,-200,4,1,1,70,0,0
62159,-80,4,1,1,75,0,1
76154,-90.0900900900901,4,1,1,75,0,1
76469,-80,4,1,1,75,0,1
83702,-80,4,1,1,70,0,0
112793,-181.818181818182,4,1,1,70,0,0
113108,-80,4,1,1,80,0,1
134651,-80,4,1,1,70,0,0
137167,-133.333333333333,4,1,1,70,0,0
151005,-66.6666666666667,4,1,1,70,0,0
151791,-200,4,1,1,70,0,0
152106,-66.6666666666667,4,1,1,80,0,1
167359,-133.333333333333,4,1,1,75,0,0
168459,-57.1428571428571,4,1,1,85,0,1
186229,-57.1428571428571,4,1,1,80,0,0
190003,-57.1428571428571,4,1,1,85,0,1
198809,-80,4,1,1,80,0,0
206671,-66.6666666666667,4,1,1,75,0,0
207614,-66.6666666666667,4,1,1,5,0,0

[HitObjects]
13,278,13411,6,2,L|265:258,1,250
263,259,13884,6,0,L|249:157,1,100
367,2,14198,6,0,B|395:46|395:46|375:202,1,200
286,177,14512,2,2,P|396:103|378:284,1,400
167,156,14984,6,2,B|243:76|243:76|287:180,1,220.000006713867
175,131,15456,6,0,B|245:61|245:61|288:162,1,200
121,123,15770,6,2,B|257:-11|257:-11|339:183,1,400
384,260,16242,6,2,B|266:298|298:219|192:256,1,200
236,345,16714,6,0,P|172:356|105:307,1,150.000005722046
49,220,17028,6,2,B|83:174|56:111|56:111|148:167|234:120,1,300.000011444092
231,121,17500,1,0,0:0:0:0:
328,150,17657,6,0,P|332:101|296:50,1,100
230,121,17972,1,0,0:0:0:0:
253,229,18129,2,0,L|241:269,1,25
316,312,18444,6,0,L|324:340,1,25
396,227,18601,1,0,0:0:0:0:
512,232,18758,1,0,0:0:0:0:
454,117,18915,6,2,B|349:101|349:101|313:125|313:125|192:106,1,250
247,348,19387,1,0,0:0:0:0:
429,227,19544,2,0,P|462:182|453:115,1,125
354,250,19859,2,0,P|386:258|414:247,1,62.5
441,97,20016,6,2,B|310:29|354:149|203:94,1,250
229,13,20488,2,0,P|257:25|285:117,1,125
216,324,20802,1,0,0:0:0:0:
80,108,20960,1,0,0:0:0:0:
329,170,21117,2,0,P|299:183|257:174,1,62.5
366,39,21274,6,2,B|417:50|417:50|449:262,1,250
189,318,21746,2,0,B|171:257|171:257|193:198,1,125
332,348,22060,1,0,0:0:0:0:
96,288,22218,1,0,0:0:0:0:
260,108,22375,1,0,0:0:0:0:
304,360,22532,1,0,0:0:0:0:
68,75,22689,5,0,0:0:0:0:
176,209,22847,1,0,0:0:0:0:
244,4,23004,1,0,0:0:0:0:
0,144,23161,2,2,B|150:199|106:79|237:146,1,250
198,325,23633,2,0,P|170:269|178:201,1,125
318,307,23947,5,8,0:0:0:0:
46,239,24105,1,0,0:0:0:0:
433,211,24419,5,8,0:0:0:0:
100,157,24577,1,0,0:0:0:0:
512,85,24891,5,8,0:3:0:0:
108,55,25049,1,0,0:3:0:0:
268,304,25363,5,8,0:0:0:0:
328,32,25520,1,0,0:0:0:0:
136,212,25677,1,0,0:0:0:0:
408,148,25834,1,0,0:0:0:0:
109,218,25992,1,0,0:0:0:0:
382,153,26149,5,8,0:0:0:0:
152,40,26306,1,0,0:0:0:0:
442,246,26621,5,8,0:0:0:0:
155,134,26778,1,0,0:0:0:0:
512,335,27092,5,8,0:0:0:0:
157,231,27249,1,0,0:0:0:0:
425,80,27564,5,8,0:0:0:0:
70,184,27721,1,0,0:0:0:0:
248,278,27879,5,8,0:0:0:0:
252,166,28036,1,0,0:0:0:0:
256,54,28193,1,0,0:0:0:0:
58,132,28350,6,2,B|18:168|18:168|62:368,1,250
272,196,28822,1,0,0:0:0:0:
80,100,28979,1,0,0:0:0:0:
164,280,29137,1,0,0:0:0:0:
284,32,29294,1,0,0:0:0:0:
24,168,29451,1,0,0:0:0:0:
254,276,29608,2,0,L|378:284,2,125
378,284,30080,1,0,0:0:0:0:
262,150,30237,2,2,B|118:108|174:216|18:166,1,250
255,52,30709,6,2,P|323:74|318:231,1,250
96,124,31181,1,0,0:0:0:0:
320,0,31338,1,0,0:0:0:0:
252,276,31495,1,0,0:0:0:0:
160,68,31653,1,0,0:0:0:0:
412,136,31810,1,0,0:0:0:0:
108,260,31967,1,0,0:0:0:0:
295,130,32124,6,0,P|351:114|419:142,1,125
412,136,32439,1,0,0:0:0:0:
288,316,32596,1,0,0:0:0:0:
27,71,32753,2,2,B|60:59|67:27|67:27|160:88|141:13|250:67,1,250
181,376,33225,6,2,B|153:320|153:320|181:128,1,250
336,264,33697,1,0,0:0:0:0:
104,332,33854,1,0,0:0:0:0:
240,68,34011,1,0,0:0:0:0:
324,348,34169,1,0,0:0:0:0:
420,0,34326,1,0,0:0:0:0:
400,320,34483,1,0,0:0:0:0:
220,54,34640,6,0,L|156:46,1,62.5
321,147,34798,2,0,L|385:139,1,62.5
232,200,34955,1,0,0:0:0:0:
264,296,35112,1,0,0:0:0:0:
146,156,35269,2,0,P|85:137|22:164,1,125
29,157,35584,1,0,0:0:0:0:
289,315,35741,6,2,B|309:213|309:213|285:169|285:169|305:71,1,250
436,384,36213,2,0,L|420:256,1,125
280,56,36527,5,8,0:0:0:0:
204,333,36685,1,0,0:0:0:0:
18,107,36842,5,8,0:0:0:0:
94,384,37000,1,0,0:0:0:0:
452,144,37156,5,8,0:0:0:0:
56,8,37471,5,8,0:0:0:0:
260,356,37785,5,8,0:0:0:0:
425,67,38100,5,8,0:0:0:0:
0,339,38414,6,2,L|252:319,1,250
425,67,38886,6,2,B|279:19|335:129|178:71,1,250
253,4,39358,1,0,0:0:0:0:
365,139,39515,1,0,0:0:0:0:
165,65,39672,6,0,L|181:189,1,125
112,268,39987,1,0,0:0:0:0:
180,343,40144,1,0,0:0:0:0:
112,252,40301,2,0,L|-16:236,1,125
219,120,40616,1,0,0:0:0:0:
180,343,40773,1,0,0:0:0:0:
106,117,40930,5,8,0:0:0:0:
332,43,41088,1,0,0:0:0:0:
405,269,41245,1,0,0:0:0:0:
180,343,41402,1,0,0:0:0:0:
106,117,41559,5,8,0:0:0:0:
156,94,41637,1,0,0:0:0:0:
209,107,41716,1,8,0:0:0:0:
244,149,41794,1,0,0:0:0:0:
245,203,41874,1,8,0:0:0:0:
280,245,41952,1,0,0:0:0:0:
333,258,42031,1,8,0:0:0:0:
383,235,42109,1,0,0:0:0:0:
408,187,42188,6,2,B|432:379|432:379|368:367,1,250
376,368,42660,1,0,0:0:0:0:
247,175,42817,2,0,L|223:303,1,125
77,36,43132,2,0,L|97:160,1,125
400,218,43446,2,2,B|429:171|429:171|349:180|349:180|331:192|331:192|310:186|310:186|221:195,1,250
239,193,43918,1,0,0:0:0:0:
360,312,44075,1,0,0:0:0:0:
407,69,44233,1,0,0:0:0:0:
161,192,44390,2,0,L|225:180,1,62.5
303,102,44547,6,2,B|247:70|247:70|61:101,1,250
264,324,45019,1,0,0:0:0:0:
329,0,45176,1,0,0:0:0:0:
264,324,45333,1,0,0:0:0:0:
94,118,45491,1,0,0:0:0:0:
341,25,45648,2,0,L|273:33,1,62.5
111,143,45805,6,2,B|212:161|212:161|246:138|246:138|352:157,1,250,2|2,3:0|3:0,3:0:0:0:
200,24,46277,1,0,0:0:0:0:
304,288,46434,1,0,0:0:0:0:
358,44,46591,1,0,0:0:0:0:
224,320,46749,1,0,0:0:0:0:
413,112,46906,2,2,B|306:159|334:75|232:120,1,187.5
233,120,47220,6,0,L|104:108,1,125
40,252,47535,1,0,0:0:0:0:
182,32,47692,1,0,0:0:0:0:
164,216,47849,1,0,0:0:0:0:
344,112,48007,1,0,0:0:0:0:
82,54,48164,2,0,B|58:112|58:112|82:174,1,125
217,321,48478,6,2,P|278:221|218:111,1,250
221,113,48950,1,0,0:0:0:0:
128,244,49107,1,0,0:0:0:0:
352,352,49265,1,0,0:0:0:0:
255,64,49422,2,0,L|243:140,1,62.5
352,352,49579,2,2,B|380:304|380:304|344:108,1,250
153,240,50051,5,8,0:0:0:0:
461,334,50208,1,0,0:0:0:0:
333,26,50365,5,8,0:0:0:0:
239,334,50522,1,0,0:0:0:0:
512,0,50680,6,0,L|448:8,1,62.5
35,54,50837,2,2,B|135:67|135:67|160:57|160:57|178:76|178:76|280:90,1,250
108,208,51309,5,8,0:0:0:0:
408,276,51466,1,0,0:0:0:0:
205,161,51623,5,8,0:0:0:0:
505,93,51780,1,0,0:0:0:0:
408,276,51938,5,8,0:0:0:0:
355,243,52016,1,0,0:0:0:0:
331,187,52095,1,8,0:0:0:0:
343,127,52174,1,0,0:0:0:0:
388,85,52252,6,2,B|191:66|191:66|141:86,1,250
201,321,52724,1,0,0:0:0:0:
320,100,52881,1,0,0:0:0:0:
84,256,53039,1,0,0:0:0:0:
320,376,53196,1,0,0:0:0:0:
246,51,53353,2,0,B|204:152|288:137|239:232,1,187.5
216,232,53668,5,8,0:0:0:0:
156,12,53982,5,8,0:0:0:0:
216,232,54139,1,0,0:0:0:0:
388,89,54454,5,8,0:0:0:0:
132,128,54768,5,0,0:0:0:0:
360,203,54926,1,0,0:0:0:0:
98,313,55083,1,0,0:0:0:0:
204,68,55240,1,0,0:0:0:0:
280,372,55397,2,0,L|288:244,1,125
287,247,55712,1,0,0:0:0:0:
186,46,55869,2,0,B|171:121|171:121|191:138|191:138|175:223,1,187.5
147,231,56184,5,8,0:0:0:0:
4,108,56498,5,8,0:0:0:0:
147,231,56655,1,0,0:0:0:0:
186,46,56970,5,8,0:0:0:0:
147,231,57284,5,0,0:0:0:0:
77,10,57442,1,0,0:0:0:0:
236,264,57599,1,0,0:0:0:0:
312,52,57756,1,0,0:0:0:0:
68,184,57913,1,0,0:0:0:0:
376,104,58071,1,0,0:0:0:0:
175,318,58228,2,0,P|154:258|184:200,1,125
463,227,58700,6,2,B|423:275|423:275|227:263,1,250
294,44,59171,2,0,L|306:176,1,125
225,288,59486,1,0,0:0:0:0:
111,122,59643,1,0,0:0:0:0:
332,179,59800,5,8,0:0:0:0:
69,242,59958,1,0,0:0:0:0:
263,128,60115,5,8,0:0:0:0:
0,65,60273,1,0,0:0:0:0:
376,4,60429,5,8,0:0:0:0:
68,144,60587,1,0,0:0:0:0:
476,320,60744,5,8,0:0:0:0:
168,180,60902,1,0,0:0:0:0:
457,0,61058,6,2,P|491:86|457:160,1,175
440,148,61687,5,0,0:0:0:0:
56,72,61845,6,0,P|90:74|124:110,1,75
144,84,62159,6,2,P|208:56|319:172,1,250
224,286,62631,2,0,L|216:158,1,125
389,86,62945,5,8,0:0:0:0:
305,332,63102,1,0,0:0:0:0:
157,58,63260,2,0,L|226:48,1,62.5
243,160,63417,2,2,B|167:192|167:192|-13:148,1,250
157,58,63889,5,8,0:0:0:0:
271,332,64046,1,0,0:0:0:0:
360,81,64203,1,8,0:0:0:0:
144,274,64360,2,0,P|176:286|208:282,1,62.5
382,220,64518,2,0,P|353:208|322:210,1,62.5
353,295,64675,6,2,P|421:291|405:143,1,250
232,260,65147,1,8,0:0:0:0:
331,33,65304,1,0,0:0:0:0:
386,323,65461,1,8,0:0:0:0:
180,144,65618,1,0,0:0:0:0:
420,37,65776,2,0,L|357:43,1,62.5
30,49,65933,6,2,B|125:64|125:64|163:45|163:45|274:61,1,250
140,336,66405,5,8,0:0:0:0:
56,64,66562,1,0,0:0:0:0:
296,32,66719,2,0,P|333:38|357:58,1,62.5
445,65,66876,2,0,P|466:96|469:126,1,62.5
512,214,67034,2,0,P|505:251|486:275,1,62.5
235,208,67191,6,2,P|317:150|438:223,1,250
284,360,67663,1,8,0:0:0:0:
184,84,67820,1,0,0:0:0:0:
116,320,67977,2,0,L|110:255,1,62.5
79,26,68134,2,0,L|84:88,1,62.5
118,339,68292,2,0,L|112:274,1,62.5
96,36,68449,6,2,P|170:-11|275:106,1,250
196,208,68921,2,0,L|184:84,1,125
367,204,69235,1,8,0:0:0:0:
97,327,69392,1,0,0:0:0:0:
223,62,69550,2,0,L|231:134,1,62.5
192,370,69707,6,2,B|254:199|140:294|196:114,1,250
316,248,70179,5,8,0:0:0:0:
192,368,70336,1,0,0:0:0:0:
67,247,70493,1,8,0:0:0:0:
191,130,70650,1,0,0:0:0:0:
192,368,70808,2,0,P|181:336|186:303,2,62.5
296,140,71122,5,8,0:0:0:0:
168,284,71279,1,0,0:0:0:0:
168,284,71437,1,0,0:0:0:0:
80,28,71594,5,8,0:0:0:0:
256,248,71908,5,8,0:0:0:0:
380,232,72066,2,0,L|248:248,1,125
24,94,72380,5,8,0:0:0:0:
214,117,72538,1,0,0:0:0:0:
119,105,72695,1,0,0:0:0:0:
405,140,72852,5,8,0:0:0:0:
309,129,73009,1,0,0:0:0:0:
500,152,73166,1,0,0:0:0:0:
24,94,73324,5,8,0:0:0:0:
500,152,73481,1,0,0:0:0:0:
184,3,73638,6,2,P|260:-9|300:139,1,250
127,265,74110,2,2,B|103:201|103:201|239:77,1,250
245,159,74582,2,0,P|184:138|157:85,1,125
355,1,74896,5,8,0:0:0:0:
400,368,75053,1,0,0:0:0:0:
355,1,75211,1,0,0:0:0:0:
391,294,75368,5,8,0:0:0:0:
373,148,75525,1,0,0:0:0:0:
400,368,75682,1,0,0:0:0:0:
364,76,75839,5,8,0:0:0:0:
382,221,75997,1,0,0:0:0:0:
355,1,76154,6,2,L|384:237,1,222.000005419922
189,372,76626,2,2,B|169:316|169:316|237:134,1,250
279,205,77098,2,0,P|211:213|161:167,1,125
220,13,77412,6,0,L|236:141,1,125
356,328,77727,5,8,0:0:0:0:
408,92,77884,1,0,0:0:0:0:
251,384,78041,5,8,0:0:0:0:
199,148,78198,1,0,0:0:0:0:
301,256,78356,5,8,0:0:0:0:
353,20,78513,1,0,0:0:0:0:
100,132,78670,5,8,0:0:0:0:
400,244,78827,1,0,0:0:0:0:
56,229,78985,5,8,0:0:0:0:
440,72,79142,1,0,0:0:0:0:
0,0,79299,5,8,0:0:0:0:
458,166,79456,1,0,0:0:0:0:
101,384,79614,2,0,L|81:196,1,187.5
56,229,79928,5,8,0:0:0:0:
392,280,80085,1,0,0:0:0:0:
144,68,80557,5,8,0:0:0:0:
180,264,80714,1,0,0:0:0:0:
148,89,80872,5,8,0:0:0:0:
184,285,81029,1,0,0:0:0:0:
139,49,81186,6,2,B|280:15|213:107|384:49,1,250
76,106,81658,2,2,P|40:227|75:346,1,250
307,303,82130,2,0,L|182:284,1,125
185,119,82444,5,8,0:0:0:0:
220,112,82522,1,0,0:0:0:0:
255,125,82601,1,8,0:0:0:0:
274,157,82679,1,0,0:0:0:0:
272,194,82759,1,8,0:0:0:0:
249,222,82837,1,0,0:0:0:0:
301,196,82916,5,8,0:0:0:0:
359,199,82994,1,0,0:0:0:0:
406,235,83073,1,8,0:0:0:0:
424,293,83151,1,0,0:0:0:0:
405,350,83230,1,8,0:0:0:0:
357,384,83309,1,0,0:0:0:0:
330,309,83388,5,8,0:0:0:0:
340,232,83466,1,0,0:0:0:0:
348,156,83545,1,8,0:0:0:0:
324,80,83624,1,0,0:0:0:0:
324,4,83702,6,0,P|386:36|396:96,1,125
242,153,84017,2,0,P|274:91|334:81,1,125
320,155,84331,2,2,P|292:215|163:151,1,250
416,0,84803,6,2,B|408:113|408:113|426:132|426:132|417:251,1,250
340,384,85275,2,0,L|324:260,1,125
146,12,85589,2,2,B|202:20|202:20|230:212,1,250
154,186,86061,2,2,P|210:134|301:250,1,250
229,211,86533,2,0,P|294:156|350:166,1,125
377,320,86847,2,2,P|318:341|252:177,1,250
229,210,87319,1,0,0:0:0:0:
436,88,87476,6,2,B|210:202|274:6|56:112,1,375
144,294,88105,2,0,P|173:240|167:178,2,125
144,294,88577,1,0,0:0:0:0:
80,24,88734,5,8,0:0:0:0:
152,312,88891,1,0,0:0:0:0:
338,96,89206,5,8,0:0:0:0:
266,384,89363,1,0,0:0:0:0:
48,0,89678,5,8,0:0:0:0:
120,288,89835,1,0,0:0:0:0:
300,60,90149,5,8,0:0:0:0:
128,304,90307,1,0,0:0:0:0:
392,376,90464,1,0,0:0:0:0:
224,96,90621,1,0,0:0:0:0:
260,380,90778,1,0,0:0:0:0:
396,16,90936,5,8,0:0:0:0:
269,363,91093,1,0,0:0:0:0:
304,36,91408,5,8,0:0:0:0:
431,383,91565,1,0,0:0:0:0:
88,0,91879,5,8,0:0:0:0:
0,384,92036,1,0,0:0:0:0:
152,96,92351,5,8,0:0:0:0:
32,296,92508,1,0,0:0:0:0:
288,80,92665,1,0,0:0:0:0:
188,364,92823,1,8,0:0:0:0:
64,36,92980,1,0,0:0:0:0:
265,299,93137,6,0,B|373:257|324:345|446:299,1,187.5
443,300,93452,2,0,P|460:236|436:180,1,125
197,77,93766,2,0,P|180:141|204:197,1,125
429,9,94081,2,0,P|364:-7|308:16,1,125
201,193,94395,6,2,B|229:169|229:169|5:189,1,250
140,312,94867,1,0,0:0:0:0:
216,64,95024,1,0,0:0:0:0:
36,176,95181,1,0,0:0:0:0:
188,374,95339,2,0,L|180:310,1,62.5
101,0,95496,6,2,B|69:56|69:56|93:244,1,250
236,80,95968,1,0,0:0:0:0:
288,316,96125,1,0,0:0:0:0:
400,20,96282,1,0,0:0:0:0:
400,352,96439,1,0,0:0:0:0:
148,168,96597,1,0,0:0:0:0:
420,30,96754,6,2,B|387:127|387:127|412:166|412:166|383:266,1,250
245,55,97226,1,0,0:0:0:0:
489,115,97383,1,0,0:0:0:0:
376,286,97540,2,0,P|346:303|308:302,1,62.5
237,348,97697,2,0,P|203:338|177:311,1,62.5
96,304,97855,2,0,P|79:274|80:236,2,62.5
237,348,98169,6,2,L|257:88,1,250
352,296,98641,1,0,0:0:0:0:
164,153,98798,2,0,L|152:29,1,125
326,217,99113,2,0,L|337:93,1,125
161,136,99427,2,2,P|101:169|168:139,1,250
185,158,99899,1,0,0:0:0:0:
79,79,100056,2,0,P|34:136|29:204,1,125
82,355,100371,2,0,L|94:291,1,62.5
174,142,100528,6,2,B|210:114|210:114|418:148,1,250
268,320,101000,1,0,0:0:0:0:
208,36,101157,1,0,0:0:0:0:
272,340,101314,1,0,0:0:0:0:
432,116,101471,1,0,0:0:0:0:
192,286,101629,2,0,L|204:223,1,62.5
331,121,101786,6,2,B|355:169|355:169|159:193,1,250
253,61,102258,1,0,0:0:0:0:
349,294,102415,1,0,0:0:0:0:
187,225,102572,1,0,0:0:0:0:
420,129,102729,1,0,0:0:0:0:
427,327,102887,1,0,0:0:0:0:
384,370,102965,1,0,0:0:0:0:
323,373,103044,1,0,0:0:0:0:
276,333,103122,1,0,0:0:0:0:
270,272,103201,6,0,P|280:196|248:148,2,125
270,272,103673,1,0,0:0:0:0:
173,310,103830,2,0,P|138:312|107:290,1,62.5
257,157,103987,2,0,P|291:154|322:176,1,62.5
124,185,104145,2,0,P|121:150|143:119,1,62.5
256,280,104302,1,0,0:0:0:0:
320,52,104459,1,0,0:0:0:0:
392,240,104616,5,8,0:0:0:0:
320,52,104931,1,0,0:0:0:0:
256,280,105088,1,8,0:0:0:0:
320,52,105403,1,8,0:0:0:0:
392,240,105717,6,0,P|448:244|496:188,1,125
344,72,106032,1,0,0:0:0:0:
408,272,106189,1,0,0:0:0:0:
484,16,106346,1,0,0:0:0:0:
296,140,106503,1,0,0:0:0:0:
440,256,106661,1,0,0:0:0:0:
327,115,106818,2,2,L|71:103,1,250
77,103,107447,5,0,0:0:0:0:
77,103,107604,1,8,0:0:0:0:
77,103,107919,1,8,0:0:0:0:
308,100,108233,6,0,L|324:228,2,125
292,8,108705,1,0,0:0:0:0:
220,220,108862,1,0,0:0:0:0:
112,56,109019,1,0,0:0:0:0:
180,308,109177,1,0,0:0:0:0:
291,119,109334,2,0,B|402:90|343:161|473:116,1,187.5
471,116,109648,6,0,L|460:248,1,125
338,336,109963,1,0,0:0:0:0:
224,100,110120,1,0,0:0:0:0:
456,156,110277,1,0,0:0:0:0:
311,329,110435,2,0,P|248:344|191:309,1,125
80,56,110749,5,8,0:0:0:0:
53,330,110906,1,0,0:0:0:0:
170,0,111063,5,8,0:0:0:0:
197,274,111220,1,0,0:0:0:0:
428,56,111378,5,8,0:0:0:0:
455,330,111535,1,0,0:0:0:0:
338,0,111692,5,8,0:0:0:0:
311,274,111849,1,0,0:0:0:0:
256,40,112007,5,8,0:0:0:0:
340,278,112636,6,0,P|366:260|370:232,1,62.5
359,200,112793,6,0,L|268:208,1,82.5000025177003
153,111,113108,6,2,P|213:79|269:215,1,250
175,253,113579,2,0,P|209:211|293:215,1,125
256,340,113894,2,0,L|248:276,1,62.5
335,80,114051,2,0,L|327:142,1,62.5
464,277,114208,2,0,L|456:214,1,62.5
349,70,114366,6,2,B|196:15|255:129|97:74,1,250
164,4,114837,1,8,0:0:0:0:
244,330,114995,1,0,0:0:0:0:
282,140,115152,2,0,L|270:212,1,62.5
238,352,115309,2,0,L|248:290,1,62.5
287,116,115466,2,0,L|276:177,1,62.5
165,295,115624,6,2,B|117:250|132:191|132:191|118:176|118:176|128:162|128:162|130:109|79:78,1,250
0,327,116095,2,0,L|140:315,1,125
416,280,116410,1,8,0:0:0:0:
207,167,116567,1,0,0:0:0:0:
300,384,116724,2,0,L|312:320,1,62.5
390,104,116882,2,2,B|403:66|403:66|319:74|319:74|301:82|301:82|283:76|283:76|194:84,1,250
96,196,117275,1,0,0:0:0:0:
100,215,117353,6,0,P|128:231|164:227,1,62.5
279,348,117511,2,0,P|295:320|291:284,1,62.5
412,169,117668,2,0,P|384:153|348:157,1,62.5
233,36,117826,2,0,P|217:64|221:100,1,62.5
317,278,117982,2,0,L|309:210,1,62.5
151,14,118140,6,2,B|83:38|83:38|127:222,1,250
248,283,118611,2,0,P|265:219|252:159,2,125
148,328,119005,1,0,0:0:0:0:
136,312,119083,2,0,P|119:276|120:240,1,62.5
337,241,119240,2,0,P|333:272|319:300,1,62.5
62,169,119398,2,2,P|45:133|190:67,1,250
168,134,119869,2,0,P|212:102|284:118,1,125
256,300,120184,6,0,L|232:172,1,125
314,63,120420,1,0,0:0:0:0:
314,63,120498,2,0,L|306:139,1,62.5
391,196,120656,2,2,B|234:272|286:162|149:212,1,250
209,290,121127,1,8,0:0:0:0:
307,125,121285,1,0,0:0:0:0:
96,188,121442,1,8,0:0:0:0:
432,272,121599,2,0,L|424:208,1,62.5
298,39,121756,2,0,L|290:101,1,62.5
233,319,121914,1,0,0:0:0:0:
128,80,122071,5,8,0:0:0:0:
424,120,122228,1,0,0:0:0:0:
220,296,122385,1,8,0:0:0:0:
200,32,122543,2,2,B|301:17|301:17|318:31|318:31|448:12,1,250
328,352,123014,1,8,0:0:0:0:
228,48,123172,1,0,0:0:0:0:
100,152,123329,6,0,L|84:220,1,62.5
95,179,123486,2,0,L|91:249,1,62.5
95,207,123643,2,0,L|103:277,1,62.5
304,220,123801,6,0,L|320:288,1,62.5
308,247,123958,2,0,L|311:316,1,62.5
308,275,124115,2,0,L|299:344,1,62.5
219,259,124272,2,0,P|211:195|249:143,1,125
424,142,124587,2,2,P|364:166|232:58,1,250
412,8,125059,2,2,B|460:52|460:52|432:248,1,250
372,384,125530,2,0,L|352:252,1,125
260,60,125845,6,0,L|248:188,2,125
384,240,126317,2,0,L|396:368,2,125
512,0,126788,2,0,L|500:128,1,125
476,96,127103,2,2,B|424:144|424:144|476:332,1,250
408,132,127575,2,2,P|336:112|268:248,1,250
377,307,128046,2,0,P|321:279|257:287,1,125
224,360,128361,1,8,0:0:0:0:
184,136,128675,6,0,P|232:124|304:144,1,125
63,58,128990,2,0,P|112:58|176:96,1,125
0,318,129304,2,0,P|49:317|113:279,1,125
224,72,129619,5,8,0:0:0:0:
328,304,129776,1,0,0:0:0:0:
353,0,129933,5,8,0:0:0:0:
186,371,130090,1,0,0:0:0:0:
229,91,130248,5,8,0:0:0:0:
316,285,130405,1,0,0:0:0:0:
284,156,130562,5,8,0:0:0:0:
240,253,130719,1,0,0:0:0:0:
87,136,130877,5,8,0:0:0:0:
424,247,131034,1,0,0:0:0:0:
294,97,131506,5,8,0:0:0:0:
266,181,131663,1,0,0:0:0:0:
314,253,131820,1,8,0:0:0:0:
402,257,131978,1,0,0:0:0:0:
288,72,132135,6,0,P|228:64|168:100,2,125
340,349,132607,2,2,B|276:321|276:321|240:133,1,250
351,0,133078,2,0,L|327:140,1,125
144,184,133393,5,8,0:0:0:0:
161,158,133471,1,0,0:0:0:0:
184,137,133550,1,8,0:0:0:0:
213,125,133628,1,0,0:0:0:0:
244,120,133707,1,8,0:0:0:0:
275,124,133786,1,0,0:0:0:0:
305,149,133865,5,8,0:0:0:0:
282,113,133944,1,0,0:0:0:0:
252,88,134023,1,8,0:0:0:0:
216,69,134101,1,0,0:0:0:0:
176,62,134180,1,8,0:0:0:0:
136,68,134258,1,0,0:0:0:0:
168,140,134336,5,8,0:0:0:0:
240,176,134415,1,0,0:0:0:0:
316,148,134494,1,8,0:0:0:0:
372,88,134572,1,0,0:0:0:0:
348,8,134651,6,2,L|368:264,1,250
224,176,135123,1,0,0:0:0:0:
280,328,135280,2,2,B|111:278|181:371|24:328,1,250
37,331,135752,1,0,0:0:0:0:
69,140,135909,2,0,P|101:204|93:264,1,125
12,216,136223,1,0,0:0:0:0:
12,216,136381,1,0,0:0:0:0:
80,128,136538,6,0,P|110:113|151:116,1,62.5
204,160,136695,1,0,0:0:0:0:
278,134,136852,1,0,0:0:0:0:
348,172,137010,1,0,0:0:0:0:
348,204,137088,1,0,0:0:0:0:
368,228,137167,6,2,B|416:217|428:178|418:137|418:137|476:173|488:263|468:328|468:328|398:306|341:349,1,450.000017166138
328,332,138215,5,0,0:0:0:0:
304,336,138320,5,0,0:0:0:0:
280,324,138425,6,2,B|176:308|176:308|136:316|136:316|-28:292,1,300.000011444092
4,280,139159,6,0,L|16:352,1,50.0000019073487
113,231,139368,6,0,L|101:303,2,50.0000019073487
75,131,139683,6,2,B|110:93|160:93|160:93|173:105|173:105|189:92|189:92|235:111|297:67,1,225.000008583069
216,19,140312,2,2,P|200:115|256:163,1,150.000005722046
264,152,140784,1,0,0:0:0:0:
408,114,140941,6,0,L|319:107,2,75.0000028610231
460,188,141413,1,0,0:0:0:0:
362,331,141570,6,0,B|364:305|364:305|378:289|378:289|377:260,1,75.0000028610231
307,220,141884,6,2,B|295:198|295:198|303:163|303:163|296:142|296:142|283:142|278:131|278:131|282:121|282:121|278:96|282:86|282:86|267:74,1,150.000005722046
177,132,142356,6,2,B|142:133|142:133|126:141|126:141|98:141|94:141|94:141|78:153|78:153|74:165|60:165|60:165|48:183|48:183|28:194,1,150.000005722046
122,249,142749,1,0,0:0:0:0:
147,241,142828,2,2,P|213:273|237:356,1,150.000005722046
238,341,143300,1,0,0:0:0:0:
272,248,143457,5,0,0:0:0:0:
360,224,143614,1,0,0:0:0:0:
440,268,143771,1,0,0:0:0:0:
364,261,143929,5,0,0:0:0:0:
360,224,144007,2,0,L|348:172,1,37.5000014305115
269,155,144243,5,0,0:0:0:0:
273,118,144321,2,0,L|285:66,1,37.5000014305115
356,192,144558,1,0,0:0:0:0:
277,257,144715,6,2,B|212:271|212:271|186:258|186:258|133:271,1,150.000005722046
156,296,145187,1,0,0:0:0:0:
227,184,145344,2,2,P|239:124|163:52,1,150.000005722046
187,58,145816,1,0,0:0:0:0:
120,182,145973,6,0,L|196:190,1,75.0000028610231
288,128,146287,1,0,0:0:0:0:
288,128,146445,1,0,0:0:0:0:
276,296,146602,1,0,0:0:0:0:
376,180,146759,1,0,0:0:0:0:
364,344,146916,1,0,0:0:0:0:
276,264,147074,1,0,0:0:0:0:
232,256,147152,1,0,0:0:0:0:
188,248,147231,6,2,B|204:208|204:208|248:324,1,150.000005722046
241,307,147703,1,0,0:0:0:0:
112,196,147860,6,0,L|120:104,2,75.0000028610231
216,112,148332,2,0,L|196:28,1,75.0000028610231
304,180,148646,2,0,L|328:88,2,75.0000028610231
348,260,149118,1,0,0:0:0:0:
280,309,149275,1,0,0:0:0:0:
224,238,149432,2,0,P|187:244|157:266,1,75.0000028610231
220,317,149747,5,8,0:0:0:0:
256,310,149825,1,0,0:0:0:0:
286,288,149904,1,8,0:0:0:0:
302,255,149982,1,0,0:0:0:0:
302,218,150061,1,8,0:0:0:0:
284,185,150140,1,0,0:0:0:0:
243,167,150218,5,8,0:0:0:0:
300,164,150297,1,0,0:0:0:0:
347,131,150376,1,8,0:0:0:0:
363,76,150454,1,0,0:0:0:0:
405,41,150533,1,8,0:0:0:0:
462,34,150612,5,0,0:0:0:0:
392,16,150690,1,8,0:0:0:0:
320,32,150769,1,0,0:0:0:0:
272,92,150848,1,8,0:0:0:0:
200,116,150926,1,0,0:0:0:0:
128,92,151005,6,2,B|155:25|222:11|299:39|310:138|272:168|238:202|181:190|181:190|225:237|225:237|191:284|191:284|211:338,1,525.000020027161
228,324,151634,1,0,0:0:0:0:
228,324,151791,6,0,P|264:312|304:332,1,75
284,344,152106,6,2,B|246:188|246:188|312:56,1,300.000011444092
439,221,152577,1,8,0:0:0:0:
142,178,152735,1,0,0:0:0:0:
308,63,152892,1,8,0:0:0:0:
396,296,153049,1,0,0:0:0:0:
512,0,153206,1,8,0:0:0:0:
388,316,153364,6,2,B|188:366|263:252|84:308,1,300.000011444092
301,232,153835,2,0,P|333:161|317:94,1,150.000005722046
164,168,154150,1,8,0:0:0:0:
332,256,154307,1,0,0:0:0:0:
247,0,154464,1,8,0:0:0:0:
128,160,154622,6,2,B|112:200|112:200|360:128,1,300.000011444092
170,90,155093,2,0,P|106:82|50:146,1,150.000005722046
174,373,155408,2,0,L|186:221,2,150.000005722046
174,373,155880,1,0,0:0:0:0:
80,84,156037,1,8,0:0:0:0:
232,312,156194,1,0,0:0:0:0:
340,4,156351,1,8,0:0:0:0:
94,170,156509,2,2,B|213:152|213:152|237:167|237:167|257:144|257:144|376:125,1,300.000011444092
249,17,156980,2,0,L|237:173,1,150.000005722046
440,332,157295,5,8,0:0:0:0:
340,40,157452,1,0,0:0:0:0:
340,40,157609,1,0,0:0:0:0:
72,332,157767,5,8,0:0:0:0:
172,40,157924,1,0,0:0:0:0:
172,40,158081,1,0,0:0:0:0:
276,324,158238,5,8,0:0:0:0:
172,40,158396,1,0,0:0:0:0:
81,96,158553,2,2,B|256:182|188:53|385:92,1,300.000011444092
142,45,159025,2,2,P|52:22|89:174,1,300.000011444092
443,129,159496,2,0,P|398:81|312:89,1,150.000005722046
128,208,159811,5,8,0:0:0:0:
461,301,159968,1,0,0:0:0:0:
461,301,160125,1,0,0:0:0:0:
46,172,160282,5,8,0:0:0:0:
512,47,160439,1,0,0:0:0:0:
512,47,160596,1,0,0:0:0:0:
308,368,160754,5,8,0:0:0:0:
252,4,160911,1,0,0:0:0:0:
512,180,161069,6,2,B|434:131|371:176|371:176|353:154|353:154|287:192|216:148,1,300.000011444092
291,84,161540,2,2,B|319:32|319:32|67:56,1,300.000011444092
188,344,162012,1,8,0:0:0:0:
261,68,162169,1,0,0:0:0:0:
368,380,162327,2,0,P|384:312|344:244,1,150.000005722046
148,104,162641,5,8,0:0:0:0:
72,324,162798,1,0,0:0:0:0:
336,128,162956,1,0,0:0:0:0:
68,140,163113,1,0,0:0:0:0:
276,360,163270,1,8,0:0:0:0:
192,24,163427,1,0,0:0:0:0:
114,232,163585,5,8,0:0:0:0:
336,128,163742,1,0,0:0:0:0:
58,172,163899,5,8,0:0:0:0:
350,289,164056,1,0,0:0:0:0:
41,284,164214,5,8,0:0:0:0:
418,112,164371,1,0,0:0:0:0:
0,0,164528,5,8,0:0:0:0:
512,384,164685,1,0,0:0:0:0:
255,0,164843,5,8,0:0:0:0:
180,384,165000,1,0,0:0:0:0:
368,152,165314,5,0,0:0:0:0:
316,132,165393,1,0,0:0:0:0:
268,156,165472,2,0,L|252:312,1,150.000005722046
392,208,165786,1,0,0:0:0:0:
88,92,165943,1,0,0:0:0:0:
217,302,166101,6,0,L|205:226,2,75.0000028610231
132,364,166415,1,0,0:0:0:0:
187,205,166572,2,2,B|363:142|258:277|499:180,1,300.000011444092
428,0,167044,2,0,B|369:78|369:78|376:152,1,150.000005722046
340,96,167359,6,2,P|260:72|281:199,1,262.500010013581
264,212,167988,6,0,L|186:220,1,75.0000028610231
308,332,168302,1,0,0:0:0:0:
396,120,168459,6,2,B|421:59|421:59|198:35|198:35|216:110,1,350.00000333786
403,245,168931,2,0,P|327:241|275:329,1,175.00000166893
445,315,169246,6,0,P|475:287|481:234,1,87.500000834465
403,245,169403,2,0,P|373:217|367:164,1,87.500000834465
442,176,169560,2,0,P|472:148|478:95,1,87.500000834465
275,17,169717,6,2,B|236:140|236:140|277:199|277:199|230:353,1,350.00000333786
432,160,170189,1,8,0:0:0:0:
80,224,170346,1,0,0:0:0:0:
312,336,170504,5,8,0:0:0:0:
280,130,170661,1,0,0:0:0:0:
172,364,170818,1,8,0:0:0:0:
484,236,170975,6,2,B|456:176|496:124|496:124|379:199|274:126,1,350.00000333786
209,223,171447,2,0,P|129:207|57:271,1,175.00000166893
296,340,171762,1,8,0:0:0:0:
217,50,171919,1,0,0:0:0:0:
149,295,172076,1,8,0:0:0:0:
295,0,172233,1,0,0:0:0:0:
88,88,172391,5,8,0:0:0:0:
372,176,172548,1,0,0:0:0:0:
24,304,172705,1,8,0:0:0:0:
372,176,172862,1,0,0:0:0:0:
184,61,173020,6,0,P|132:53|83:67,1,87.500000834465
187,290,173177,2,0,P|230:298|273:290,1,87.500000834465
415,13,173334,2,0,P|363:5|314:19,1,87.500000834465
373,378,173491,6,2,B|437:306|437:306|418:229|418:229|429:185|429:185|390:166|390:166|366:82,1,350.00000333786
82,168,173963,1,8,0:0:0:0:
380,209,174120,1,0,0:0:0:0:
227,0,174278,2,0,L|219:100,1,87.500000834465
320,384,174435,2,0,L|313:296,1,87.500000834465
206,23,174592,2,0,L|198:123,1,87.500000834465
389,190,174749,6,2,B|345:134|345:134|69:186,1,350.00000333786
292,384,175221,2,0,B|333:310|333:310|309:216,1,175.00000166893
252,12,175536,1,8,0:0:0:0:
126,272,175693,1,0,0:0:0:0:
325,205,175850,1,8,0:0:0:0:
65,79,176007,6,2,B|-12:177|32:324|32:324|82:323|111:266,1,350.00000333786
184,120,176479,2,0,P|232:180|340:172,1,175.00000166893
416,28,176794,1,8,0:0:0:0:
488,352,176951,1,0,0:0:0:0:
278,102,177108,1,8,0:0:0:0:
404,332,177265,1,0,0:0:0:0:
504,56,177423,5,8,0:0:0:0:
144,188,177580,1,0,0:0:0:0:
488,352,177737,1,8,0:0:0:0:
370,141,177894,6,2,B|305:165|255:126|255:126|218:134|218:134|190:104|190:104|144:97|144:97|90:109|90:109|61:151,1,350.00000333786
132,362,178366,2,0,L|144:182,1,175.00000166893
252,304,178681,5,8,0:0:0:0:
344,48,178838,1,0,0:0:0:0:
428,368,178995,1,0,0:0:0:0:
260,0,179152,5,8,0:0:0:0:
172,344,179310,1,0,0:0:0:0:
56,48,179467,1,0,0:0:0:0:
348,148,179624,5,8,0:0:0:0:
0,247,179781,1,0,0:0:0:0:
260,0,179939,6,2,P|344:48|208:48,1,350.00000333786
417,32,180410,2,2,P|401:147|191:186,1,350.00000333786
248,33,180882,2,0,P|276:89|244:205,1,175.00000166893
144,336,181197,5,8,0:0:0:0:
56,176,181354,1,0,0:0:0:0:
220,16,181511,1,0,0:0:0:0:
174,311,181668,5,8,0:0:0:0:
130,133,181825,1,0,0:0:0:0:
330,21,181982,1,0,0:0:0:0:
213,301,182140,5,8,0:0:0:0:
116,0,182297,1,0,0:0:0:0:
40,328,182455,6,2,B|12:364|12:364|320:328,1,350.00000333786
460,132,182926,2,2,B|408:104|408:104|283:114|283:114|160:89|160:89|112:104,1,350.00000333786
368,348,183398,1,8,0:0:0:0:
448,8,183555,1,0,0:0:0:0:
512,384,183713,1,8,0:0:0:0:
280,132,184027,5,8,0:0:0:0:
232,296,184184,1,0,0:0:0:0:
344,64,184342,5,8,0:0:0:0:
396,344,184499,1,0,0:0:0:0:
200,33,184656,5,8,0:0:0:0:
118,334,184813,1,0,0:0:0:0:
448,120,184971,5,8,0:0:0:0:
82,41,185128,1,0,0:0:0:0:
508,180,185285,5,8,0:0:0:0:
0,336,185442,1,0,0:0:0:0:
512,336,185600,5,8,0:0:0:0:
4,180,185757,1,0,0:0:0:0:
306,287,185914,6,0,B|258:315|258:315|292:107,1,262.500002503395
294,53,186229,2,0,B|318:157|318:157|254:133,1,175.00000166893
479,57,186700,6,0,L|367:73,1,87.500000834465
320,32,186858,1,8,0:0:0:0:
240,64,187015,1,0,0:0:0:0:
296,128,187172,1,8,0:0:0:0:
236,220,187329,1,0,0:0:0:0:
3,128,187487,6,2,B|224:198|116:57|367:144,1,350.00000333786
5,255,187958,6,2,B|224:186|116:327|342:248,1,350.00000333786
482,194,188430,6,0,P|418:178|386:70,1,175.00000166893
472,100,188745,5,8,0:0:0:0:
443,149,188823,1,0,0:0:0:0:
390,172,188902,1,8,0:0:0:0:
335,160,188980,1,0,0:0:0:0:
297,116,189059,1,8,0:0:0:0:
293,59,189138,1,0,0:0:0:0:
323,11,189216,5,8,0:0:0:0:
272,72,189295,1,0,0:0:0:0:
192,84,189374,1,8,0:0:0:0:
116,76,189452,1,0,0:0:0:0:
60,20,189531,1,8,0:0:0:0:
44,96,189609,1,0,0:0:0:0:
76,168,189688,1,8,0:0:0:0:
144,208,189767,1,0,0:0:0:0:
224,208,189845,1,8,0:0:0:0:
288,160,189924,1,0,0:0:0:0:
320,88,190003,6,0,B|343:273|343:273,1,175.00000166893
144,208,190317,2,0,B|121:393|121:393,1,175.00000166893
449,254,190632,2,2,B|492:155|492:155|253:118,1,350.00000333786
322,268,191103,6,2,B|356:211|356:211|136:175|136:175|144:239,1,350.00000333786
230,271,191575,2,0,P|218:179|134:139,1,175.00000166893
64,66,191890,2,2,B|42:115|42:115|277:53|277:53|249:108,1,350.00000333786
202,364,192361,6,2,B|158:289|158:289|286:36,1,350.00000333786
471,173,192833,2,0,P|399:220|298:193,1,175.00000166893
223,0,193148,2,2,B|275:-20|275:-20|254:92|254:92|231:114|231:114|225:150|225:150|204:178|204:178|192:258,1,350.00000333786
192,253,193619,1,0,0:0:0:0:
88,64,193777,5,8,0:0:0:0:
348,3,193934,1,0,0:0:0:0:
212,340,194091,1,8,0:0:0:0:
88,64,194248,6,2,B|149:16|220:59|220:59|230:80|230:80|258:73|258:73|320:129|405:100,1,350.00000333786
348,3,194720,1,8,0:0:0:0:
212,340,194877,1,0,0:0:0:0:
92,96,195035,5,8,0:0:0:0:
420,44,195192,1,0,0:0:0:0:
240,256,195349,2,0,P|224:172|280:100,1,175.00000166893
512,165,195664,2,2,B|442:222|442:222|168:157,1,350.00000333786
343,0,196135,6,0,P|413:47|421:131,1,175.00000166893
421,131,196450,1,0,0:0:0:0:
186,212,196607,2,0,P|242:192|342:252,1,175.00000166893
65,226,196922,2,2,P|129:114|301:190,1,350.00000333786
193,266,197393,6,2,B|149:94|149:94|301:-6,1,350.00000333786
464,216,197865,2,0,P|384:232|300:188,1,175.00000166893
367,13,198180,2,2,B|407:139|407:139|372:201|372:201|418:349,1,350.00000333786
415,340,198651,1,0,0:0:0:0:
73,145,198809,6,2,B|137:152|174:96|174:96|226:146|294:122,1,250
251,315,199280,2,2,B|203:291|203:291|174:93,1,250
316,0,199752,2,0,L|296:124,1,125
252,369,200067,5,8,0:0:0:0:
316,0,200224,1,0,0:0:0:0:
252,348,200538,5,8,0:0:0:0:
309,22,200695,1,0,0:0:0:0:
252,325,201010,5,8,0:0:0:0:
301,46,201167,1,0,0:0:0:0:
429,280,201482,5,8,0:0:0:0:
380,0,201639,1,0,0:0:0:0:
350,326,201796,1,0,0:0:0:0:
301,46,201953,1,8,0:0:0:0:
504,320,202111,1,0,0:0:0:0:
100,192,202268,5,8,0:0:0:0:
512,60,202425,1,0,0:0:0:0:
121,192,202740,5,8,0:0:0:0:
476,78,202897,1,0,0:0:0:0:
142,192,203212,5,8,0:0:0:0:
441,96,203369,1,0,0:0:0:0:
165,192,203683,5,8,0:0:0:0:
404,115,203840,1,0,0:0:0:0:
249,33,203998,5,8,0:0:0:0:
326,272,204155,1,0,0:0:0:0:
392,96,204312,1,0,0:0:0:0:
176,184,204470,5,8,0:0:0:0:
436,332,204627,1,0,0:0:0:0:
336,24,204784,1,0,0:0:0:0:
152,208,204941,2,2,B|300:253|238:148|395:204,1,250
392,202,205413,1,0,0:0:0:0:
122,285,205570,2,2,P|70:193|182:133,1,250
172,129,206199,1,0,0:0:0:0:
172,129,206357,1,8,0:0:0:0:
172,129,206671,6,2,B|223:114|257:49|257:49|320:132|292:167|397:212|457:151|407:44|352:36|289:137|289:137|256:182|203:200|203:200|245:238|306:225|306:225|276:273|230:293|230:293|262:323|243:373,1,900.000034332277
