osu file format v14

[General]
AudioFilename: audio.mp3
AudioLeadIn: 0
PreviewTime: 82855
Countdown: 0
SampleSet: Normal
StackLeniency: 0.7
Mode: 1
LetterboxInBreaks: 0
WidescreenStoryboard: 1

[Editor]
Bookmarks: 1255,13255,22855,32455,42055,51655,61255,70855
DistanceSpacing: 0.7
BeatDivisor: 4
GridSize: 4
TimelineZoom: 1.100001

[Metadata]
Title:Rotterdam Tech-Cocoa
TitleUnicode:ロッテルダムテクココア
Artist:Taketou
ArtistUnicode:竹塔
Creator:gaston_2199
Version:Kantan
Source:
Tags:ご注文はうさぎですか? gochuumon wa usagi desu ka? is the order a rabbit? gochiusa 佐倉綾音 sakura ayane 保登心愛 ココア hoto cocoa 水瀬いのり minase inori 香風智乃 チノ kafuu chino 種田梨沙 taneda risa 天々座理世 リゼ tedeza rize 佐藤聡美 satou satomi 宇治松千夜 ujimatsu chiya 内田真礼 uchida maaya 桐間 紗路 kirima syaro sharo rotter tarmination 細江慎治 Hosoe Shinji SamplingMasters MEGA MEGATEN 太鼓の達人音MADリンク taiko no tatsujin otomad rinku sound ご注文はMADですか?ニコニコ動画 niconico nico douga novelty japanese
BeatmapID:2716922
BeatmapSetID:771302

[Difficulty]
HPDrainRate:8
CircleSize:2
OverallDifficulty:3
ApproachRate:10
SliderMultiplier:1.4
SliderTickRate:1

[Events]
//Background and Video events
0,0,"BG.jpg",0,-30
Video,0,"TaikoVideo.mp4"
//Break Periods
//Storyboard Layer 0 (Background)
//Storyboard Layer 1 (Fail)
//Storyboard Layer 2 (Pass)
//Storyboard Layer 3 (Foreground)
//Storyboard Layer 4 (Overlay)
//Storyboard Sound Samples

[TimingPoints]
55,300,4,1,0,80,1,0
82855,300,3,1,0,80,1,0
97255,300,4,1,0,80,1,0
97255,-100,3,1,0,90,0,1
108055,-100,3,1,0,80,0,0

[HitObjects]
256,192,1255,5,4,0:0:0:0:
103,82,1855,1,8,0:0:0:0:
256,192,2455,1,0,0:0:0:0:
172,50,3355,1,8,0:0:0:0:
256,192,3655,5,4,0:0:0:0:
252,180,4255,1,8,0:0:0:0:
256,192,4855,1,0,0:0:0:0:
256,192,5755,1,8,0:0:0:0:
256,192,6055,5,4,0:0:0:0:
141,41,6655,1,0,0:0:0:0:
256,192,7255,1,8,0:0:0:0:
256,192,7855,1,8,0:0:0:0:
253,189,8155,1,8,0:0:0:0:
256,192,8455,1,4,0:0:0:0:
256,192,9055,1,0,0:0:0:0:
256,192,9355,1,8,0:0:0:0:
287,178,9655,1,4,0:0:0:0:
237,142,10555,1,4,0:0:0:0:
256,192,10855,1,4,0:0:0:0:
256,192,11005,12,0,13105,0:0:0:0:
256,192,13255,5,0,0:0:0:0:
206,108,13855,1,8,0:0:0:0:
256,192,14455,1,8,0:0:0:0:
256,192,14755,1,0,0:0:0:0:
256,192,15655,1,0,0:0:0:0:
113,67,16255,1,8,0:0:0:0:
256,192,16855,1,4,0:0:0:0:
256,192,18055,1,0,0:0:0:0:
222,136,18655,1,8,0:0:0:0:
256,192,19255,1,0,0:0:0:0:
256,192,19555,1,8,0:0:0:0:
256,192,19855,1,0,0:0:0:0:
256,192,20455,1,8,0:0:0:0:
256,192,21055,1,0,0:0:0:0:
256,192,21355,1,8,0:0:0:0:
256,192,21655,1,4,0:0:0:0:
256,192,22855,1,4,0:0:0:0:
256,192,23455,1,8,0:0:0:0:
248,158,24055,1,0,0:0:0:0:
256,192,25255,1,0,0:0:0:0:
256,192,25855,1,0,0:0:0:0:
256,192,26455,1,8,0:0:0:0:
174,148,26755,1,0,0:0:0:0:
256,192,27055,1,8,0:0:0:0:
256,192,27655,1,0,0:0:0:0:
256,192,28255,1,8,0:0:0:0:
256,192,28855,1,0,0:0:0:0:
256,192,30055,1,0,0:0:0:0:
256,192,30655,1,8,0:0:0:0:
256,192,31255,1,8,0:0:0:0:
242,108,31555,1,0,0:0:0:0:
256,192,31855,1,8,0:0:0:0:
256,192,32455,1,0,0:0:0:0:
176,145,32755,1,8,0:0:0:0:
128,59,33055,1,0,0:0:0:0:
256,192,33655,1,8,0:0:0:0:
209,92,33955,1,0,0:0:0:0:
109,61,34255,1,8,0:0:0:0:
256,192,34855,1,0,0:0:0:0:
256,192,36055,1,8,0:0:0:0:
256,192,36655,1,8,0:0:0:0:
256,192,37255,1,0,0:0:0:0:
206,103,37555,1,8,0:0:0:0:
236,45,37855,1,0,0:0:0:0:
256,192,38455,1,8,0:0:0:0:
203,110,38755,1,0,0:0:0:0:
256,192,39055,1,8,0:0:0:0:
256,192,39655,1,0,0:0:0:0:
256,192,40855,1,8,0:0:0:0:
256,192,41455,1,8,0:0:0:0:
256,192,42055,1,4,0:0:0:0:
153,42,42655,1,8,0:0:0:0:
256,192,43255,1,0,0:0:0:0:
256,192,44455,1,0,0:0:0:0:
189,3,45055,1,8,0:0:0:0:
256,192,45655,1,0,0:0:0:0:
256,192,46255,1,8,0:0:0:0:
256,192,46555,1,8,0:0:0:0:
256,192,46855,1,0,0:0:0:0:
256,192,47455,1,8,0:0:0:0:
256,192,48055,1,0,0:0:0:0:
229,100,48955,1,8,0:0:0:0:
256,192,49255,1,0,0:0:0:0:
256,192,49855,1,0,0:0:0:0:
256,192,50155,1,8,0:0:0:0:
237,146,50455,1,4,0:0:0:0:
256,192,51655,5,4,0:0:0:0:
256,192,52255,1,8,0:0:0:0:
256,192,53155,1,8,0:0:0:0:
247,101,53455,1,0,0:0:0:0:
194,16,54055,1,8,0:0:0:0:
256,192,54355,1,0,0:0:0:0:
256,192,54655,1,8,0:0:0:0:
256,192,55255,1,4,0:0:0:0:
256,192,56455,1,4,0:0:0:0:
256,192,57355,1,0,0:0:0:0:
256,192,57655,1,8,0:0:0:0:
256,192,58255,1,8,0:0:0:0:
256,192,58555,1,8,0:0:0:0:
256,192,58855,1,0,0:0:0:0:
256,192,59455,1,8,0:0:0:0:
256,192,60055,1,4,0:0:0:0:
256,192,61255,5,0,0:0:0:0:
256,192,62455,1,8,0:0:0:0:
256,192,63055,1,8,0:0:0:0:
256,192,63655,1,0,0:0:0:0:
256,192,64855,1,8,0:0:0:0:
256,192,65455,1,8,0:0:0:0:
256,192,66055,1,0,0:0:0:0:
256,192,66655,1,8,0:0:0:0:
256,192,66955,1,0,0:0:0:0:
256,192,67255,1,8,0:0:0:0:
256,192,67855,1,8,0:0:0:0:
256,192,68455,1,0,0:0:0:0:
264,136,69655,1,4,0:0:0:0:
256,192,70855,5,8,0:0:0:0:
256,192,71455,1,0,0:0:0:0:
256,192,71755,1,0,0:0:0:0:
256,192,72055,1,8,0:0:0:0:
256,192,72655,1,8,0:0:0:0:
256,192,73255,1,0,0:0:0:0:
256,192,74455,1,8,0:0:0:0:
256,192,75055,1,8,0:0:0:0:
256,192,75355,1,8,0:0:0:0:
256,192,75655,1,0,0:0:0:0:
245,146,76555,1,8,0:0:0:0:
256,192,76855,1,0,0:0:0:0:
256,192,77455,1,8,0:0:0:0:
256,192,78055,1,0,0:0:0:0:
256,192,79255,1,0,0:0:0:0:
256,192,79855,1,8,0:0:0:0:
256,192,80155,1,8,0:0:0:0:
256,192,80455,1,4,0:0:0:0:
256,192,81055,1,0,0:0:0:0:
256,192,81355,1,8,0:0:0:0:
256,192,81655,5,4,0:0:0:0:
256,192,82855,5,4,0:0:0:0:
256,192,84655,1,4,0:0:0:0:
256,192,85555,1,4,0:0:0:0:
256,192,86455,1,4,0:0:0:0:
256,192,88255,1,4,0:0:0:0:
256,192,89155,1,4,0:0:0:0:
256,192,89605,1,12,0:0:0:0:
256,192,90055,1,4,0:0:0:0:
256,192,91855,1,4,0:0:0:0:
256,192,92755,1,4,0:0:0:0:
256,192,93655,1,4,0:0:0:0:
299,147,95455,1,4,0:0:0:0:
256,192,97255,1,0,0:0:0:0:
256,192,97855,1,8,0:0:0:0:
256,192,98155,1,8,0:0:0:0:
256,192,98455,1,0,0:0:0:0:
256,192,99055,1,8,0:0:0:0:
224,136,99655,1,0,0:0:0:0:
256,192,100255,1,8,0:0:0:0:
256,192,100855,1,0,0:0:0:0:
256,192,101455,1,8,0:0:0:0:
256,192,101755,1,8,0:0:0:0:
256,192,102055,1,0,0:0:0:0:
256,192,102955,1,8,0:0:0:0:
256,192,103255,1,0,0:0:0:0:
256,192,103855,1,0,0:0:0:0:
256,192,104155,1,0,0:0:0:0:
256,192,104455,1,8,0:0:0:0:
256,192,104755,1,8,0:0:0:0:
256,192,105055,1,0,0:0:0:0:
256,192,105655,2,0,L|312:192,14,35
256,192,106855,12,0,107905,0:0:0:0:
256,192,108055,5,4,0:0:0:0:
