osu file format v14

[General]
AudioFilename: Hoikoro.mp3
AudioLeadIn: 0
PreviewTime: 29435
Countdown: 0
SampleSet: Soft
StackLeniency: 0.7
Mode: 0
LetterboxInBreaks: 1
WidescreenStoryboard: 1

[Editor]
DistanceSpacing: 1.2
BeatDivisor: 4
GridSize: 32
TimelineZoom: 2.1

[Metadata]
Title:Hoikoro
TitleUnicode:ホイコーロー
Artist:Taketou
ArtistUnicode:竹塔
Creator:HICCA
Version:HOInsane
Source:Nico Nico Douga
Tags:new game!! 回鍋肉 星のカービィ グルメレース kirby わずかな時間を見つけてシリーズ hicari
BeatmapID:1452035
BeatmapSetID:686000

[Difficulty]
HPDrainRate:5.8
CircleSize:3.8
OverallDifficulty:8
ApproachRate:9.5
SliderMultiplier:1.8
SliderTickRate:1

[Events]
//Background and Video events
Video,0,"Hoikoro.avi"
0,0,"BG.jpg",0,0
//Break Periods
//Storyboard Layer 0 (Background)
//Storyboard Layer 1 (Fail)
//Storyboard Layer 2 (Pass)
//Storyboard Layer 3 (Foreground)
//Storyboard Sound Samples

[TimingPoints]
360,316.038978140637,4,2,1,70,1,0
29435,-100,4,2,1,60,0,0
34492,-100,4,2,1,70,0,0
39548,-100,4,2,1,60,0,0
43341,-100,4,2,1,65,0,0
43973,-83.3333333333333,4,2,1,60,0,0
44605,-83.3333333333333,4,2,1,80,0,1
64831,-100,4,2,1,60,0,0

[HitObjects]
307,62,201,6,0,L|238:59,1,45
115,55,360,1,2,0:0:0:0:
216,237,518,5,0,0:0:0:0:
216,237,597,1,0,0:0:0:0:
216,237,676,2,0,L|266:215,1,45,8|0,0:0|0:0,0:0:0:0:
404,147,834,2,0,L|398:201,1,45,2|0,0:0|0:0,0:0:0:0:
387,354,992,2,0,L|342:321,1,45
293,160,1150,1,2,0:0:0:0:
300,111,1229,1,2,0:0:0:0:
307,62,1308,2,0,P|329:53|351:52,1,45,10|0,0:0|0:0,0:0:0:0:
485,205,1466,2,0,P|463:214|440:214,1,45,8|0,0:0|0:0,0:0:0:0:
293,160,1624,6,0,B|254:181|254:181|210:168,1,90,2|0,0:0|0:0,0:0:0:0:
90,98,1861,1,0,0:0:0:0:
47,160,1940,2,0,L|60:237,1,45,10|0,0:0|0:0,0:0:0:0:
218,267,2098,2,0,L|205:344,1,45,2|0,0:0|0:0,0:0:0:0:
61,341,2256,6,0,L|88:335,1,22.5,8|0,0:0|0:0,0:0:0:0:
377,351,2414,6,0,L|350:345,1,22.5,8|0,0:0|0:0,0:0:0:0:
136,188,2572,6,0,L|163:182,1,22.5,10|0,0:0|0:0,0:0:0:0:
448,186,2730,5,2,0:0:0:0:
426,202,2809,1,0,0:0:0:0:
405,219,2888,1,2,0:0:0:0:
349,48,3046,6,0,L|354:19,1,22.5,8|0,0:0|0:0,0:0:0:0:
219,94,3362,2,0,L|224:65,1,22.5,8|0,0:0|0:0,0:0:0:0:
371,154,3678,2,0,L|376:125,1,22.5,10|0,0:0|0:0,0:0:0:0:
90,96,3836,5,12,0:0:0:0:
94,140,3915,1,0,0:0:0:0:
97,184,3994,1,0,0:0:0:0:
100,228,4073,1,0,0:0:0:0:
103,272,4152,6,0,P|146:260|187:289,1,90,6|8,0:0|0:0,0:0:0:0:
276,353,4389,1,0,0:0:0:0:
320,343,4468,2,0,L|374:333,1,45,2|0,0:0|0:0,0:0:0:0:
490,289,4626,2,0,L|436:279,1,45,8|0,0:0|0:0,0:0:0:0:
249,246,4784,2,0,L|364:222,1,90,2|8,0:0|0:0,0:0:0:0:
487,148,5021,1,0,0:0:0:0:
495,193,5100,2,0,L|441:183,1,45,2|0,0:0|0:0,0:0:0:0:
320,343,5258,2,0,L|364:334,1,45,10|0,0:0|0:0,0:0:0:0:
355,150,5416,5,2,0:0:0:0:
355,150,5495,1,2,0:0:0:0:
354,150,5574,2,0,P|356:127|354:105,1,45,10|0,0:0|0:0,0:0:0:0:
186,189,5732,1,2,0:0:0:0:
186,189,5811,1,0,0:0:0:0:
185,188,5890,2,0,P|203:200|224:209,1,45,10|0,0:0|0:0,0:0:0:0:
237,21,6048,6,0,P|216:30|198:44,1,45
109,173,6206,2,0,P|102:194|101:217,1,45,10|0,0:0|0:0,0:0:0:0:
143,12,6364,6,0,P|134:33|131:55,1,45
159,209,6522,2,0,P|169:229|185:245,1,45,10|0,0:0|0:0,0:0:0:0:
462,285,6680,6,0,P|441:326|394:329,1,90,2|8,0:0|0:0,0:0:0:0:
383,233,6917,1,0,0:0:0:0:
387,140,6996,2,0,P|433:135|458:175,1,90,2|8,0:0|0:0,0:0:0:0:
383,233,7233,1,0,0:0:0:0:
301,276,7312,2,0,P|273:236|295:194,1,90,2|8,0:0|0:0,0:0:0:0:
83,257,7628,1,2,0:0:0:0:
239,124,7786,1,10,0:0:0:0:
170,365,7944,5,2,0:0:0:0:
82,114,8102,1,8,0:0:0:0:
309,183,8260,5,2,0:0:0:0:
0,214,8418,2,0,B|92:179|89:270|200:206,1,180,10|8,0:0|0:0,0:0:0:0:
239,124,8814,1,0,0:0:0:0:
212,99,8893,2,0,L|227:213,1,90,0|8,0:0|0:0,0:0:0:0:
323,290,9130,1,0,0:0:0:0:
297,272,9209,6,0,L|308:182,1,90,6|8,0:0|0:0,0:0:0:0:
297,56,9446,1,0,0:0:0:0:
247,79,9525,2,0,L|184:69,1,45,2|2,0:0|0:0,0:0:0:0:
374,141,9683,2,0,L|437:131,1,45,10|0,0:0|0:0,0:0:0:0:
224,217,9841,2,0,L|239:331,1,90,2|10,0:0|0:0,0:0:0:0:
379,271,10078,1,2,0:0:0:0:
412,219,10157,2,0,L|367:226,1,45,0|2,0:0|0:0,0:0:0:0:
202,71,10315,2,0,L|247:79,1,45,10|0,0:0|0:0,0:0:0:0:
195,256,10473,6,0,P|194:233|180:217,1,45,2|0,0:0|0:0,0:0:0:0:
23,118,10631,1,8,0:0:0:0:
23,118,10710,1,0,0:0:0:0:
23,118,10789,2,0,P|42:128|64:124,1,45,2|0,0:0|0:0,0:0:0:0:
228,38,10947,1,8,0:0:0:0:
228,38,11026,1,0,0:0:0:0:
228,38,11105,6,0,P|208:49|201:70,1,45,2|0,0:0|0:0,0:0:0:0:
281,280,11263,2,0,L|197:280,1,45,10|2,0:0|0:0,0:0:0:0:
31,268,11421,2,0,L|115:268,1,45,0|2,0:0|0:0,0:0:0:0:
292,272,11579,2,0,L|208:272,1,45,10|0,0:0|0:0,0:0:0:0:
20,276,11737,6,0,L|111:276,1,90,2|8,0:0|0:0,0:0:0:0:
194,177,11974,1,0,0:0:0:0:
69,231,12053,2,0,L|160:231,1,90,2|8,0:0|0:0,0:0:0:0:
243,132,12290,1,0,0:0:0:0:
194,177,12369,5,2,0:0:0:0:
240,335,12527,1,8,0:0:0:0:
331,146,12685,1,2,0:0:0:0:
454,341,12843,1,8,0:0:0:0:
486,81,13001,5,6,0:0:0:0:
464,103,13080,2,0,L|419:97,1,45,2|8,0:0|0:0,0:0:0:0:
235,60,13238,1,2,0:0:0:0:
258,14,13317,2,0,L|265:75,1,45,2|0,0:0|0:0,0:0:0:0:
459,219,13475,2,0,L|464:174,1,45,10|2,0:0|0:0,0:0:0:0:
380,44,13633,1,8,0:0:0:0:
303,222,13791,1,8,0:0:0:0:
123,185,13949,1,0,0:0:0:0:
258,14,14107,1,8,0:0:0:0:
372,263,14265,6,0,P|343:295|299:303,1,90,6|8,0:0|0:0,0:0:0:0:
123,185,14581,1,0,0:0:0:0:
128,140,14660,1,0,0:0:0:0:
136,95,14739,1,8,0:0:0:0:
238,341,14897,1,2,0:0:0:0:
42,264,15055,1,8,0:0:0:0:
298,302,15213,2,0,P|342:295|372:263,1,90,0|8,0:0|0:0,0:0:0:0:
315,113,15529,5,2,0:0:0:0:
474,178,15687,1,8,0:0:0:0:
225,220,15845,1,2,0:0:0:0:
226,29,16003,1,8,0:0:0:0:
262,235,16161,1,2,0:0:0:0:
55,153,16319,1,8,0:0:0:0:
315,113,16477,2,0,B|336:156|336:156|335:198,1,90,0|8,0:0|0:0,0:0:0:0:
255,334,16715,1,0,0:0:0:0:
235,301,16794,6,0,P|277:286|321:288,1,90,2|8,0:0|0:0,0:0:0:0:
458,244,17031,1,0,0:0:0:0:
448,210,17110,2,0,P|408:231|380:265,1,90,2|8,0:0|0:0,0:0:0:0:
263,115,17426,1,2,0:0:0:0:
150,323,17584,2,0,B|115:308|115:308|39:320,1,90,8|2,0:0|0:0,0:0:0:0:
10,158,17900,2,0,L|55:152,1,45,8|0,0:0|0:0,0:0:0:0:
196,49,18058,5,6,0:0:0:0:
208,90,18137,2,0,L|204:148,1,45,2|8,0:0|0:0,0:0:0:0:
220,332,18295,1,2,0:0:0:0:
190,290,18374,2,0,L|235:284,1,45,2|0,0:0|0:0,0:0:0:0:
457,242,18532,2,0,L|412:236,1,45,10|2,0:0|0:0,0:0:0:0:
249,213,18690,1,8,0:0:0:0:
249,213,18769,1,0,0:0:0:0:
249,213,18848,6,0,L|248:152,1,45,10|0,0:0|0:0,0:0:0:0:
337,222,19006,2,0,L|338:267,1,45,2|0,0:0|0:0,0:0:0:0:
427,321,19164,2,0,L|426:260,1,45,8|0,0:0|0:0,0:0:0:0:
440,99,19322,6,0,L|410:0,1,90,6|8,0:0|0:0,0:0:0:0:
425,203,19638,1,0,0:0:0:0:
193,148,19796,1,8,0:0:0:0:
232,141,19875,1,0,0:0:0:0:
271,134,19954,2,0,L|285:198,1,45,2|0,0:0|0:0,0:0:0:0:
86,256,20112,6,0,L|72:192,1,45,10|0,0:0|0:0,0:0:0:0:
239,287,20270,2,0,L|175:301,1,45,2|0,0:0|0:0,0:0:0:0:
117,102,20428,2,0,L|181:88,1,45,8|0,0:0|0:0,0:0:0:0:
404,40,20586,5,6,0:0:0:0:
408,73,20665,2,0,L|419:147,2,45,0|8|0,0:0|0:0|0:0,0:0:0:0:
279,177,20902,6,0,B|302:176|302:176|323:185,1,45,2|0,0:0|0:0,0:0:0:0:
473,303,21060,2,0,B|452:312|452:312|430:311,1,45,10|0,0:0|0:0,0:0:0:0:
326,345,21218,1,2,0:0:0:0:
316,328,21297,1,0,0:0:0:0:
249,270,21376,1,8,0:0:0:0:
239,287,21455,1,0,0:0:0:0:
244,370,21534,6,0,P|222:375|200:371,1,45,6|0,0:0|0:0,0:0:0:0:
37,351,21692,2,0,P|43:329|58:313,1,45,10|0,0:0|0:0,0:0:0:0:
157,181,21850,6,0,P|182:217|189:261,2,90,6|8|2,0:0|0:0|0:0,0:0:0:0:
85,249,22324,1,8,0:0:0:0:
33,89,22482,1,2,0:0:0:0:
185,44,22640,1,8,0:0:0:0:
403,155,22798,1,2,0:0:0:0:
216,132,22956,1,8,0:0:0:0:
277,339,23114,5,2,0:0:0:0:
278,325,23193,1,0,0:0:0:0:
279,311,23272,1,8,0:0:0:0:
280,297,23351,1,0,0:0:0:0:
281,283,23430,2,0,B|262:258|262:258|276:182,1,90,2|8,0:0|0:0,0:0:0:0:
483,238,23667,1,2,0:0:0:0:
482,257,23746,2,0,B|469:285|469:285|397:311,1,90,10|0,0:0|0:0,0:0:0:0:
359,96,24062,6,0,B|442:85,1,45,8|0,0:0|0:0,0:0:0:0:
432,195,24220,2,0,B|387:189,1,45,8|0,0:0|0:0,0:0:0:0:
296,163,24378,6,0,P|271:124|278:49,1,90,12|2,0:0|0:0,0:0:0:0:
340,14,24615,1,2,0:0:0:0:
345,23,24695,2,0,L|274:16,1,45,8|0,0:0|0:0,0:0:0:0:
82,64,24853,1,2,0:0:0:0:
88,73,24932,1,2,0:0:0:0:
97,80,25011,2,0,L|154:72,1,45,8|0,0:0|0:0,0:0:0:0:
194,9,25169,2,0,P|207:22|222:43,1,45,2|0,0:0|0:0,0:0:0:0:
245,176,25327,2,0,P|247:195|245:221,1,45,10|0,0:0|0:0,0:0:0:0:
150,330,25485,1,2,0:0:0:0:
147,321,25564,1,0,0:0:0:0:
141,308,25643,6,0,P|111:275|68:277,1,90,8|2,0:0|0:0,0:0:0:0:
0,177,25880,1,2,0:0:0:0:
29,149,25959,2,0,B|55:153|55:153|72:144,1,45,8|0,0:0|0:0,0:0:0:0:
244,98,26117,2,0,B|222:95|222:95|200:103,1,45,2|2,0:0|0:0,0:0:0:0:
68,277,26275,2,0,L|61:232,1,45,8|0,0:0|0:0,0:0:0:0:
260,254,26433,2,0,L|267:299,1,45,2|2,0:0|0:0,0:0:0:0:
36,316,26591,2,0,L|47:263,1,45,8|0,0:0|0:0,0:0:0:0:
292,215,26749,2,0,L|281:268,1,45,2|2,0:0|0:0,0:0:0:0:
116,188,26907,5,8,0:0:0:0:
135,152,26986,1,2,0:0:0:0:
154,116,27065,2,0,B|180:95|180:95|212:92|234:108,1,90,2|8,0:0|0:0,0:0:0:0:
350,228,27302,2,0,L|345:166,2,45,0|2|2,0:0|0:0|0:0,0:0:0:0:
433,154,27539,1,8,0:0:0:0:
269,322,27697,2,0,L|209:306,1,45,2|2,0:0|0:0,0:0:0:0:
200,162,27855,1,8,0:0:0:0:
404,311,28013,2,0,L|458:283,1,45,2|0,0:0|0:0,0:0:0:0:
486,95,28171,5,10,0:0:0:0:
428,85,28250,1,2,0:0:0:0:
370,76,28329,1,2,0:0:0:0:
312,67,28408,1,2,0:0:0:0:
319,124,28487,2,0,L|328:186,1,45,8|0,0:0|0:0,0:0:0:0:
292,315,28645,1,2,0:0:0:0:
284,331,28724,1,2,0:0:0:0:
277,347,28803,2,0,P|261:330|254:309,1,45,8|0,0:0|0:0,0:0:0:0:
173,120,28961,2,0,P|194:114|216:119,1,45,10|2,0:0|0:0,0:0:0:0:
421,143,29119,2,0,P|414:164|399:180,1,45,2|0,0:0|0:0,0:0:0:0:
139,290,29277,2,0,P|123:273|117:252,1,45,8|2,0:0|0:0,0:0:0:0:
88,84,29435,5,2,0:0:0:0:
146,152,29593,1,8,0:0:0:0:
233,172,29751,1,0,0:0:0:0:
312,129,29909,1,10,0:0:0:0:
336,42,30067,1,2,0:0:0:0:
466,172,30225,1,8,0:0:0:0:
425,83,30383,1,2,0:0:0:0:
450,269,30541,1,8,0:0:0:0:
378,337,30699,6,2,L|377:302,1,22.5
466,172,31015,6,2,L|465:137,1,22.5
336,42,31331,6,2,L|335:7,6,22.5
378,141,31647,2,0,P|342:117|297:113,1,90,4|8,0:0|0:0,0:0:0:0:
189,182,31884,1,0,0:0:0:0:
152,113,31963,6,0,L|148:59,1,45,6|0,0:0|0:0,0:0:0:0:
315,195,32121,2,0,L|311:239,1,45,8|0,0:0|0:0,0:0:0:0:
176,312,32279,2,0,P|222:295|289:305,1,90,2|10,0:0|0:0,0:0:0:0:
85,373,32516,1,0,0:0:0:0:
75,351,32595,2,0,L|68:290,1,45,2|0,0:0|0:0,0:0:0:0:
146,170,32753,1,8,0:0:0:0:
168,160,32833,2,0,L|229:153,2,45,0|2|0,0:0|0:0|0:0,0:0:0:0:
355,247,33070,2,0,L|362:308,1,45,10|0,0:0|0:0,0:0:0:0:
176,312,33228,6,0,P|130:295|63:305,1,90,2|8,0:0|0:0,0:0:0:0:
46,169,33544,1,2,0:0:0:0:
201,234,33702,1,10,0:0:0:0:
383,151,33860,1,2,0:0:0:0:
265,296,34018,1,8,0:0:0:0:
144,95,34176,1,2,0:0:0:0:
319,225,34334,1,8,0:0:0:0:
450,69,34492,6,0,B|423:92|423:92|444:142,1,90,12|2,0:0|0:0,0:0:0:0:
356,281,34729,1,2,0:0:0:0:
339,271,34808,2,0,P|320:252|324:227,1,45,8|0,0:0|0:0,0:0:0:0:
497,171,34966,2,0,P|494:192|478:206,1,45,2|2,0:0|0:0,0:0:0:0:
225,133,35124,2,0,L|178:127,1,45,8|0,0:0|0:0,0:0:0:0:
43,231,35282,2,0,L|53:187,1,45,2|0,0:0|0:0,0:0:0:0:
235,89,35440,2,0,L|187:99,1,45,10|0,0:0|0:0,0:0:0:0:
7,203,35598,2,0,L|32:165,1,45,2|0,0:0|0:0,0:0:0:0:
248,32,35756,5,10,0:0:0:0:
235,89,35835,1,2,0:0:0:0:
222,145,35914,1,2,0:0:0:0:
207,208,35993,1,2,0:0:0:0:
240,263,36072,2,0,B|280:241|280:241|324:237,1,90,8|2,0:0|0:0,0:0:0:0:
394,317,36309,1,2,0:0:0:0:
383,336,36388,2,0,L|334:342,1,45,8|0,0:0|0:0,0:0:0:0:
425,187,36546,1,2,0:0:0:0:
435,166,36625,1,2,0:0:0:0:
445,145,36704,2,0,L|400:139,1,45,8|0,0:0|0:0,0:0:0:0:
506,331,36862,2,0,L|461:336,1,45,2|0,0:0|0:0,0:0:0:0:
350,174,37020,5,8,0:0:0:0:
301,163,37099,1,0,0:0:0:0:
252,152,37178,1,2,0:0:0:0:
203,141,37257,1,2,0:0:0:0:
146,77,37336,2,0,P|162:62|183:54,1,45,8|0,0:0|0:0,0:0:0:0:
314,10,37494,2,0,P|335:17|351:32,1,45,2|0,0:0|0:0,0:0:0:0:
350,174,37652,5,8,0:0:0:0:
319,213,37731,1,2,0:0:0:0:
289,252,37810,1,2,0:0:0:0:
259,291,37889,1,2,0:0:0:0:
306,365,37968,2,0,B|331:364|331:364|349:356,1,45,8|0,0:0|0:0,0:0:0:0:
201,219,38126,2,0,B|184:237|184:237|176:255,1,45,2|0,0:0|0:0,0:0:0:0:
450,242,38284,6,0,L|393:237,1,45,8|0,0:0|0:0,0:0:0:0:
179,339,38442,2,0,L|223:335,1,45,2|2,0:0|0:0,0:0:0:0:
282,116,38600,2,0,L|271:58,1,45,8|0,0:0|0:0,0:0:0:0:
99,255,38758,2,0,L|90:299,1,45,2|2,0:0|0:0,0:0:0:0:
352,343,38916,1,10,0:0:0:0:
351,327,38995,1,0,0:0:0:0:
350,311,39074,6,0,L|348:277,1,22.5,8|0,0:0|0:0,0:0:0:0:
272,41,39232,6,0,L|243:59,1,22.5,8|0,0:0|0:0,0:0:0:0:
78,244,39390,6,0,L|108:259,1,22.5,8|0,0:0|0:0,0:0:0:0:
232,310,39548,5,2,0:0:0:0:
341,264,39706,1,8,0:0:0:0:
295,155,39864,1,2,0:0:0:0:
186,200,40022,1,10,0:0:0:0:
299,324,40180,1,2,0:0:0:0:
446,188,40338,1,8,0:0:0:0:
248,212,40496,5,2,0:0:0:0:
422,311,40654,1,10,0:0:0:0:
422,311,40733,1,0,0:0:0:0:
422,310,40812,2,0,P|455:269|507:253,1,90,2|8,0:0|0:0,0:0:0:0:
338,129,41129,2,0,P|285:119|245:82,1,90,2|8,0:0|0:0,0:0:0:0:
224,293,41445,2,0,P|240:342|228:395,1,90,2|10,0:0|0:0,0:0:0:0:
83,251,41682,1,0,0:0:0:0:
72,234,41761,2,0,P|57:192|67:148,1,90,2|8,0:0|0:0,0:0:0:0:
77,133,41998,1,0,0:0:0:0:
176,76,42077,6,0,L|74:68,1,90,2|8,0:0|0:0,0:0:0:0:
183,205,42314,1,0,0:0:0:0:
201,200,42393,2,0,P|222:192|238:177,1,45,2|0,0:0|0:0,0:0:0:0:
374,53,42551,1,10,0:0:0:0:
376,68,42630,1,0,0:0:0:0:
378,91,42709,2,0,L|386:149,1,45,6|0,0:0|0:0,0:0:0:0:
329,273,42867,2,0,L|335:317,1,45,8|0,0:0|0:0,0:0:0:0:
401,105,43025,2,0,L|409:163,1,45,2|0,0:0|0:0,0:0:0:0:
352,287,43183,2,0,L|358:331,1,45,10|0,0:0|0:0,0:0:0:0:
469,218,43341,5,2,0:0:0:0:
209,365,43499,1,8,0:0:0:0:
201,340,43578,1,0,0:0:0:0:
233,107,43736,1,0,0:0:0:0:
264,177,43815,6,0,L|258:194,3,11.25,8|0|0|0,0:0|0:0|0:0|0:0,0:0:0:0:
332,210,43894,6,0,L|326:227,3,11.25,8|0|0|0,0:0|0:0|0:0|0:0,0:0:0:0:
413,199,43973,6,0,B|406:176|436:154|468:159|492:183|504:211|489:243|471:251|447:258|427:244|400:256|398:275|404:293|412:302,1,215.999993408203,4|0,0:0|0:0,0:0:0:0:
390,343,44368,1,0,0:0:0:0:
390,343,44447,1,2,0:0:0:0:
240,341,44605,5,14,0:0:0:0:
49,199,44763,2,0,L|117:195,1,53.9999983520508
220,188,44921,1,10,0:0:0:0:
145,334,45079,1,8,0:0:0:0:
164,126,45237,1,2,0:0:0:0:
283,248,45395,1,8,0:0:0:0:
74,280,45553,1,2,0:0:0:0:
252,106,45711,1,8,0:0:0:0:
350,299,45869,5,2,0:0:0:0:
130,198,46027,1,2,0:0:0:0:
127,144,46106,1,0,0:0:0:0:
124,90,46185,1,10,0:0:0:0:
165,304,46343,1,8,0:0:0:0:
370,214,46501,2,0,P|418:191|470:199,1,107.999996704102,2|8,0:0|0:0,0:0:0:0:
408,360,46817,2,0,P|359:382|307:374,1,107.999996704102,10|2,0:0|0:0,0:0:0:0:
248,230,47133,5,14,0:0:0:0:
447,300,47291,2,0,L|454:227,1,53.9999983520508
463,122,47449,1,10,0:0:0:0:
260,148,47607,1,8,0:0:0:0:
386,288,47765,1,2,0:0:0:0:
400,58,47923,1,8,0:0:0:0:
496,263,48081,1,10,0:0:0:0:
272,66,48239,1,8,0:0:0:0:
233,313,48397,5,2,0:0:0:0:
403,148,48555,1,8,0:0:0:0:
457,143,48634,1,0,0:0:0:0:
511,139,48713,1,2,0:0:0:0:
459,346,48871,1,8,0:0:0:0:
361,88,49030,6,2,L|323:81,1,26.9999991760254,10|2,0:0|0:0,0:0:0:0:
334,83,49109,2,2,L|361:88,1,26.9999991760254
307,78,49188,2,2,L|269:71,1,26.9999991760254
280,73,49267,2,2,L|306:77,1,26.9999991760254
252,67,49346,2,2,L|214:60,1,26.9999991760254
225,62,49425,2,2,L|251:66,1,26.9999991760254
196,55,49504,2,2,L|158:48,1,26.9999991760254
169,50,49583,2,2,L|195:54,1,26.9999991760254
140,43,49662,5,14,0:0:0:0:
75,234,49820,2,0,L|103:300,1,53.9999983520508
245,349,49978,1,10,0:0:0:0:
282,181,50136,1,8,0:0:0:0:
36,151,50294,1,2,0:0:0:0:
163,344,50452,2,0,L|164:290,1,53.9999983520508,8|0,0:0|0:0,0:0:0:0:
173,78,50610,1,2,0:0:0:0:
76,333,50768,2,0,L|95:282,1,53.9999983520508,8|0,0:0|0:0,0:0:0:0:
173,78,50926,5,14,0:0:0:0:
370,183,51084,1,10,0:0:0:0:
311,192,51163,1,0,0:0:0:0:
252,201,51242,1,2,0:0:0:0:
463,70,51400,1,8,0:0:0:0:
323,308,51558,1,10,0:0:0:0:
355,74,51716,2,0,L|419:71,1,53.9999983520508
379,320,51874,1,10,0:0:0:0:
299,62,52032,2,0,L|363:59,1,53.9999983520508,2|0,0:0|0:0,0:0:0:0:
435,332,52190,5,14,0:0:0:0:
243,50,52348,2,0,L|307:47,1,53.9999983520508,8|0,0:0|0:0,0:0:0:0:
463,70,52506,2,0,L|409:72,1,53.9999983520508,2|0,0:0|0:0,0:0:0:0:
252,201,52664,2,0,L|198:198,1,53.9999983520508,8|0,0:0|0:0,0:0:0:0:
379,320,52822,2,0,P|388:294|387:267,1,53.9999983520508,14|0,0:0|0:0,0:0:0:0:
189,146,52980,2,0,P|188:172|197:198,1,53.9999983520508,8|0,0:0|0:0,0:0:0:0:
447,269,53138,2,0,P|441:234|423:204,1,53.9999983520508,2|0,0:0|0:0,0:0:0:0:
120,196,53296,2,0,P|137:227|164:249,1,53.9999983520508,8|0,0:0|0:0,0:0:0:0:
479,187,53454,5,14,0:0:0:0:
103,280,53612,1,2,0:0:0:0:
162,282,53691,1,0,0:0:0:0:
221,284,53770,1,14,0:0:0:0:
28,121,53928,1,8,0:0:0:0:
298,235,54086,2,0,B|312:293|312:293|298:339,1,107.999996704102,14|0,0:0|0:0,0:0:0:0:
189,146,54402,2,0,B|233:104|233:104|279:93,1,107.999996704102,4|12,0:0|0:0,0:0:0:0:
417,146,54639,1,8,0:0:0:0:
413,100,54718,5,14,0:0:0:0:
456,311,54876,2,0,L|390:363,1,53.9999983520508
211,291,55034,1,10,0:0:0:0:
418,228,55192,1,8,0:0:0:0:
165,176,55350,1,2,0:0:0:0:
418,31,55508,1,8,0:0:0:0:
399,88,55587,1,0,0:0:0:0:
380,145,55666,1,2,0:0:0:0:
119,61,55824,1,8,0:0:0:0:
57,230,55982,5,8,0:0:0:0:
83,300,56061,2,0,L|75:221,1,53.9999983520508,2|2,0:0|0:0,0:0:0:0:
211,132,56219,5,8,0:0:0:0:
141,93,56298,2,0,L|245:108,1,53.9999983520508,2|2,0:0|0:0,0:0:0:0:
337,240,56456,5,8,0:0:0:0:
269,285,56535,2,0,L|322:281,1,53.9999983520508,2|2,0:0|0:0,0:0:0:0:
442,170,56693,5,8,0:0:0:0:
463,101,56772,2,0,L|464:176,1,53.9999983520508,2|2,0:0|0:0,0:0:0:0:
158,184,56930,2,0,L|159:259,1,53.9999983520508,8|0,0:0|0:0,0:0:0:0:
368,22,57088,2,0,L|369:97,1,53.9999983520508,10|0,0:0|0:0,0:0:0:0:
410,289,57247,5,14,0:0:0:0:
108,159,57405,2,0,L|161:150,1,53.9999983520508
365,140,57563,1,10,0:0:0:0:
289,351,57721,1,8,0:0:0:0:
227,51,57879,5,2,0:0:0:0:
237,75,57958,1,0,0:0:0:0:
200,140,58037,1,8,0:0:0:0:
196,166,58116,1,0,0:0:0:0:
261,214,58195,1,10,0:0:0:0:
271,238,58274,1,0,0:0:0:0:
213,298,58353,1,8,0:0:0:0:
206,324,58432,1,0,0:0:0:0:
289,351,58511,5,2,0:0:0:0:
409,162,58669,1,8,0:0:0:0:
387,100,58748,1,0,0:0:0:0:
365,38,58827,1,2,0:0:0:0:
428,308,58985,1,8,0:0:0:0:
201,113,59143,6,0,P|181:95|173:69,1,53.9999983520508,8|0,0:0|0:0,0:0:0:0:
300,6,59301,2,0,P|303:32|293:57,1,53.9999983520508,2|2,0:0|0:0,0:0:0:0:
104,300,59459,6,0,P|76:288|56:245,1,53.9999983520508,8|0,0:0|0:0,0:0:0:0:
428,308,59617,2,2,P|445:332|440:379,1,53.9999983520508
289,351,59775,5,14,0:0:0:0:
60,211,59933,2,0,L|77:158,1,53.9999983520508
298,81,60091,1,10,0:0:0:0:
181,324,60249,1,0,0:0:0:0:
131,59,60407,1,10,0:0:0:0:
328,245,60565,1,8,0:0:0:0:
95,135,60723,1,2,0:0:0:0:
380,75,60881,1,8,0:0:0:0:
289,351,61039,5,14,0:0:0:0:
473,216,61197,1,2,0:0:0:0:
409,204,61276,1,0,0:0:0:0:
345,192,61355,1,10,0:0:0:0:
91,301,61513,1,8,0:0:0:0:
155,289,61592,1,0,0:0:0:0:
218,277,61671,6,0,P|236:256|246:231,1,53.9999983520508,2|0,0:0|0:0,0:0:0:0:
95,135,61829,2,0,P|104:160|122:180,1,53.9999983520508,8|0,0:0|0:0,0:0:0:0:
366,55,61987,2,0,L|310:44,1,53.9999983520508,10|0,0:0|0:0,0:0:0:0:
375,318,62145,2,0,L|427:307,1,53.9999983520508,2|0,0:0|0:0,0:0:0:0:
450,131,62303,5,4,0:0:0:0:
198,24,62461,2,2,L|187:38,4,13.4999995880127,10|2|2|2|2,0:0|0:0|0:0|0:0|0:0,0:0:0:0:
111,264,62619,1,8,0:0:0:0:
359,88,62777,5,4,0:0:0:0:
33,131,62935,2,2,L|41:141,4,13.4999995880127,10|2|2|2|2,0:0|0:0|0:0|0:0|0:0,0:0:0:0:
291,348,63093,1,8,0:0:0:0:
241,55,63251,5,4,0:0:0:0:
452,335,63409,1,10,0:0:0:0:
102,220,63567,6,0,P|86:230|49:235,1,53.9999983520508,4|0,0:0|0:0,0:0:0:0:
410,164,63725,6,0,P|426:154|463:149,1,53.9999983520508,10|0,0:0|0:0,0:0:0:0:
58,119,63883,6,0,P|49:91|55:62,1,53.9999983520508,2|2,0:0|0:0,0:0:0:0:
454,265,64041,6,0,P|463:293|457:322,1,53.9999983520508,10|0,0:0|0:0,0:0:0:0:
30,352,64199,5,8,0:0:0:0:
482,32,64515,1,6,0:0:0:0:
451,226,64831,6,0,P|420:195|371:199,1,90,2|0,0:0|0:0,0:0:0:0:
251,284,65147,1,10,0:0:0:0:
169,224,65306,1,2,0:0:0:0:
267,108,65464,1,0,0:0:0:0:
324,305,65622,1,10,0:0:0:0:
118,343,65780,2,0,B|111:317|111:317|120:286|120:286|114:253,1,90,10|0,0:0|0:0,0:0:0:0:
73,148,66096,5,2,0:0:0:0:
221,97,66254,1,8,0:0:0:0:
99,247,66570,1,10,0:0:0:0:
262,307,66886,1,8,0:0:0:0:
79,58,67044,2,2,L|75:5,3,45,10|2|2|2,0:0|0:0|0:0|0:0,0:0:0:0:
