osu file format v14

[General]
AudioFilename: audio.mp3
AudioLeadIn: 0
PreviewTime: 6348
Countdown: 0
SampleSet: None
StackLeniency: 0.7
Mode: 3
LetterboxInBreaks: 0
SpecialStyle: 1
WidescreenStoryboard: 1

[Editor]
DistanceSpacing: 0.8
BeatDivisor: 4
GridSize: 4
TimelineZoom: 2.899999

[Metadata]
Title:OH MY Sugar Feeling!! (short EDIT.)
TitleUnicode:OH MY シュガーフィーリング!! (short EDIT.)
Artist:Taketatsu Ayana
ArtistUnicode:竹達彩奈
Creator:ALEFY
Version:Extra
Source:だがしかし 2
Tags:anime,アニメ,Dagashikashi,中村彼方,Nakamura Kanata,Motokiyo,大久保薫,Ookubo Kaoru
BeatmapID:1586938
BeatmapSetID:753783

[Difficulty]
HPDrainRate:8
CircleSize:4
OverallDifficulty:8
ApproachRate:5
SliderMultiplier:1.6
SliderTickRate:1

[Events]
//Background and Video events
0,0,"back.jpg",0,0
//Break Periods
//Storyboard Layer 0 (Background)
//Storyboard Layer 1 (Fail)
//Storyboard Layer 2 (Pass)
//Storyboard Layer 3 (Foreground)
//Storyboard Sound Samples

[TimingPoints]
587,397.350993377483,4,1,0,10,1,0
6944,-100,4,1,0,10,0,1
18865,-100,4,1,0,10,0,0
19659,-100,4,1,0,10,0,1
38732,-100,4,1,0,10,0,0

[HitObjects]
320,192,587,5,0,0:0:0:0:
192,192,587,128,0,785:0:0:0:0:
448,192,587,128,0,984:0:0:0:0:
64,192,785,1,0,0:0:0:0:
64,192,984,128,0,1381:0:0:0:0:
320,192,984,128,0,1183:0:0:0:0:
192,192,984,1,0,0:0:0:0:
448,192,1183,1,0,0:0:0:0:
320,192,1282,1,0,0:0:0:0:
448,192,1381,1,0,0:0:0:0:
192,192,1381,128,0,1481:0:0:0:0:
320,192,1481,128,0,1580:0:0:0:0:
448,192,1580,128,0,1779:0:0:0:0:
64,192,1580,1,0,0:0:0:0:
192,192,1779,128,0,1977:0:0:0:0:
320,192,1779,1,0,0:0:0:0:
64,192,1977,128,0,2176:0:0:0:0:
448,192,1977,1,0,0:0:0:0:
320,192,2176,128,0,2375:0:0:0:0:
448,192,2176,1,0,0:0:0:0:
192,192,2176,1,0,0:0:0:0:
192,192,2375,128,0,2573:0:0:0:0:
64,192,2375,1,0,0:0:0:0:
64,192,2573,128,0,2772:0:0:0:0:
448,192,2573,1,0,0:0:0:0:
320,192,2573,1,0,0:0:0:0:
192,192,2772,1,0,0:0:0:0:
320,192,2772,1,0,0:0:0:0:
448,192,2871,128,0,3070:0:0:0:0:
64,192,2971,1,0,0:0:0:0:
192,192,2971,1,0,0:0:0:0:
320,192,3070,1,0,0:0:0:0:
192,192,3169,128,0,3368:0:0:0:0:
448,192,3368,1,0,0:0:0:0:
320,192,3368,128,0,3567:0:0:0:0:
64,192,3567,128,0,3765:0:0:0:0:
192,192,3567,1,0,0:0:0:0:
192,192,3765,1,0,0:0:0:0:
320,192,3765,128,0,3964:0:0:0:0:
448,192,3765,128,0,4163:0:0:0:0:
64,192,3964,1,0,0:0:0:0:
64,192,4163,128,0,4560:0:0:0:0:
192,192,4163,1,0,0:0:0:0:
320,192,4163,128,0,4361:0:0:0:0:
448,192,4361,1,0,0:0:0:0:
320,192,4461,1,0,0:0:0:0:
448,192,4560,1,0,0:0:0:0:
192,192,4560,128,0,4659:0:0:0:0:
320,192,4659,128,0,4759:0:0:0:0:
448,192,4759,128,0,4957:0:0:0:0:
64,192,4759,1,0,0:0:0:0:
64,192,4957,128,0,5156:0:0:0:0:
192,192,4957,1,0,0:0:0:0:
320,192,5156,1,0,0:0:0:0:
448,192,5156,1,0,0:0:0:0:
192,192,5553,1,0,0:0:0:0:
320,192,5553,1,0,0:0:0:0:
448,192,5553,1,0,0:0:0:0:
448,192,5752,1,0,0:0:0:0:
320,192,5752,1,0,0:0:0:0:
64,192,5752,1,0,0:0:0:0:
192,192,5951,1,0,0:0:0:0:
64,192,5951,1,0,0:0:0:0:
320,192,6050,1,0,0:0:0:0:
448,192,6050,1,0,0:0:0:0:
64,192,6348,128,0,6447:0:0:0:0:
192,192,6447,128,0,6547:0:0:0:0:
448,192,6547,128,0,6646:0:0:0:0:
320,192,6547,1,0,0:0:0:0:
192,192,6646,128,0,6745:0:0:0:0:
320,192,6745,128,0,6845:0:0:0:0:
64,192,6845,128,0,6944:0:0:0:0:
320,192,6944,1,0,0:0:0:0:
448,192,6944,1,0,0:0:0:0:
64,192,7043,1,0,0:0:0:0:
192,192,7043,128,0,7143:0:0:0:0:
448,192,7143,1,0,0:0:0:0:
320,192,7143,1,0,0:0:0:0:
192,192,7242,1,0,0:0:0:0:
64,192,7242,128,0,7441:0:0:0:0:
320,192,7341,1,0,0:0:0:0:
448,192,7441,1,0,0:0:0:0:
64,192,7540,1,0,0:0:0:0:
192,192,7540,128,0,7639:0:0:0:0:
320,192,7639,1,0,0:0:0:0:
448,192,7639,1,0,0:0:0:0:
192,192,7739,1,0,0:0:0:0:
64,192,7739,1,0,0:0:0:0:
448,192,7838,1,0,0:0:0:0:
320,192,7838,128,0,7937:0:0:0:0:
64,192,7937,1,0,0:0:0:0:
192,192,7937,1,0,0:0:0:0:
320,192,8037,1,0,0:0:0:0:
448,192,8037,128,0,8236:0:0:0:0:
192,192,8136,1,0,0:0:0:0:
64,192,8236,1,0,0:0:0:0:
448,192,8335,1,0,0:0:0:0:
320,192,8335,128,0,8434:0:0:0:0:
192,192,8434,1,0,0:0:0:0:
64,192,8434,1,0,0:0:0:0:
448,192,8534,1,0,0:0:0:0:
320,192,8534,1,0,0:0:0:0:
64,192,8633,128,0,8732:0:0:0:0:
192,192,8633,1,0,0:0:0:0:
448,192,8732,1,0,0:0:0:0:
320,192,8732,1,0,0:0:0:0:
192,192,8832,128,0,9030:0:0:0:0:
64,192,8832,1,0,0:0:0:0:
320,192,8931,1,0,0:0:0:0:
448,192,9030,1,0,0:0:0:0:
64,192,9130,128,0,9229:0:0:0:0:
192,192,9130,1,0,0:0:0:0:
448,192,9229,1,0,0:0:0:0:
320,192,9229,1,0,0:0:0:0:
192,192,9328,1,0,0:0:0:0:
64,192,9328,1,0,0:0:0:0:
448,192,9428,1,0,0:0:0:0:
64,192,9527,1,0,0:0:0:0:
320,192,9527,1,0,0:0:0:0:
192,192,9527,1,0,0:0:0:0:
448,192,9626,1,0,0:0:0:0:
320,192,9726,1,0,0:0:0:0:
64,192,9726,1,0,0:0:0:0:
192,192,9825,1,0,0:0:0:0:
448,192,9924,1,0,0:0:0:0:
64,192,9924,1,0,0:0:0:0:
320,192,9924,1,0,0:0:0:0:
192,192,10024,1,0,0:0:0:0:
64,192,10123,1,0,0:0:0:0:
448,192,10123,1,0,0:0:0:0:
320,192,10222,1,0,0:0:0:0:
64,192,10322,1,0,0:0:0:0:
192,192,10322,1,0,0:0:0:0:
448,192,10322,1,0,0:0:0:0:
320,192,10421,1,0,0:0:0:0:
64,192,10520,1,0,0:0:0:0:
448,192,10520,1,0,0:0:0:0:
192,192,10620,1,0,0:0:0:0:
320,192,10719,1,0,0:0:0:0:
448,192,10719,1,0,0:0:0:0:
64,192,10719,1,0,0:0:0:0:
192,192,10818,1,0,0:0:0:0:
320,192,10918,1,0,0:0:0:0:
448,192,10918,1,0,0:0:0:0:
64,192,11017,1,0,0:0:0:0:
192,192,11116,1,0,0:0:0:0:
448,192,11116,1,0,0:0:0:0:
320,192,11116,128,0,11216:0:0:0:0:
64,192,11216,128,0,11315:0:0:0:0:
192,192,11315,1,0,0:0:0:0:
448,192,11315,128,0,11414:0:0:0:0:
320,192,11414,128,0,11514:0:0:0:0:
64,192,11514,1,0,0:0:0:0:
448,192,11514,1,0,0:0:0:0:
192,192,11514,128,0,11613:0:0:0:0:
320,192,11613,128,0,11712:0:0:0:0:
448,192,11712,1,0,0:0:0:0:
64,192,11712,128,0,12110:0:0:0:0:
192,192,11812,1,0,0:0:0:0:
320,192,11911,1,0,0:0:0:0:
448,192,11911,1,0,0:0:0:0:
192,192,12010,1,0,0:0:0:0:
320,192,12110,1,0,0:0:0:0:
448,192,12110,128,0,12308:0:0:0:0:
192,192,12209,1,0,0:0:0:0:
64,192,12308,1,0,0:0:0:0:
320,192,12308,128,0,12507:0:0:0:0:
192,192,12408,1,0,0:0:0:0:
448,192,12507,128,0,12606:0:0:0:0:
64,192,12507,128,0,12606:0:0:0:0:
320,192,12606,128,0,12706:0:0:0:0:
192,192,12706,128,0,12805:0:0:0:0:
64,192,12706,128,0,12805:0:0:0:0:
448,192,12706,1,0,0:0:0:0:
320,192,12805,128,0,12904:0:0:0:0:
64,192,12904,128,0,13004:0:0:0:0:
448,192,12904,128,0,13004:0:0:0:0:
192,192,13004,128,0,13103:0:0:0:0:
64,192,13103,128,0,13202:0:0:0:0:
320,192,13103,128,0,13202:0:0:0:0:
448,192,13103,1,0,0:0:0:0:
192,192,13202,128,0,13302:0:0:0:0:
320,192,13302,1,0,0:0:0:0:
448,192,13302,1,0,0:0:0:0:
192,192,13401,1,0,0:0:0:0:
64,192,13401,128,0,13500:0:0:0:0:
448,192,13500,1,0,0:0:0:0:
320,192,13500,1,0,0:0:0:0:
64,192,13600,1,0,0:0:0:0:
192,192,13600,128,0,13798:0:0:0:0:
448,192,13699,1,0,0:0:0:0:
320,192,13798,1,0,0:0:0:0:
192,192,13898,1,0,0:0:0:0:
64,192,13898,128,0,13997:0:0:0:0:
320,192,13997,1,0,0:0:0:0:
448,192,13997,1,0,0:0:0:0:
192,192,14096,1,0,0:0:0:0:
64,192,14096,1,0,0:0:0:0:
320,192,14196,1,0,0:0:0:0:
448,192,14196,128,0,14295:0:0:0:0:
64,192,14295,1,0,0:0:0:0:
192,192,14295,1,0,0:0:0:0:
448,192,14394,1,0,0:0:0:0:
320,192,14394,128,0,14593:0:0:0:0:
64,192,14494,1,0,0:0:0:0:
192,192,14593,1,0,0:0:0:0:
320,192,14692,1,0,0:0:0:0:
448,192,14692,128,0,14792:0:0:0:0:
192,192,14792,1,0,0:0:0:0:
64,192,14792,1,0,0:0:0:0:
448,192,14891,1,0,0:0:0:0:
320,192,14891,1,0,0:0:0:0:
192,192,14990,128,0,15090:0:0:0:0:
64,192,14990,1,0,0:0:0:0:
448,192,15090,1,0,0:0:0:0:
320,192,15090,1,0,0:0:0:0:
64,192,15189,128,0,15388:0:0:0:0:
192,192,15189,1,0,0:0:0:0:
448,192,15288,1,0,0:0:0:0:
320,192,15388,1,0,0:0:0:0:
192,192,15487,128,0,15586:0:0:0:0:
64,192,15487,1,0,0:0:0:0:
448,192,15586,1,0,0:0:0:0:
320,192,15586,1,0,0:0:0:0:
192,192,15686,1,0,0:0:0:0:
64,192,15686,1,0,0:0:0:0:
448,192,15785,1,0,0:0:0:0:
64,192,15885,1,0,0:0:0:0:
320,192,15885,1,0,0:0:0:0:
192,192,15885,1,0,0:0:0:0:
448,192,15984,1,0,0:0:0:0:
320,192,16083,1,0,0:0:0:0:
64,192,16083,1,0,0:0:0:0:
192,192,16183,1,0,0:0:0:0:
448,192,16282,1,0,0:0:0:0:
64,192,16282,1,0,0:0:0:0:
320,192,16282,1,0,0:0:0:0:
192,192,16381,1,0,0:0:0:0:
64,192,16481,1,0,0:0:0:0:
448,192,16481,1,0,0:0:0:0:
320,192,16580,1,0,0:0:0:0:
64,192,16679,1,0,0:0:0:0:
192,192,16679,1,0,0:0:0:0:
448,192,16679,1,0,0:0:0:0:
320,192,16779,1,0,0:0:0:0:
64,192,16878,1,0,0:0:0:0:
448,192,16878,1,0,0:0:0:0:
192,192,16977,1,0,0:0:0:0:
320,192,17077,1,0,0:0:0:0:
448,192,17077,1,0,0:0:0:0:
64,192,17077,1,0,0:0:0:0:
192,192,17176,1,0,0:0:0:0:
320,192,17275,1,0,0:0:0:0:
448,192,17275,1,0,0:0:0:0:
64,192,17375,1,0,0:0:0:0:
192,192,17474,1,0,0:0:0:0:
448,192,17474,1,0,0:0:0:0:
320,192,17474,128,0,17573:0:0:0:0:
64,192,17573,128,0,17673:0:0:0:0:
192,192,17673,1,0,0:0:0:0:
448,192,17673,128,0,17772:0:0:0:0:
320,192,17772,128,0,17871:0:0:0:0:
64,192,17871,1,0,0:0:0:0:
448,192,17871,1,0,0:0:0:0:
192,192,17871,128,0,17971:0:0:0:0:
320,192,17971,128,0,18070:0:0:0:0:
448,192,18070,1,0,0:0:0:0:
64,192,18070,128,0,18269:0:0:0:0:
192,192,18169,1,0,0:0:0:0:
320,192,18269,1,0,0:0:0:0:
448,192,18269,1,0,0:0:0:0:
192,192,18368,1,0,0:0:0:0:
64,192,18368,1,0,0:0:0:0:
320,192,18467,1,0,0:0:0:0:
448,192,18467,1,0,0:0:0:0:
448,192,18567,1,0,0:0:0:0:
64,192,18567,1,0,0:0:0:0:
64,192,18666,1,0,0:0:0:0:
192,192,18666,1,0,0:0:0:0:
320,192,18765,1,0,0:0:0:0:
448,192,18765,1,0,0:0:0:0:
64,192,18865,128,0,18964:0:0:0:0:
320,192,18865,1,0,0:0:0:0:
448,192,18865,1,0,0:0:0:0:
192,192,18964,128,0,19063:0:0:0:0:
64,192,19063,128,0,19163:0:0:0:0:
448,192,19063,128,0,19163:0:0:0:0:
320,192,19163,128,0,19262:0:0:0:0:
64,192,19262,128,0,19361:0:0:0:0:
192,192,19262,128,0,19361:0:0:0:0:
448,192,19262,128,0,19361:0:0:0:0:
320,192,19361,128,0,19461:0:0:0:0:
64,192,19461,128,0,19560:0:0:0:0:
192,192,19560,128,0,19659:0:0:0:0:
320,192,19659,1,0,0:0:0:0:
448,192,19659,1,0,0:0:0:0:
64,192,19659,1,0,0:0:0:0:
448,192,19858,1,0,0:0:0:0:
192,192,19858,1,0,0:0:0:0:
320,192,20057,1,0,0:0:0:0:
448,192,20057,1,0,0:0:0:0:
64,192,20057,1,0,0:0:0:0:
192,192,20255,1,0,0:0:0:0:
64,192,20255,1,0,0:0:0:0:
448,192,20355,1,0,0:0:0:0:
320,192,20355,1,0,0:0:0:0:
64,192,20454,1,0,0:0:0:0:
192,192,20454,1,0,0:0:0:0:
448,192,20454,1,0,0:0:0:0:
320,192,20653,1,0,0:0:0:0:
64,192,20653,1,0,0:0:0:0:
192,192,20851,1,0,0:0:0:0:
320,192,20851,1,0,0:0:0:0:
448,192,20851,1,0,0:0:0:0:
448,192,21050,1,0,0:0:0:0:
64,192,21050,1,0,0:0:0:0:
192,192,21050,1,0,0:0:0:0:
192,192,21249,1,0,0:0:0:0:
64,192,21249,1,0,0:0:0:0:
320,192,21249,1,0,0:0:0:0:
320,192,21447,1,0,0:0:0:0:
448,192,21447,1,0,0:0:0:0:
448,192,21646,1,0,0:0:0:0:
192,192,21646,1,0,0:0:0:0:
64,192,21646,1,0,0:0:0:0:
320,192,21845,1,0,0:0:0:0:
448,192,21845,1,0,0:0:0:0:
64,192,21944,1,0,0:0:0:0:
192,192,21944,1,0,0:0:0:0:
64,192,22043,1,0,0:0:0:0:
320,192,22043,1,0,0:0:0:0:
448,192,22043,1,0,0:0:0:0:
192,192,22242,1,0,0:0:0:0:
320,192,22242,1,0,0:0:0:0:
448,192,22441,1,0,0:0:0:0:
192,192,22441,1,0,0:0:0:0:
64,192,22441,1,0,0:0:0:0:
320,192,22639,1,0,0:0:0:0:
448,192,22639,1,0,0:0:0:0:
64,192,22739,1,0,0:0:0:0:
192,192,22739,1,0,0:0:0:0:
192,192,22838,1,0,0:0:0:0:
64,192,22838,1,0,0:0:0:0:
448,192,22838,1,0,0:0:0:0:
448,192,23037,1,0,0:0:0:0:
320,192,23037,1,0,0:0:0:0:
64,192,23236,1,0,0:0:0:0:
192,192,23236,1,0,0:0:0:0:
320,192,23236,1,0,0:0:0:0:
448,192,23434,1,0,0:0:0:0:
320,192,23434,1,0,0:0:0:0:
64,192,23534,1,0,0:0:0:0:
192,192,23534,1,0,0:0:0:0:
64,192,23633,1,0,0:0:0:0:
320,192,23633,1,0,0:0:0:0:
448,192,23633,1,0,0:0:0:0:
192,192,23832,1,0,0:0:0:0:
320,192,23832,1,0,0:0:0:0:
192,192,24030,1,0,0:0:0:0:
64,192,24030,1,0,0:0:0:0:
448,192,24030,1,0,0:0:0:0:
320,192,24229,1,0,0:0:0:0:
448,192,24229,1,0,0:0:0:0:
64,192,24229,1,0,0:0:0:0:
64,192,24428,1,0,0:0:0:0:
192,192,24428,1,0,0:0:0:0:
320,192,24428,1,0,0:0:0:0:
192,192,24626,1,0,0:0:0:0:
448,192,24626,1,0,0:0:0:0:
320,192,24825,1,0,0:0:0:0:
448,192,24825,1,0,0:0:0:0:
64,192,24825,1,0,0:0:0:0:
192,192,25024,1,0,0:0:0:0:
64,192,25024,1,0,0:0:0:0:
320,192,25123,1,0,0:0:0:0:
448,192,25123,1,0,0:0:0:0:
448,192,25222,1,0,0:0:0:0:
64,192,25222,128,0,25322:0:0:0:0:
192,192,25222,128,0,25322:0:0:0:0:
320,192,25322,128,0,25421:0:0:0:0:
64,192,25421,128,0,25520:0:0:0:0:
448,192,25421,128,0,25520:0:0:0:0:
192,192,25520,128,0,25620:0:0:0:0:
320,192,25620,128,0,25719:0:0:0:0:
448,192,25620,128,0,25719:0:0:0:0:
64,192,25620,1,0,0:0:0:0:
192,192,25719,128,0,25818:0:0:0:0:
64,192,25818,128,0,25918:0:0:0:0:
448,192,25818,128,0,25918:0:0:0:0:
320,192,25918,128,0,26017:0:0:0:0:
192,192,26017,1,0,0:0:0:0:
64,192,26017,1,0,0:0:0:0:
320,192,26116,128,0,26216:0:0:0:0:
448,192,26116,1,0,0:0:0:0:
64,192,26216,1,0,0:0:0:0:
320,192,26315,1,0,0:0:0:0:
448,192,26315,128,0,26514:0:0:0:0:
64,192,26414,1,0,0:0:0:0:
192,192,26514,1,0,0:0:0:0:
448,192,26613,1,0,0:0:0:0:
320,192,26613,128,0,26712:0:0:0:0:
64,192,26712,1,0,0:0:0:0:
192,192,26712,1,0,0:0:0:0:
320,192,26812,1,0,0:0:0:0:
448,192,26812,1,0,0:0:0:0:
192,192,26911,128,0,27010:0:0:0:0:
64,192,26911,1,0,0:0:0:0:
448,192,27010,1,0,0:0:0:0:
320,192,27010,1,0,0:0:0:0:
192,192,27110,1,0,0:0:0:0:
64,192,27110,128,0,27308:0:0:0:0:
448,192,27209,1,0,0:0:0:0:
320,192,27308,1,0,0:0:0:0:
64,192,27408,1,0,0:0:0:0:
192,192,27408,128,0,27507:0:0:0:0:
448,192,27507,1,0,0:0:0:0:
320,192,27507,1,0,0:0:0:0:
64,192,27606,1,0,0:0:0:0:
192,192,27606,1,0,0:0:0:0:
448,192,27706,1,0,0:0:0:0:
320,192,27706,128,0,27805:0:0:0:0:
64,192,27805,1,0,0:0:0:0:
448,192,27904,128,0,28103:0:0:0:0:
320,192,27904,1,0,0:0:0:0:
64,192,28004,1,0,0:0:0:0:
192,192,28103,1,0,0:0:0:0:
320,192,28202,128,0,28302:0:0:0:0:
448,192,28202,1,0,0:0:0:0:
192,192,28302,1,0,0:0:0:0:
64,192,28302,1,0,0:0:0:0:
320,192,28401,1,0,0:0:0:0:
448,192,28401,128,0,28600:0:0:0:0:
192,192,28600,128,0,28798:0:0:0:0:
64,192,28600,1,0,0:0:0:0:
448,192,28798,1,0,0:0:0:0:
64,192,28798,1,0,0:0:0:0:
320,192,28798,128,0,28997:0:0:0:0:
192,192,28997,1,0,0:0:0:0:
64,192,28997,128,0,29196:0:0:0:0:
320,192,29096,1,0,0:0:0:0:
448,192,29096,1,0,0:0:0:0:
192,192,29196,1,0,0:0:0:0:
320,192,29196,1,0,0:0:0:0:
448,192,29196,1,0,0:0:0:0:
64,192,29394,1,0,0:0:0:0:
192,192,29394,1,0,0:0:0:0:
64,192,29593,1,0,0:0:0:0:
320,192,29593,1,0,0:0:0:0:
448,192,29593,1,0,0:0:0:0:
448,192,29792,1,0,0:0:0:0:
320,192,29792,1,0,0:0:0:0:
192,192,29891,1,0,0:0:0:0:
64,192,29891,1,0,0:0:0:0:
320,192,29990,1,0,0:0:0:0:
192,192,29990,1,0,0:0:0:0:
64,192,29990,1,0,0:0:0:0:
448,192,30189,1,0,0:0:0:0:
320,192,30189,128,0,30288:0:0:0:0:
192,192,30288,128,0,30388:0:0:0:0:
320,192,30388,1,0,0:0:0:0:
64,192,30388,128,0,30487:0:0:0:0:
448,192,30388,128,0,30487:0:0:0:0:
192,192,30487,128,0,30586:0:0:0:0:
320,192,30586,128,0,30686:0:0:0:0:
448,192,30586,128,0,30686:0:0:0:0:
64,192,30686,128,0,30785:0:0:0:0:
192,192,30785,1,0,0:0:0:0:
448,192,30785,1,0,0:0:0:0:
320,192,30785,1,0,0:0:0:0:
64,192,30984,1,0,0:0:0:0:
448,192,30984,1,0,0:0:0:0:
320,192,31083,1,0,0:0:0:0:
192,192,31183,1,0,0:0:0:0:
64,192,31183,1,0,0:0:0:0:
448,192,31183,1,0,0:0:0:0:
320,192,31282,1,0,0:0:0:0:
64,192,31381,1,0,0:0:0:0:
448,192,31381,1,0,0:0:0:0:
192,192,31481,1,0,0:0:0:0:
320,192,31580,1,0,0:0:0:0:
448,192,31580,1,0,0:0:0:0:
64,192,31580,1,0,0:0:0:0:
192,192,31977,1,0,0:0:0:0:
64,192,31977,1,0,0:0:0:0:
448,192,31977,1,0,0:0:0:0:
64,192,32375,1,0,0:0:0:0:
320,192,32375,1,0,0:0:0:0:
448,192,32375,1,0,0:0:0:0:
192,192,32474,1,0,0:0:0:0:
448,192,32573,1,0,0:0:0:0:
320,192,32573,1,0,0:0:0:0:
64,192,32673,1,0,0:0:0:0:
192,192,32673,1,0,0:0:0:0:
320,192,32772,1,0,0:0:0:0:
448,192,32772,1,0,0:0:0:0:
64,192,32871,1,0,0:0:0:0:
320,192,32971,1,0,0:0:0:0:
448,192,32971,1,0,0:0:0:0:
192,192,33070,1,0,0:0:0:0:
64,192,33070,1,0,0:0:0:0:
448,192,33169,1,0,0:0:0:0:
192,192,33269,1,0,0:0:0:0:
64,192,33269,1,0,0:0:0:0:
320,192,33368,1,0,0:0:0:0:
448,192,33368,1,0,0:0:0:0:
64,192,33467,1,0,0:0:0:0:
320,192,33567,1,0,0:0:0:0:
448,192,33567,1,0,0:0:0:0:
192,192,33567,1,0,0:0:0:0:
64,192,33666,1,0,0:0:0:0:
192,192,33765,1,0,0:0:0:0:
448,192,33765,1,0,0:0:0:0:
320,192,33865,1,0,0:0:0:0:
448,192,33964,1,0,0:0:0:0:
192,192,33964,1,0,0:0:0:0:
64,192,33964,1,0,0:0:0:0:
320,192,34063,1,0,0:0:0:0:
64,192,34163,1,0,0:0:0:0:
192,192,34163,1,0,0:0:0:0:
448,192,34262,1,0,0:0:0:0:
320,192,34262,1,0,0:0:0:0:
192,192,34361,1,0,0:0:0:0:
64,192,34361,1,0,0:0:0:0:
448,192,34461,1,0,0:0:0:0:
192,192,34560,1,0,0:0:0:0:
64,192,34560,1,0,0:0:0:0:
320,192,34659,1,0,0:0:0:0:
448,192,34659,1,0,0:0:0:0:
64,192,34759,1,0,0:0:0:0:
320,192,34858,1,0,0:0:0:0:
448,192,34858,1,0,0:0:0:0:
192,192,34957,1,0,0:0:0:0:
64,192,34957,1,0,0:0:0:0:
448,192,35057,1,0,0:0:0:0:
192,192,35156,1,0,0:0:0:0:
64,192,35156,1,0,0:0:0:0:
320,192,35156,1,0,0:0:0:0:
448,192,35255,1,0,0:0:0:0:
320,192,35355,1,0,0:0:0:0:
64,192,35355,1,0,0:0:0:0:
192,192,35454,1,0,0:0:0:0:
64,192,35553,1,0,0:0:0:0:
320,192,35553,1,0,0:0:0:0:
448,192,35553,1,0,0:0:0:0:
192,192,35653,1,0,0:0:0:0:
320,192,35752,1,0,0:0:0:0:
448,192,35752,1,0,0:0:0:0:
64,192,35851,1,0,0:0:0:0:
320,192,35951,1,0,0:0:0:0:
448,192,35951,1,0,0:0:0:0:
192,192,35951,1,0,0:0:0:0:
64,192,36050,1,0,0:0:0:0:
320,192,36149,1,0,0:0:0:0:
448,192,36149,1,0,0:0:0:0:
192,192,36249,1,0,0:0:0:0:
64,192,36249,1,0,0:0:0:0:
320,192,36348,1,0,0:0:0:0:
192,192,36447,1,0,0:0:0:0:
64,192,36447,1,0,0:0:0:0:
320,192,36547,1,0,0:0:0:0:
448,192,36547,1,0,0:0:0:0:
64,192,36646,1,0,0:0:0:0:
320,192,36745,1,0,0:0:0:0:
192,192,36745,1,0,0:0:0:0:
448,192,36745,128,0,37143:0:0:0:0:
64,192,37341,1,0,0:0:0:0:
192,192,37341,1,0,0:0:0:0:
448,192,37341,1,0,0:0:0:0:
448,192,37540,1,0,0:0:0:0:
320,192,37540,1,0,0:0:0:0:
64,192,37540,1,0,0:0:0:0:
192,192,37739,1,0,0:0:0:0:
64,192,37739,1,0,0:0:0:0:
320,192,37838,1,0,0:0:0:0:
448,192,37838,1,0,0:0:0:0:
192,192,38335,1,0,0:0:0:0:
64,192,38335,1,0,0:0:0:0:
448,192,38732,128,0,39924:0:0:0:0:
64,192,38732,128,0,39924:0:0:0:0:
