osu file format v14

[General]
AudioFilename: audio.mp3
AudioLeadIn: 0
PreviewTime: 58336
Countdown: 0
SampleSet: Normal
StackLeniency: 0.7
Mode: 1
LetterboxInBreaks: 0
WidescreenStoryboard: 1

[Editor]
DistanceSpacing: 1.2
BeatDivisor: 4
GridSize: 32
TimelineZoom: 2

[Metadata]
Title:Hey! Calorie Queen
TitleUnicode:Hey!カロリーQueen
Artist:Taketatsu Ayana
ArtistUnicode:竹達彩奈
Creator:IControl
Version:Muzukashii
Source:だがしかし
Tags:Dagashi Kashi Anime Ending Cris_1 Q____X Nardoxyribonucleic [ M I N A K O ]
BeatmapID:964136
BeatmapSetID:444509

[Difficulty]
HPDrainRate:7
CircleSize:2
OverallDifficulty:5
ApproachRate:5
SliderMultiplier:1.4
SliderTickRate:1

[Events]
//Background and Video events
0,0,"chocolate-cake-wallpaper-6.jpg",0,0
//Break Periods
//Storyboard Layer 0 (Background)
//Storyboard Layer 1 (Fail)
//Storyboard Layer 2 (Pass)
//Storyboard Layer 3 (Foreground)
//Storyboard Sound Samples

[TimingPoints]
1990,384.615384615385,4,1,0,80,1,0
58913,-100,4,1,0,80,0,1
89682,-100,4,1,0,80,0,0
128143,-100,4,1,0,80,0,1
158913,-100,4,1,0,80,0,0
188143,-125,4,1,0,60,0,0
200451,-100,4,1,0,60,0,0
209682,-90.9090909090909,4,1,0,80,0,1
240451,-100,4,1,0,80,0,0
251509,-111.111111111111,4,1,0,80,0,0
251797,-117.647058823529,4,1,0,75,0,0
251990,-125,4,1,0,60,0,0
252278,-133.333333333333,4,1,0,60,0,0
252566,-142.857142857143,4,1,0,60,0,0

[HitObjects]
256,192,1990,5,12,0:0:0:0:
256,192,3528,1,12,0:0:0:0:
256,192,4297,1,4,0:0:0:0:
256,192,5066,1,4,0:0:0:0:
256,192,5643,1,8,0:0:0:0:
256,192,5836,1,4,0:0:0:0:
256,192,6220,1,4,0:0:0:0:
256,192,6605,1,8,0:0:0:0:
256,192,6990,1,8,0:0:0:0:
256,192,7374,1,8,0:0:0:0:
256,192,7470,1,8,0:0:0:0:
256,192,7566,1,8,0:0:0:0:
256,192,7759,1,0,0:0:0:0:
256,192,7855,1,0,0:0:0:0:
256,192,7951,1,0,0:0:0:0:
256,192,8143,1,12,0:0:0:0:
256,192,8528,1,0,0:0:0:0:
256,192,8913,1,0,0:0:0:0:
256,192,9105,1,8,0:0:0:0:
256,192,9297,1,0,0:0:0:0:
256,192,9490,1,0,0:0:0:0:
256,192,9682,1,8,0:0:0:0:
256,192,10066,1,0,0:0:0:0:
256,192,10259,1,8,0:0:0:0:
256,192,10451,1,0,0:0:0:0:
256,192,10643,1,8,0:0:0:0:
256,192,10836,1,0,0:0:0:0:
256,192,11028,1,0,0:0:0:0:
256,192,11413,1,0,0:0:0:0:
256,192,11605,1,8,0:0:0:0:
256,192,11990,1,8,0:0:0:0:
256,192,12182,1,8,0:0:0:0:
256,192,12374,1,0,0:0:0:0:
256,192,12566,1,8,0:0:0:0:
256,192,12759,1,8,0:0:0:0:
256,192,13143,1,0,0:0:0:0:
256,192,13336,1,8,0:0:0:0:
256,192,13528,1,0,0:0:0:0:
256,192,13720,1,8,0:0:0:0:
256,192,13913,1,0,0:0:0:0:
256,192,14105,1,8,0:0:0:0:
256,192,14490,1,12,0:0:0:0:
256,192,14682,1,8,0:0:0:0:
256,192,15066,1,8,0:0:0:0:
256,192,15259,1,8,0:0:0:0:
256,192,15451,1,0,0:0:0:0:
256,192,15643,1,8,0:0:0:0:
256,192,15836,1,8,0:0:0:0:
256,192,16220,1,0,0:0:0:0:
256,192,16413,1,8,0:0:0:0:
256,192,16605,1,0,0:0:0:0:
256,192,16797,1,8,0:0:0:0:
256,192,16990,1,8,0:0:0:0:
256,192,17182,1,0,0:0:0:0:
256,192,17374,1,4,0:0:0:0:
256,192,17759,1,0,0:0:0:0:
256,192,18143,1,8,0:0:0:0:
256,192,18528,1,8,0:0:0:0:
256,192,18913,1,0,0:0:0:0:
256,192,19297,1,12,0:0:0:0:
256,192,19682,1,4,0:0:0:0:
256,192,20451,1,0,0:0:0:0:
256,192,20836,1,0,0:0:0:0:
256,192,21220,1,0,0:0:0:0:
256,192,21605,1,8,0:0:0:0:
256,192,21797,1,0,0:0:0:0:
256,192,21990,1,8,0:0:0:0:
256,192,22374,1,8,0:0:0:0:
256,192,22759,1,8,0:0:0:0:
256,192,23143,1,8,0:0:0:0:
256,192,23336,1,0,0:0:0:0:
256,192,23528,1,0,0:0:0:0:
256,192,23913,1,0,0:0:0:0:
256,192,24297,1,0,0:0:0:0:
256,192,24682,1,8,0:0:0:0:
256,192,24874,1,0,0:0:0:0:
256,192,25066,1,0,0:0:0:0:
256,192,25451,1,8,0:0:0:0:
256,192,25643,1,0,0:0:0:0:
256,192,25836,1,8,0:0:0:0:
256,192,26028,1,0,0:0:0:0:
256,192,26220,1,8,0:0:0:0:
256,192,26605,1,12,0:0:0:0:
256,192,26990,1,8,0:0:0:0:
256,192,27182,1,0,0:0:0:0:
256,192,27374,1,8,0:0:0:0:
256,192,27566,1,0,0:0:0:0:
256,192,27759,1,8,0:0:0:0:
256,192,28143,1,0,0:0:0:0:
256,192,28528,1,8,0:0:0:0:
256,192,28720,1,0,0:0:0:0:
256,192,28913,1,8,0:0:0:0:
256,192,29297,1,8,0:0:0:0:
256,192,29682,1,4,0:0:0:0:
256,192,30066,1,8,0:0:0:0:
256,192,30259,1,0,0:0:0:0:
256,192,30451,1,8,0:0:0:0:
256,192,30836,1,8,0:0:0:0:
256,192,31220,1,0,0:0:0:0:
256,192,31605,1,12,0:0:0:0:
256,192,31990,1,4,0:0:0:0:
256,192,32182,1,8,0:0:0:0:
256,192,32278,1,8,0:0:0:0:
256,192,32374,1,8,0:0:0:0:
256,192,32566,1,0,0:0:0:0:
256,192,32759,1,12,0:0:0:0:
256,192,33143,1,0,0:0:0:0:
256,192,33336,1,0,0:0:0:0:
256,192,33528,1,8,0:0:0:0:
256,192,33720,1,0,0:0:0:0:
256,192,33913,1,8,0:0:0:0:
256,192,34105,1,0,0:0:0:0:
256,192,34201,1,0,0:0:0:0:
256,192,34297,1,0,0:0:0:0:
256,192,34682,1,0,0:0:0:0:
256,192,34874,1,8,0:0:0:0:
256,192,35259,1,0,0:0:0:0:
256,192,35451,1,8,0:0:0:0:
256,192,35643,1,0,0:0:0:0:
256,192,35836,1,0,0:0:0:0:
256,192,36028,1,0,0:0:0:0:
256,192,36124,1,0,0:0:0:0:
256,192,36220,1,0,0:0:0:0:
256,192,36605,1,0,0:0:0:0:
256,192,36990,1,8,0:0:0:0:
256,192,37182,1,0,0:0:0:0:
256,192,37278,1,0,0:0:0:0:
256,192,37374,1,8,0:0:0:0:
256,192,37759,1,8,0:0:0:0:
256,192,37951,1,0,0:0:0:0:
256,192,38336,1,0,0:0:0:0:
256,192,38528,1,8,0:0:0:0:
256,192,38913,1,8,0:0:0:0:
256,192,39297,1,8,0:0:0:0:
256,192,39490,1,0,0:0:0:0:
256,192,39874,1,0,0:0:0:0:
256,192,40066,1,0,0:0:0:0:
256,192,40259,1,8,0:0:0:0:
256,192,40451,1,0,0:0:0:0:
256,192,40836,1,8,0:0:0:0:
256,192,41028,1,0,0:0:0:0:
256,192,41220,1,0,0:0:0:0:
256,192,41413,1,8,0:0:0:0:
256,192,41605,1,0,0:0:0:0:
256,192,41797,1,0,0:0:0:0:
256,192,41990,1,8,0:0:0:0:
256,192,42374,1,0,0:0:0:0:
256,192,42759,1,8,0:0:0:0:
256,192,43143,1,8,0:0:0:0:
256,192,43528,1,12,0:0:0:0:
256,192,43913,1,8,0:0:0:0:
256,192,44105,1,12,0:0:0:0:
256,192,44874,1,8,0:0:0:0:
256,192,45066,1,4,0:0:0:0:
256,192,45451,1,8,0:0:0:0:
256,192,45643,1,8,0:0:0:0:
256,192,46028,1,8,0:0:0:0:
256,192,46220,1,8,0:0:0:0:
256,192,46413,1,8,0:0:0:0:
256,192,46605,1,4,0:0:0:0:
256,192,47182,1,4,0:0:0:0:
256,192,47566,1,8,0:0:0:0:
256,192,47759,1,0,0:0:0:0:
256,192,47951,1,0,0:0:0:0:
256,192,48143,1,4,0:0:0:0:
256,192,48528,1,0,0:0:0:0:
256,192,48720,1,0,0:0:0:0:
256,192,49105,1,0,0:0:0:0:
256,192,49297,1,8,0:0:0:0:
256,192,49490,1,0,0:0:0:0:
256,192,49682,1,8,0:0:0:0:
256,192,50259,1,8,0:0:0:0:
256,192,50451,1,0,0:0:0:0:
256,192,50836,1,0,0:0:0:0:
256,192,51220,1,0,0:0:0:0:
256,192,51413,1,0,0:0:0:0:
256,192,51605,1,12,0:0:0:0:
256,192,51990,1,0,0:0:0:0:
256,192,52182,1,0,0:0:0:0:
256,192,52374,1,12,0:0:0:0:
256,192,52759,1,4,0:0:0:0:
256,192,53047,1,8,0:0:0:0:
256,192,53336,1,0,0:0:0:0:
256,192,53528,1,0,0:0:0:0:
256,192,53912,1,8,0:0:0:0:
256,192,54297,1,4,0:0:0:0:
256,192,54682,1,0,0:0:0:0:
256,192,55066,1,8,0:0:0:0:
256,192,55259,1,0,0:0:0:0:
256,192,55451,1,8,0:0:0:0:
256,192,55643,1,0,0:0:0:0:
256,192,55836,1,0,0:0:0:0:
256,192,56124,1,12,0:0:0:0:
256,192,56413,1,0,0:0:0:0:
256,192,56605,1,0,0:0:0:0:
256,192,56893,1,12,0:0:0:0:
256,192,57182,1,0,0:0:0:0:
256,192,57374,1,4,0:0:0:0:
256,192,57663,1,12,0:0:0:0:
256,192,57951,1,8,0:0:0:0:
256,192,58143,1,4,0:0:0:0:
256,192,58336,1,0,0:0:0:0:
256,192,58528,1,0,0:0:0:0:
256,192,58624,1,0,0:0:0:0:
256,192,58720,1,0,0:0:0:0:
256,192,58913,1,4,0:0:0:0:
256,192,59201,1,8,0:0:0:0:
256,192,59297,1,8,0:0:0:0:
256,192,59489,1,0,0:0:0:0:
256,192,59586,1,0,0:0:0:0:
256,192,59682,1,0,0:0:0:0:
256,192,59874,1,8,0:0:0:0:
256,192,60066,1,0,0:0:0:0:
256,192,60259,1,0,0:0:0:0:
256,192,60451,1,0,0:0:0:0:
256,192,60739,1,8,0:0:0:0:
256,192,60836,1,8,0:0:0:0:
256,192,61028,1,0,0:0:0:0:
256,192,61124,1,0,0:0:0:0:
256,192,61220,1,0,0:0:0:0:
256,192,61413,1,8,0:0:0:0:
256,192,61605,1,0,0:0:0:0:
256,192,61797,1,8,0:0:0:0:
256,192,61990,1,0,0:0:0:0:
256,192,62374,1,8,0:0:0:0:
256,192,62759,1,0,0:0:0:0:
256,192,63143,1,8,0:0:0:0:
256,192,63528,1,4,0:0:0:0:
256,192,64105,1,0,0:0:0:0:
256,192,64297,1,8,0:0:0:0:
256,192,64393,1,8,0:0:0:0:
256,192,64490,1,8,0:0:0:0:
256,192,64682,1,0,0:0:0:0:
256,192,64874,1,0,0:0:0:0:
256,192,65066,1,4,0:0:0:0:
256,192,65259,1,8,0:0:0:0:
256,192,65643,1,8,0:0:0:0:
256,192,65836,1,0,0:0:0:0:
256,192,66220,1,0,0:0:0:0:
256,192,66413,1,8,0:0:0:0:
256,192,66605,1,0,0:0:0:0:
256,192,66990,1,8,0:0:0:0:
256,192,67374,1,0,0:0:0:0:
256,192,67566,1,0,0:0:0:0:
256,192,67759,1,8,0:0:0:0:
256,192,67951,1,0,0:0:0:0:
256,192,68143,2,0,L|416:192,3,139.99997516632
256,192,69682,1,0,0:0:0:0:
256,192,70066,1,0,0:0:0:0:
256,192,70451,1,8,0:0:0:0:
256,192,70643,1,0,0:0:0:0:
256,192,70836,1,8,0:0:0:0:
256,192,70932,1,8,0:0:0:0:
256,192,71028,1,8,0:0:0:0:
256,192,71220,1,4,0:0:0:0:
256,192,71509,1,8,0:0:0:0:
256,192,71605,1,8,0:0:0:0:
256,192,71797,1,0,0:0:0:0:
256,192,71893,1,0,0:0:0:0:
256,192,71990,1,0,0:0:0:0:
256,192,72182,1,8,0:0:0:0:
256,192,72374,1,0,0:0:0:0:
256,192,72566,1,0,0:0:0:0:
256,192,72759,1,8,0:0:0:0:
256,192,73047,1,8,0:0:0:0:
256,192,73143,1,8,0:0:0:0:
256,192,73336,1,8,0:0:0:0:
256,192,73432,1,8,0:0:0:0:
256,192,73528,1,8,0:0:0:0:
256,192,73720,1,8,0:0:0:0:
256,192,73913,1,0,0:0:0:0:
256,192,74105,1,0,0:0:0:0:
256,192,74297,1,4,0:0:0:0:
256,192,74682,1,8,0:0:0:0:
256,192,75066,1,0,0:0:0:0:
256,192,75451,1,8,0:0:0:0:
256,192,75836,1,4,0:0:0:0:
256,192,76413,1,8,0:0:0:0:
256,192,76990,1,0,0:0:0:0:
256,192,77182,1,8,0:0:0:0:
256,192,77374,1,0,0:0:0:0:
256,192,77662,1,8,0:0:0:0:
256,192,77759,1,8,0:0:0:0:
256,192,77951,1,0,0:0:0:0:
256,192,78143,1,0,0:0:0:0:
256,192,78336,1,8,0:0:0:0:
256,192,78528,1,0,0:0:0:0:
256,192,78720,1,8,0:0:0:0:
256,192,78913,1,0,0:0:0:0:
256,192,79297,1,8,0:0:0:0:
256,192,79393,1,8,0:0:0:0:
256,192,79490,1,8,0:0:0:0:
256,192,79682,1,0,0:0:0:0:
256,192,80066,1,0,0:0:0:0:
256,192,80163,1,0,0:0:0:0:
256,192,80259,1,0,0:0:0:0:
256,192,80451,1,0,0:0:0:0:
256,192,80643,1,8,0:0:0:0:
256,192,80836,1,8,0:0:0:0:
256,192,81220,1,0,0:0:0:0:
256,192,81413,1,8,0:0:0:0:
256,192,81605,1,0,0:0:0:0:
256,192,81797,1,12,0:0:0:0:
256,192,82182,1,0,0:0:0:0:
256,192,82374,1,8,0:0:0:0:
256,192,82566,1,12,0:0:0:0:
256,192,83144,1,8,0:0:0:0:
256,192,83336,1,0,0:0:0:0:
256,192,83528,1,8,0:0:0:0:
256,192,83816,1,0,0:0:0:0:
256,192,83912,1,0,0:0:0:0:
256,192,84105,1,8,0:0:0:0:
256,192,84201,1,8,0:0:0:0:
256,192,84297,1,8,0:0:0:0:
256,192,84490,1,0,0:0:0:0:
256,192,84682,1,8,0:0:0:0:
256,192,84874,1,0,0:0:0:0:
256,192,85066,1,12,0:0:0:0:
256,192,85451,1,0,0:0:0:0:
256,192,85836,1,8,0:0:0:0:
256,192,86220,1,0,0:0:0:0:
256,192,86605,1,4,0:0:0:0:
256,192,87182,1,8,0:0:0:0:
256,192,87374,1,12,0:0:0:0:
256,192,87759,1,4,0:0:0:0:
256,192,88143,1,8,0:0:0:0:
256,192,88528,1,8,0:0:0:0:
256,192,88913,1,8,0:0:0:0:
256,192,89009,1,8,0:0:0:0:
256,192,89105,1,8,0:0:0:0:
256,192,89297,1,0,0:0:0:0:
256,192,89393,1,0,0:0:0:0:
256,192,89490,1,0,0:0:0:0:
256,192,89682,1,12,0:0:0:0:
256,192,90066,1,0,0:0:0:0:
256,192,90451,1,0,0:0:0:0:
256,192,90643,1,8,0:0:0:0:
256,192,90835,1,0,0:0:0:0:
256,192,91028,1,0,0:0:0:0:
256,192,91220,1,8,0:0:0:0:
256,192,91604,1,0,0:0:0:0:
256,192,91797,1,8,0:0:0:0:
256,192,91989,1,0,0:0:0:0:
256,192,92181,1,8,0:0:0:0:
256,192,92374,1,0,0:0:0:0:
256,192,92566,1,0,0:0:0:0:
256,192,92951,1,0,0:0:0:0:
256,192,93143,1,8,0:0:0:0:
256,192,93528,1,8,0:0:0:0:
256,192,93720,1,8,0:0:0:0:
256,192,93912,1,0,0:0:0:0:
256,192,94105,1,8,0:0:0:0:
256,192,94297,1,0,0:0:0:0:
256,192,94682,1,0,0:0:0:0:
256,192,94874,1,0,0:0:0:0:
256,192,95066,1,8,0:0:0:0:
256,192,95258,1,8,0:0:0:0:
256,192,95451,1,0,0:0:0:0:
256,192,95643,1,8,0:0:0:0:
256,192,96028,1,12,0:0:0:0:
256,192,96220,1,8,0:0:0:0:
256,192,96604,1,8,0:0:0:0:
256,192,96797,1,8,0:0:0:0:
256,192,96989,1,0,0:0:0:0:
256,192,97181,1,8,0:0:0:0:
256,192,97374,1,8,0:0:0:0:
256,192,97758,1,0,0:0:0:0:
256,192,97951,1,8,0:0:0:0:
256,192,98143,1,0,0:0:0:0:
256,192,98335,1,8,0:0:0:0:
256,192,98528,1,8,0:0:0:0:
256,192,98720,1,0,0:0:0:0:
256,192,98912,1,4,0:0:0:0:
256,192,99297,1,0,0:0:0:0:
256,192,99681,1,8,0:0:0:0:
256,192,100066,1,8,0:0:0:0:
256,192,100451,1,0,0:0:0:0:
256,192,100740,1,8,0:0:0:0:
256,192,101028,1,8,0:0:0:0:
256,192,101220,1,4,0:0:0:0:
256,192,101605,1,8,0:0:0:0:
256,192,101990,1,4,0:0:0:0:
256,192,102374,1,0,0:0:0:0:
256,192,102567,1,0,0:0:0:0:
256,192,102759,1,8,0:0:0:0:
256,192,102951,1,0,0:0:0:0:
256,192,103144,1,8,0:0:0:0:
256,192,103336,1,0,0:0:0:0:
256,192,103432,1,0,0:0:0:0:
256,192,103528,1,0,0:0:0:0:
256,192,103913,1,0,0:0:0:0:
256,192,104105,1,8,0:0:0:0:
256,192,104297,1,8,0:0:0:0:
256,192,104490,1,0,0:0:0:0:
256,192,104682,1,8,0:0:0:0:
256,192,104874,1,0,0:0:0:0:
256,192,104970,1,0,0:0:0:0:
256,192,105067,1,0,0:0:0:0:
256,192,105451,1,0,0:0:0:0:
256,192,105644,1,8,0:0:0:0:
256,192,105836,1,0,0:0:0:0:
256,192,106028,1,8,0:0:0:0:
256,192,106221,1,8,0:0:0:0:
256,192,106413,1,0,0:0:0:0:
256,192,106605,1,8,0:0:0:0:
256,192,106990,1,8,0:0:0:0:
256,192,107182,1,0,0:0:0:0:
256,192,107374,1,8,0:0:0:0:
256,192,107470,1,8,0:0:0:0:
256,192,107567,1,8,0:0:0:0:
256,192,107759,1,8,0:0:0:0:
256,192,107951,1,0,0:0:0:0:
256,192,108144,1,8,0:0:0:0:
256,192,108528,1,8,0:0:0:0:
256,192,108721,1,0,0:0:0:0:
256,192,109105,1,0,0:0:0:0:
256,192,109297,1,8,0:0:0:0:
256,192,109490,1,0,0:0:0:0:
256,192,109682,1,8,0:0:0:0:
256,192,110067,1,8,0:0:0:0:
256,192,110259,1,0,0:0:0:0:
256,192,110355,1,0,0:0:0:0:
256,192,110451,1,0,0:0:0:0:
256,192,110644,1,8,0:0:0:0:
256,192,110836,1,0,0:0:0:0:
256,192,111028,1,0,0:0:0:0:
256,192,111221,1,8,0:0:0:0:
256,192,111605,1,4,0:0:0:0:
256,192,111990,1,8,0:0:0:0:
256,192,112374,1,8,0:0:0:0:
256,192,112759,1,12,0:0:0:0:
256,192,113144,1,8,0:0:0:0:
256,192,113336,1,12,0:0:0:0:
256,192,114105,1,8,0:0:0:0:
256,192,114297,1,4,0:0:0:0:
256,192,114682,1,8,0:0:0:0:
256,192,114874,1,8,0:0:0:0:
256,192,115259,1,8,0:0:0:0:
256,192,115451,1,8,0:0:0:0:
256,192,115644,1,8,0:0:0:0:
256,192,115836,1,4,0:0:0:0:
256,192,116413,1,4,0:0:0:0:
256,192,116797,1,8,0:0:0:0:
256,192,116990,1,0,0:0:0:0:
256,192,117182,1,0,0:0:0:0:
256,192,117374,1,4,0:0:0:0:
256,192,117759,1,0,0:0:0:0:
256,192,117951,1,0,0:0:0:0:
256,192,118336,1,0,0:0:0:0:
256,192,118528,1,8,0:0:0:0:
256,192,118721,1,0,0:0:0:0:
256,192,118913,1,8,0:0:0:0:
256,192,119490,1,8,0:0:0:0:
256,192,119682,1,0,0:0:0:0:
256,192,120067,1,0,0:0:0:0:
256,192,120451,1,0,0:0:0:0:
256,192,120644,1,0,0:0:0:0:
256,192,120836,1,12,0:0:0:0:
256,192,121221,1,0,0:0:0:0:
256,192,121413,1,0,0:0:0:0:
256,192,121605,1,12,0:0:0:0:
256,192,121990,1,4,0:0:0:0:
256,192,122278,1,8,0:0:0:0:
256,192,122566,1,8,0:0:0:0:
256,192,122759,1,0,0:0:0:0:
256,192,123144,1,0,0:0:0:0:
256,192,123336,1,8,0:0:0:0:
256,192,123528,1,4,0:0:0:0:
256,192,123913,1,0,0:0:0:0:
256,192,124297,1,8,0:0:0:0:
256,192,124490,1,0,0:0:0:0:
256,192,124682,1,8,0:0:0:0:
256,192,124874,1,0,0:0:0:0:
256,192,125067,1,0,0:0:0:0:
256,192,125355,1,12,0:0:0:0:
256,192,125643,1,0,0:0:0:0:
256,192,125836,1,0,0:0:0:0:
256,192,126124,1,12,0:0:0:0:
256,192,126413,1,0,0:0:0:0:
256,192,126605,1,8,0:0:0:0:
256,192,126990,1,8,0:0:0:0:
256,192,127182,1,8,0:0:0:0:
256,192,127374,1,8,0:0:0:0:
256,192,127470,1,8,0:0:0:0:
256,192,127566,1,8,0:0:0:0:
256,192,127759,1,0,0:0:0:0:
256,192,127951,1,0,0:0:0:0:
256,192,128143,1,4,0:0:0:0:
256,192,128431,1,8,0:0:0:0:
256,192,128527,1,8,0:0:0:0:
256,192,128719,1,0,0:0:0:0:
256,192,128816,1,0,0:0:0:0:
256,192,128913,1,0,0:0:0:0:
256,192,129104,1,8,0:0:0:0:
256,192,129296,1,0,0:0:0:0:
256,192,129489,1,0,0:0:0:0:
256,192,129681,1,0,0:0:0:0:
256,192,129970,1,8,0:0:0:0:
256,192,130067,1,8,0:0:0:0:
256,192,130259,1,0,0:0:0:0:
256,192,130355,1,0,0:0:0:0:
256,192,130451,1,0,0:0:0:0:
256,192,130643,1,8,0:0:0:0:
256,192,130835,1,0,0:0:0:0:
256,192,131027,1,8,0:0:0:0:
256,192,131220,1,0,0:0:0:0:
256,192,131604,1,8,0:0:0:0:
256,192,131989,1,0,0:0:0:0:
256,192,132373,1,8,0:0:0:0:
256,192,132758,1,4,0:0:0:0:
256,192,133335,1,0,0:0:0:0:
256,192,133527,1,8,0:0:0:0:
256,192,133623,1,8,0:0:0:0:
256,192,133720,1,8,0:0:0:0:
256,192,133912,1,0,0:0:0:0:
256,192,134104,1,0,0:0:0:0:
256,192,134296,1,4,0:0:0:0:
256,192,134490,1,8,0:0:0:0:
256,192,134874,1,8,0:0:0:0:
256,192,135066,1,0,0:0:0:0:
256,192,135451,1,0,0:0:0:0:
256,192,135643,1,8,0:0:0:0:
256,192,135835,1,0,0:0:0:0:
256,192,136220,1,8,0:0:0:0:
256,192,136413,1,8,0:0:0:0:
256,192,136604,1,0,0:0:0:0:
256,192,136796,1,0,0:0:0:0:
256,192,136989,1,8,0:0:0:0:
256,192,137181,1,0,0:0:0:0:
256,192,137374,2,0,L|416:192,3,139.99997516632
256,192,138912,1,0,0:0:0:0:
256,192,139296,1,0,0:0:0:0:
256,192,139681,1,8,0:0:0:0:
256,192,139873,1,0,0:0:0:0:
256,192,140066,1,8,0:0:0:0:
256,192,140162,1,8,0:0:0:0:
256,192,140258,1,8,0:0:0:0:
256,192,140450,1,4,0:0:0:0:
256,192,140740,1,8,0:0:0:0:
256,192,140836,1,8,0:0:0:0:
256,192,141028,1,0,0:0:0:0:
256,192,141124,1,0,0:0:0:0:
256,192,141220,1,0,0:0:0:0:
256,192,141412,1,8,0:0:0:0:
256,192,141604,1,0,0:0:0:0:
256,192,141796,1,0,0:0:0:0:
256,192,141989,1,8,0:0:0:0:
256,192,142278,1,8,0:0:0:0:
256,192,142374,1,8,0:0:0:0:
256,192,142567,1,8,0:0:0:0:
256,192,142663,1,8,0:0:0:0:
256,192,142759,1,8,0:0:0:0:
256,192,142950,1,8,0:0:0:0:
256,192,143143,1,0,0:0:0:0:
256,192,143335,1,0,0:0:0:0:
256,192,143527,1,4,0:0:0:0:
256,192,143912,1,8,0:0:0:0:
256,192,144296,1,0,0:0:0:0:
256,192,144681,1,8,0:0:0:0:
256,192,145066,1,4,0:0:0:0:
256,192,145643,1,8,0:0:0:0:
256,192,146220,1,0,0:0:0:0:
256,192,146412,1,8,0:0:0:0:
256,192,146604,1,0,0:0:0:0:
256,192,146893,1,8,0:0:0:0:
256,192,146990,1,8,0:0:0:0:
256,192,147182,1,0,0:0:0:0:
256,192,147278,1,0,0:0:0:0:
256,192,147374,1,0,0:0:0:0:
256,192,147566,1,8,0:0:0:0:
256,192,147758,1,0,0:0:0:0:
256,192,147950,1,8,0:0:0:0:
256,192,148143,1,0,0:0:0:0:
256,192,148527,1,8,0:0:0:0:
256,192,148623,1,8,0:0:0:0:
256,192,148720,1,8,0:0:0:0:
256,192,148912,1,0,0:0:0:0:
256,192,149296,1,0,0:0:0:0:
256,192,149393,1,0,0:0:0:0:
256,192,149489,1,0,0:0:0:0:
256,192,149681,1,0,0:0:0:0:
256,192,149873,1,8,0:0:0:0:
256,192,150066,1,8,0:0:0:0:
256,192,150450,1,0,0:0:0:0:
256,192,150643,1,8,0:0:0:0:
256,192,150835,1,0,0:0:0:0:
256,192,151027,1,12,0:0:0:0:
256,192,151412,1,0,0:0:0:0:
256,192,151604,1,8,0:0:0:0:
256,192,151796,1,12,0:0:0:0:
256,192,152374,1,8,0:0:0:0:
256,192,152566,1,0,0:0:0:0:
256,192,152758,1,8,0:0:0:0:
256,192,153047,1,0,0:0:0:0:
256,192,153143,1,0,0:0:0:0:
256,192,153336,1,8,0:0:0:0:
256,192,153432,1,8,0:0:0:0:
256,192,153528,1,8,0:0:0:0:
256,192,153720,1,0,0:0:0:0:
256,192,153912,1,8,0:0:0:0:
256,192,154104,1,0,0:0:0:0:
256,192,154296,1,12,0:0:0:0:
256,192,154681,1,0,0:0:0:0:
256,192,155066,1,8,0:0:0:0:
256,192,155450,1,0,0:0:0:0:
256,192,155835,1,4,0:0:0:0:
256,192,156412,1,8,0:0:0:0:
256,192,156604,1,12,0:0:0:0:
256,192,156989,1,4,0:0:0:0:
256,192,157373,1,8,0:0:0:0:
256,192,157758,1,8,0:0:0:0:
256,192,158143,1,8,0:0:0:0:
256,192,158239,1,8,0:0:0:0:
256,192,158335,1,8,0:0:0:0:
256,192,158527,1,0,0:0:0:0:
256,192,158623,1,0,0:0:0:0:
256,192,158720,5,0,0:0:0:0:
256,192,158913,1,0,0:0:0:0:
256,192,159874,5,0,0:0:0:0:
256,192,160066,1,8,0:0:0:0:
256,192,160259,1,0,0:0:0:0:
256,192,160451,1,8,0:0:0:0:
256,192,160740,1,8,0:0:0:0:
256,192,161028,1,8,0:0:0:0:
256,192,161220,1,0,0:0:0:0:
256,192,162374,1,0,0:0:0:0:
256,192,162759,1,8,0:0:0:0:
256,192,163047,1,8,0:0:0:0:
256,192,163336,1,0,0:0:0:0:
256,192,163528,1,8,0:0:0:0:
256,192,163816,1,8,0:0:0:0:
256,192,164105,1,0,0:0:0:0:
256,192,164297,1,0,0:0:0:0:
256,192,165259,1,8,0:0:0:0:
256,192,165451,1,8,0:0:0:0:
256,192,165643,1,0,0:0:0:0:
256,192,165836,1,8,0:0:0:0:
256,192,166028,1,0,0:0:0:0:
256,192,166220,1,8,0:0:0:0:
256,192,166413,1,0,0:0:0:0:
256,192,166605,1,8,0:0:0:0:
256,192,166893,1,8,0:0:0:0:
256,192,167182,1,0,0:0:0:0:
256,192,167374,1,8,0:0:0:0:
256,192,168143,12,0,171028,0:0:0:0:
256,192,171220,5,4,0:0:0:0:
256,192,171605,1,8,0:0:0:0:
256,192,171797,1,0,0:0:0:0:
256,192,171990,1,8,0:0:0:0:
256,192,172182,1,0,0:0:0:0:
256,192,172374,1,8,0:0:0:0:
256,192,172566,1,0,0:0:0:0:
256,192,172759,1,0,0:0:0:0:
256,192,173336,1,8,0:0:0:0:
256,192,173528,1,4,0:0:0:0:
256,192,173913,1,8,0:0:0:0:
256,192,174105,1,0,0:0:0:0:
256,192,174201,1,0,0:0:0:0:
256,192,174297,1,0,0:0:0:0:
256,192,174490,1,8,0:0:0:0:
256,192,174874,1,8,0:0:0:0:
256,192,175066,1,0,0:0:0:0:
256,192,175451,1,0,0:0:0:0:
256,192,175643,1,8,0:0:0:0:
256,192,175836,1,0,0:0:0:0:
256,192,176413,1,0,0:0:0:0:
256,192,176605,1,8,0:0:0:0:
256,192,176990,1,8,0:0:0:0:
256,192,177182,1,0,0:0:0:0:
256,192,177278,1,0,0:0:0:0:
256,192,177374,1,0,0:0:0:0:
256,192,177566,1,0,0:0:0:0:
256,192,177951,1,0,0:0:0:0:
256,192,178143,1,8,0:0:0:0:
256,192,178336,1,8,0:0:0:0:
256,192,178528,1,0,0:0:0:0:
256,192,178720,1,0,0:0:0:0:
256,192,179105,1,8,0:0:0:0:
256,192,179297,1,0,0:0:0:0:
256,192,179682,1,0,0:0:0:0:
256,192,179874,1,8,0:0:0:0:
256,192,180066,1,0,0:0:0:0:
256,192,180259,1,8,0:0:0:0:
256,192,180451,1,4,0:0:0:0:
256,192,181413,1,0,0:0:0:0:
256,192,181605,1,8,0:0:0:0:
256,192,181797,1,0,0:0:0:0:
256,192,181990,1,0,0:0:0:0:
256,192,182374,1,8,0:0:0:0:
256,192,182566,1,0,0:0:0:0:
256,192,182951,1,0,0:0:0:0:
256,192,183047,1,0,0:0:0:0:
256,192,183143,1,0,0:0:0:0:
256,192,183336,1,8,0:0:0:0:
256,192,183720,1,0,0:0:0:0:
256,192,183816,1,0,0:0:0:0:
256,192,183913,1,0,0:0:0:0:
256,192,184105,1,0,0:0:0:0:
256,192,184201,1,0,0:0:0:0:
256,192,184297,1,0,0:0:0:0:
256,192,184490,1,8,0:0:0:0:
256,192,184682,1,0,0:0:0:0:
256,192,185066,1,0,0:0:0:0:
256,192,185355,1,8,0:0:0:0:
256,192,185643,1,0,0:0:0:0:
256,192,185836,1,8,0:0:0:0:
256,192,186124,1,8,0:0:0:0:
256,192,186413,1,0,0:0:0:0:
256,192,186605,2,0,L|416:192,4,139.99997516632
256,192,189682,1,0,0:0:0:0:
256,192,191220,1,8,0:0:0:0:
256,192,191990,1,0,0:0:0:0:
256,192,192759,1,8,0:0:0:0:
256,192,193528,1,0,0:0:0:0:
256,192,194297,1,0,0:0:0:0:
256,192,195836,1,8,0:0:0:0:
256,192,197374,1,8,0:0:0:0:
256,192,198913,1,0,0:0:0:0:
256,192,200451,1,0,0:0:0:0:
256,192,200836,1,0,0:0:0:0:
256,192,201413,1,8,0:0:0:0:
256,192,201605,1,0,0:0:0:0:
256,192,201797,1,0,0:0:0:0:
256,192,201990,1,8,0:0:0:0:
256,192,202374,1,8,0:0:0:0:
256,192,202951,1,8,0:0:0:0:
256,192,203143,1,0,0:0:0:0:
256,192,203336,1,0,0:0:0:0:
256,192,203528,1,8,0:0:0:0:
256,192,203913,1,0,0:0:0:0:
256,192,204297,1,0,0:0:0:0:
256,192,204682,1,8,0:0:0:0:
256,192,205066,1,0,0:0:0:0:
256,192,205643,1,8,0:0:0:0:
256,192,206220,1,8,0:0:0:0:
256,192,206413,1,0,0:0:0:0:
256,192,206605,1,0,0:0:0:0:
256,192,206990,1,0,0:0:0:0:
256,192,207374,1,0,0:0:0:0:
256,192,207566,1,8,0:0:0:0:
256,192,207759,1,8,0:0:0:0:
256,192,207951,1,8,0:0:0:0:
256,192,208143,1,4,0:0:0:0:
256,192,208528,1,12,0:0:0:0:
256,192,208913,1,4,0:0:0:0:
256,192,209105,1,0,0:0:0:0:
256,192,209297,1,0,0:0:0:0:
256,192,209393,1,0,0:0:0:0:
256,192,209490,1,0,0:0:0:0:
256,192,209682,1,4,0:0:0:0:
256,192,209970,1,8,0:0:0:0:
256,192,210066,1,8,0:0:0:0:
256,192,210258,1,0,0:0:0:0:
256,192,210355,1,0,0:0:0:0:
256,192,210451,1,0,0:0:0:0:
256,192,210643,1,8,0:0:0:0:
256,192,210835,1,0,0:0:0:0:
256,192,211028,1,0,0:0:0:0:
256,192,211220,1,0,0:0:0:0:
256,192,211508,1,8,0:0:0:0:
256,192,211605,1,8,0:0:0:0:
256,192,211797,1,0,0:0:0:0:
256,192,211893,1,0,0:0:0:0:
256,192,211990,1,0,0:0:0:0:
256,192,212182,1,8,0:0:0:0:
256,192,212374,1,0,0:0:0:0:
256,192,212566,1,8,0:0:0:0:
256,192,212759,1,0,0:0:0:0:
256,192,213143,1,8,0:0:0:0:
256,192,213528,1,0,0:0:0:0:
256,192,213912,1,8,0:0:0:0:
256,192,214297,1,4,0:0:0:0:
256,192,214874,1,0,0:0:0:0:
256,192,215066,1,8,0:0:0:0:
256,192,215162,1,8,0:0:0:0:
256,192,215259,1,8,0:0:0:0:
256,192,215451,1,0,0:0:0:0:
256,192,215643,1,0,0:0:0:0:
256,192,215835,1,4,0:0:0:0:
256,192,216220,1,8,0:0:0:0:
256,192,216412,1,0,0:0:0:0:
256,192,216797,1,0,0:0:0:0:
256,192,216989,1,8,0:0:0:0:
256,192,217182,1,8,0:0:0:0:
256,192,217374,1,0,0:0:0:0:
256,192,217759,1,8,0:0:0:0:
256,192,218143,1,8,0:0:0:0:
256,192,218432,1,8,0:0:0:0:
256,192,218720,1,0,0:0:0:0:
256,192,218912,1,4,0:0:0:0:
256,192,219201,1,8,0:0:0:0:
256,192,219490,1,4,0:0:0:0:
256,192,219874,1,0,0:0:0:0:
256,192,220259,1,8,0:0:0:0:
256,192,220643,1,0,0:0:0:0:
256,192,220835,1,0,0:0:0:0:
256,192,221028,1,8,0:0:0:0:
256,192,221220,1,8,0:0:0:0:
256,192,221605,1,8,0:0:0:0:
256,192,221990,1,4,0:0:0:0:
256,192,222279,1,8,0:0:0:0:
256,192,222375,1,8,0:0:0:0:
256,192,222567,1,0,0:0:0:0:
256,192,222663,1,0,0:0:0:0:
256,192,222759,1,0,0:0:0:0:
256,192,222951,1,8,0:0:0:0:
256,192,223143,1,0,0:0:0:0:
256,192,223335,1,0,0:0:0:0:
256,192,223528,1,8,0:0:0:0:
256,192,223816,1,8,0:0:0:0:
256,192,223912,1,8,0:0:0:0:
256,192,224105,1,8,0:0:0:0:
256,192,224201,1,8,0:0:0:0:
256,192,224297,1,8,0:0:0:0:
256,192,224489,1,8,0:0:0:0:
256,192,224682,1,0,0:0:0:0:
256,192,224874,1,0,0:0:0:0:
256,192,225066,1,4,0:0:0:0:
256,192,225451,1,8,0:0:0:0:
256,192,225835,1,0,0:0:0:0:
256,192,226220,1,8,0:0:0:0:
256,192,226605,1,4,0:0:0:0:
256,192,227182,1,8,0:0:0:0:
256,192,227759,1,0,0:0:0:0:
256,192,227951,1,8,0:0:0:0:
256,192,228143,1,0,0:0:0:0:
256,192,228432,1,8,0:0:0:0:
256,192,228529,1,8,0:0:0:0:
256,192,228721,1,0,0:0:0:0:
256,192,228817,1,0,0:0:0:0:
256,192,228913,1,0,0:0:0:0:
256,192,229105,1,8,0:0:0:0:
256,192,229297,1,0,0:0:0:0:
256,192,229489,1,8,0:0:0:0:
256,192,229682,1,0,0:0:0:0:
256,192,230066,1,8,0:0:0:0:
256,192,230451,1,0,0:0:0:0:
256,192,230835,1,8,0:0:0:0:
256,192,231220,1,4,0:0:0:0:
256,192,231413,1,8,0:0:0:0:
256,192,231989,1,8,0:0:0:0:
256,192,232182,1,8,0:0:0:0:
256,192,232566,1,12,0:0:0:0:
256,192,232951,1,0,0:0:0:0:
256,192,233143,1,8,0:0:0:0:
256,192,233336,1,4,0:0:0:0:
256,192,233913,1,8,0:0:0:0:
256,192,234105,1,8,0:0:0:0:
256,192,234297,1,8,0:0:0:0:
256,192,234585,1,0,0:0:0:0:
256,192,234681,1,0,0:0:0:0:
256,192,234874,1,8,0:0:0:0:
256,192,234970,1,8,0:0:0:0:
256,192,235066,1,8,0:0:0:0:
256,192,235259,1,0,0:0:0:0:
256,192,235451,1,8,0:0:0:0:
256,192,235643,1,0,0:0:0:0:
256,192,235835,1,12,0:0:0:0:
256,192,236220,1,0,0:0:0:0:
256,192,236605,1,8,0:0:0:0:
256,192,236989,1,0,0:0:0:0:
256,192,237374,1,4,0:0:0:0:
256,192,237951,1,8,0:0:0:0:
256,192,238143,1,12,0:0:0:0:
256,192,238528,1,4,0:0:0:0:
256,192,238912,1,8,0:0:0:0:
256,192,239297,1,8,0:0:0:0:
256,192,239682,1,8,0:0:0:0:
256,192,239778,1,8,0:0:0:0:
256,192,239874,1,8,0:0:0:0:
256,192,240066,1,0,0:0:0:0:
256,192,240162,1,0,0:0:0:0:
256,192,240259,1,0,0:0:0:0:
256,192,240451,1,12,0:0:0:0:
256,192,240836,1,8,0:0:0:0:
256,192,241220,1,0,0:0:0:0:
256,192,241412,1,8,0:0:0:0:
256,192,241604,1,0,0:0:0:0:
256,192,241797,1,0,0:0:0:0:
256,192,241990,1,8,0:0:0:0:
256,192,242373,1,0,0:0:0:0:
256,192,242566,1,8,0:0:0:0:
256,192,242758,1,0,0:0:0:0:
256,192,242950,1,8,0:0:0:0:
256,192,243143,1,0,0:0:0:0:
256,192,243335,1,0,0:0:0:0:
256,192,243720,1,0,0:0:0:0:
256,192,243912,1,8,0:0:0:0:
256,192,244297,1,8,0:0:0:0:
256,192,244489,1,8,0:0:0:0:
256,192,244681,1,0,0:0:0:0:
256,192,244873,1,8,0:0:0:0:
256,192,245066,1,8,0:0:0:0:
256,192,245450,1,0,0:0:0:0:
256,192,245643,1,8,0:0:0:0:
256,192,245835,1,0,0:0:0:0:
256,192,246027,1,8,0:0:0:0:
256,192,246220,1,0,0:0:0:0:
256,192,246412,1,8,0:0:0:0:
256,192,246797,1,12,0:0:0:0:
256,192,246989,1,8,0:0:0:0:
256,192,247373,1,8,0:0:0:0:
256,192,247566,1,8,0:0:0:0:
256,192,247758,1,0,0:0:0:0:
256,192,247950,1,8,0:0:0:0:
256,192,248143,1,8,0:0:0:0:
256,192,248527,1,0,0:0:0:0:
256,192,248720,1,8,0:0:0:0:
256,192,248912,1,0,0:0:0:0:
256,192,249104,1,8,0:0:0:0:
256,192,249297,1,8,0:0:0:0:
256,192,249489,1,0,0:0:0:0:
256,192,249681,1,4,0:0:0:0:
256,192,250066,1,0,0:0:0:0:
256,192,250450,1,8,0:0:0:0:
256,192,250835,1,8,0:0:0:0:
256,192,251220,1,0,0:0:0:0:
256,192,251509,1,12,0:0:0:0:
256,192,251797,1,8,0:0:0:0:
256,192,251989,1,4,0:0:0:0:
256,192,252278,1,12,0:0:0:0:
256,192,252566,1,4,0:0:0:0:
256,192,252951,12,0,253913,0:0:0:0:
256,192,254105,5,0,0:0:0:0:
256,192,254201,1,0,0:0:0:0:
256,192,254297,1,0,0:0:0:0:
