osu file format v14

[General]
AudioFilename: audio.mp3
AudioLeadIn: 0
PreviewTime: 58336
Countdown: 0
SampleSet: Normal
StackLeniency: 0.7
Mode: 1
LetterboxInBreaks: 0
WidescreenStoryboard: 0

[Editor]
DistanceSpacing: 1.2
BeatDivisor: 4
GridSize: 32
TimelineZoom: 3.299999

[Metadata]
Title:Hey! Calorie Queen
TitleUnicode:Hey!カロリーQueen
Artist:Taketatsu Ayana
ArtistUnicode:竹達彩奈
Creator:IControl
Version:Inner Oni
Source:だがしかし
Tags:Dagashi Kashi Anime Ending Cris_1 Q____X Nardoxyribonucleic [ M I N A K O ]
BeatmapID:954975
BeatmapSetID:444509

[Difficulty]
HPDrainRate:10
CircleSize:5
OverallDifficulty:6
ApproachRate:5
SliderMultiplier:1.4
SliderTickRate:1

[Events]
//Background and Video events
0,0,"chocolate-cake-wallpaper-6.jpg",0,0
//Break Periods
//Storyboard Layer 0 (Background)
//Storyboard Layer 1 (Fail)
//Storyboard Layer 2 (Pass)
//Storyboard Layer 3 (Foreground)
//Storyboard Sound Samples

[TimingPoints]
1990,384.615384615385,4,1,0,80,1,0
58913,-100,4,1,0,80,0,1
89682,-100,4,1,0,80,0,0
128143,-100,4,1,0,80,0,1
158913,-100,4,1,0,80,0,0
188047,-111.111111111111,4,1,0,80,0,0
188143,-117.647058823529,4,1,0,60,0,0
188336,-125,4,1,0,60,0,0
200451,-100,4,1,0,60,0,0
209682,-90.9090909090909,4,1,0,80,0,1
240451,-100,4,1,0,80,0,0
251509,-111.111111111111,4,1,0,80,0,0
251797,-117.647058823529,4,1,0,75,0,0
251990,-125,4,1,0,60,0,0
252278,-133.333333333333,4,1,0,60,0,0
252566,-142.857142857143,4,1,0,60,0,0

[HitObjects]
256,192,1990,5,12,0:0:0:0:
256,192,3528,1,12,0:0:0:0:
256,192,4297,1,0,0:0:0:0:
256,192,5066,1,4,0:0:0:0:
256,192,5643,1,8,0:0:0:0:
256,192,5836,1,4,0:0:0:0:
256,192,6220,1,0,0:0:0:0:
256,192,6605,1,8,0:0:0:0:
256,192,6990,1,8,0:0:0:0:
256,192,7374,1,8,0:0:0:0:
256,192,7470,1,8,0:0:0:0:
256,192,7566,1,8,0:0:0:0:
256,192,7663,1,0,0:0:0:0:
256,192,7759,1,0,0:0:0:0:
256,192,7855,1,0,0:0:0:0:
256,192,7951,1,0,0:0:0:0:
256,192,8047,1,8,0:0:0:0:
256,192,8143,1,8,0:0:0:0:
256,192,8335,1,8,0:0:0:0:
256,192,8527,1,8,0:0:0:0:
256,192,8719,1,0,0:0:0:0:
256,192,8912,1,8,0:0:0:0:
256,192,9008,1,0,0:0:0:0:
256,192,9104,1,8,0:0:0:0:
256,192,9296,1,0,0:0:0:0:
256,192,9392,1,0,0:0:0:0:
256,192,9489,1,8,0:0:0:0:
256,192,9681,1,8,0:0:0:0:
256,192,9873,1,8,0:0:0:0:
256,192,9970,1,0,0:0:0:0:
256,192,10066,1,0,0:0:0:0:
256,192,10258,1,0,0:0:0:0:
256,192,10354,1,8,0:0:0:0:
256,192,10450,1,8,0:0:0:0:
256,192,10642,1,8,0:0:0:0:
256,192,10835,1,8,0:0:0:0:
256,192,11027,1,0,0:0:0:0:
256,192,11124,1,0,0:0:0:0:
256,192,11219,1,0,0:0:0:0:
256,192,11412,1,8,0:0:0:0:
256,192,11508,1,0,0:0:0:0:
256,192,11604,1,8,0:0:0:0:
256,192,11796,1,0,0:0:0:0:
256,192,11989,1,8,0:0:0:0:
256,192,12181,1,0,0:0:0:0:
256,192,12373,1,0,0:0:0:0:
256,192,12470,1,0,0:0:0:0:
256,192,12565,1,8,0:0:0:0:
256,192,12758,1,8,0:0:0:0:
256,192,12950,1,8,0:0:0:0:
256,192,13047,1,0,0:0:0:0:
256,192,13142,1,8,0:0:0:0:
256,192,13335,1,8,0:0:0:0:
256,192,13527,1,0,0:0:0:0:
256,192,13719,1,8,0:0:0:0:
256,192,13912,1,0,0:0:0:0:
256,192,14008,1,0,0:0:0:0:
256,192,14104,1,8,0:0:0:0:
256,192,14201,1,8,0:0:0:0:
256,192,14296,1,0,0:0:0:0:
256,192,14489,1,8,0:0:0:0:
256,192,14681,1,8,0:0:0:0:
256,192,14873,1,0,0:0:0:0:
256,192,15065,1,8,0:0:0:0:
256,192,15162,1,0,0:0:0:0:
256,192,15258,1,8,0:0:0:0:
256,192,15354,1,8,0:0:0:0:
256,192,15450,1,0,0:0:0:0:
256,192,15642,1,8,0:0:0:0:
256,192,15835,1,0,0:0:0:0:
256,192,16027,1,8,0:0:0:0:
256,192,16123,1,8,0:0:0:0:
256,192,16219,1,0,0:0:0:0:
256,192,16412,1,8,0:0:0:0:
256,192,16604,1,0,0:0:0:0:
256,192,16797,1,8,0:0:0:0:
256,192,16893,1,0,0:0:0:0:
256,192,16989,1,8,0:0:0:0:
256,192,17085,1,8,0:0:0:0:
256,192,17181,1,0,0:0:0:0:
256,192,17277,1,0,0:0:0:0:
256,192,17373,1,0,0:0:0:0:
256,192,17662,1,0,0:0:0:0:
256,192,17758,1,8,0:0:0:0:
256,192,17950,1,8,0:0:0:0:
256,192,18142,5,0,0:0:0:0:
256,192,18431,1,0,0:0:0:0:
256,192,18527,1,8,0:0:0:0:
256,192,18719,1,0,0:0:0:0:
256,192,18815,1,0,0:0:0:0:
256,192,18912,1,0,0:0:0:0:
256,192,19297,1,12,0:0:0:0:
256,192,19682,1,4,0:0:0:0:
256,192,19874,1,0,0:0:0:0:
256,192,19970,1,0,0:0:0:0:
256,192,20066,1,8,0:0:0:0:
256,192,20259,1,0,0:0:0:0:
256,192,20451,1,0,0:0:0:0:
256,192,20836,1,0,0:0:0:0:
256,192,21220,1,0,0:0:0:0:
256,192,21605,1,8,0:0:0:0:
256,192,21797,1,0,0:0:0:0:
256,192,21893,1,0,0:0:0:0:
256,192,21990,1,0,0:0:0:0:
256,192,22278,1,0,0:0:0:0:
256,192,22374,1,0,0:0:0:0:
256,192,22566,1,8,0:0:0:0:
256,192,22759,1,8,0:0:0:0:
256,192,22951,1,0,0:0:0:0:
256,192,23143,1,8,0:0:0:0:
256,192,23336,1,0,0:0:0:0:
256,192,23432,1,0,0:0:0:0:
256,192,23528,1,0,0:0:0:0:
256,192,23720,1,0,0:0:0:0:
256,192,23816,1,0,0:0:0:0:
256,192,23913,1,8,0:0:0:0:
256,192,24297,1,8,0:0:0:0:
256,192,24682,1,8,0:0:0:0:
256,192,24874,1,0,0:0:0:0:
256,192,24970,1,0,0:0:0:0:
256,192,25066,1,0,0:0:0:0:
256,192,25355,1,8,0:0:0:0:
256,192,25451,1,8,0:0:0:0:
256,192,25643,1,8,0:0:0:0:
256,192,25836,1,0,0:0:0:0:
256,192,26028,1,8,0:0:0:0:
256,192,26220,1,0,0:0:0:0:
256,192,26413,1,8,0:0:0:0:
256,192,26605,1,0,0:0:0:0:
256,192,26893,1,0,0:0:0:0:
256,192,26990,1,8,0:0:0:0:
256,192,27182,1,0,0:0:0:0:
256,192,27374,1,8,0:0:0:0:
256,192,27566,1,0,0:0:0:0:
256,192,27759,1,8,0:0:0:0:
256,192,27951,1,0,0:0:0:0:
256,192,28143,1,0,0:0:0:0:
256,192,28528,1,8,0:0:0:0:
256,192,28720,1,0,0:0:0:0:
256,192,28816,1,0,0:0:0:0:
256,192,28913,1,0,0:0:0:0:
256,192,29105,1,8,0:0:0:0:
256,192,29297,1,0,0:0:0:0:
256,192,29490,1,8,0:0:0:0:
256,192,29682,1,0,0:0:0:0:
256,192,29970,1,0,0:0:0:0:
256,192,30066,1,8,0:0:0:0:
256,192,30259,1,8,0:0:0:0:
256,192,30451,1,0,0:0:0:0:
256,192,30643,1,0,0:0:0:0:
256,192,30836,1,8,0:0:0:0:
256,192,30932,1,0,0:0:0:0:
256,192,31028,1,0,0:0:0:0:
256,192,31124,1,0,0:0:0:0:
256,192,31220,1,0,0:0:0:0:
256,192,31605,1,12,0:0:0:0:
256,192,31990,1,4,0:0:0:0:
256,192,32182,1,0,0:0:0:0:
256,192,32278,1,0,0:0:0:0:
256,192,32374,1,8,0:0:0:0:
256,192,32566,1,0,0:0:0:0:
256,192,32759,1,4,0:0:0:0:
256,192,32951,1,8,0:0:0:0:
256,192,33047,1,0,0:0:0:0:
256,192,33143,1,0,0:0:0:0:
256,192,33336,1,8,0:0:0:0:
256,192,33432,1,0,0:0:0:0:
256,192,33528,1,0,0:0:0:0:
256,192,33720,1,0,0:0:0:0:
256,192,33816,1,0,0:0:0:0:
256,192,33913,1,8,0:0:0:0:
256,192,34105,1,0,0:0:0:0:
256,192,34297,1,0,0:0:0:0:
256,192,34490,1,8,0:0:0:0:
256,192,34586,1,0,0:0:0:0:
256,192,34682,1,0,0:0:0:0:
256,192,34874,1,8,0:0:0:0:
256,192,34970,1,0,0:0:0:0:
256,192,35066,1,0,0:0:0:0:
256,192,35259,1,8,0:0:0:0:
256,192,35451,1,0,0:0:0:0:
256,192,35643,1,0,0:0:0:0:
256,192,35836,1,4,0:0:0:0:
256,192,36028,1,0,0:0:0:0:
256,192,36124,1,0,0:0:0:0:
256,192,36220,1,8,0:0:0:0:
256,192,36413,1,0,0:0:0:0:
256,192,36509,1,0,0:0:0:0:
256,192,36605,1,8,0:0:0:0:
256,192,36797,1,0,0:0:0:0:
256,192,36990,1,8,0:0:0:0:
256,192,37086,1,8,0:0:0:0:
256,192,37182,1,0,0:0:0:0:
256,192,37278,1,0,0:0:0:0:
256,192,37374,1,0,0:0:0:0:
256,192,37566,1,0,0:0:0:0:
256,192,37663,1,0,0:0:0:0:
256,192,37759,1,8,0:0:0:0:
256,192,37951,1,8,0:0:0:0:
256,192,38143,1,8,0:0:0:0:
256,192,38336,1,0,0:0:0:0:
256,192,38528,1,8,0:0:0:0:
256,192,38720,1,8,0:0:0:0:
256,192,38913,1,8,0:0:0:0:
256,192,39105,1,0,0:0:0:0:
256,192,39201,1,0,0:0:0:0:
256,192,39297,1,8,0:0:0:0:
256,192,39490,1,0,0:0:0:0:
256,192,39682,1,8,0:0:0:0:
256,192,39874,1,0,0:0:0:0:
256,192,40066,1,8,0:0:0:0:
256,192,40259,1,8,0:0:0:0:
256,192,40355,1,8,0:0:0:0:
256,192,40451,1,0,0:0:0:0:
256,192,40643,1,0,0:0:0:0:
256,192,40739,1,0,0:0:0:0:
256,192,40836,1,8,0:0:0:0:
256,192,41028,1,0,0:0:0:0:
256,192,41124,1,8,0:0:0:0:
256,192,41220,1,0,0:0:0:0:
256,192,41413,1,8,0:0:0:0:
256,192,41605,1,0,0:0:0:0:
256,192,41797,1,0,0:0:0:0:
256,192,41893,1,0,0:0:0:0:
256,192,41990,1,0,0:0:0:0:
256,192,42182,1,0,0:0:0:0:
256,192,42278,1,0,0:0:0:0:
256,192,42374,1,8,0:0:0:0:
256,192,42566,1,0,0:0:0:0:
256,192,42759,1,8,0:0:0:0:
256,192,42951,1,0,0:0:0:0:
256,192,43047,1,0,0:0:0:0:
256,192,43143,1,8,0:0:0:0:
256,192,43336,1,0,0:0:0:0:
256,192,43528,1,4,0:0:0:0:
256,192,43913,1,8,0:0:0:0:
256,192,44105,1,4,0:0:0:0:
256,192,44490,1,8,0:0:0:0:
256,192,44682,1,8,0:0:0:0:
256,192,44874,1,0,0:0:0:0:
256,192,44970,1,0,0:0:0:0:
256,192,45066,1,0,0:0:0:0:
256,192,45259,1,8,0:0:0:0:
256,192,45355,1,0,0:0:0:0:
256,192,45451,1,8,0:0:0:0:
256,192,45643,1,0,0:0:0:0:
256,192,45836,1,8,0:0:0:0:
256,192,45932,1,8,0:0:0:0:
256,192,46028,1,0,0:0:0:0:
256,192,46220,1,8,0:0:0:0:
256,192,46413,1,0,0:0:0:0:
256,192,46605,1,4,0:0:0:0:
256,192,46990,1,8,0:0:0:0:
256,192,47182,1,4,0:0:0:0:
256,192,47566,1,8,0:0:0:0:
256,192,47759,1,8,0:0:0:0:
256,192,47951,1,8,0:0:0:0:
256,192,48143,1,0,0:0:0:0:
256,192,48336,1,0,0:0:0:0:
256,192,48432,1,0,0:0:0:0:
256,192,48528,1,8,0:0:0:0:
256,192,48720,1,8,0:0:0:0:
256,192,48816,1,8,0:0:0:0:
256,192,48913,1,0,0:0:0:0:
256,192,49105,1,0,0:0:0:0:
256,192,49201,1,0,0:0:0:0:
256,192,49297,1,8,0:0:0:0:
256,192,49393,1,8,0:0:0:0:
256,192,49490,1,0,0:0:0:0:
256,192,49682,1,8,0:0:0:0:
256,192,49874,1,8,0:0:0:0:
256,192,49970,1,0,0:0:0:0:
256,192,50066,1,8,0:0:0:0:
256,192,50259,1,8,0:0:0:0:
256,192,50355,1,0,0:0:0:0:
256,192,50451,1,8,0:0:0:0:
256,192,50740,1,8,0:0:0:0:
256,192,50836,1,0,0:0:0:0:
256,192,51028,1,8,0:0:0:0:
256,192,51220,1,0,0:0:0:0:
256,192,51413,1,0,0:0:0:0:
256,192,51605,1,12,0:0:0:0:
256,192,51893,1,0,0:0:0:0:
256,192,51990,1,8,0:0:0:0:
256,192,52182,1,0,0:0:0:0:
256,192,52374,1,12,0:0:0:0:
256,192,52663,1,0,0:0:0:0:
256,192,52759,1,8,0:0:0:0:
256,192,53015,1,8,0:0:0:0:
256,192,53336,1,8,0:0:0:0:
256,192,53432,1,8,0:0:0:0:
256,192,53528,1,0,0:0:0:0:
256,192,53720,1,8,0:0:0:0:
256,192,53816,1,0,0:0:0:0:
256,192,53913,1,0,0:0:0:0:
256,192,54105,1,0,0:0:0:0:
256,192,54297,1,4,0:0:0:0:
256,192,54586,1,0,0:0:0:0:
256,192,54682,1,8,0:0:0:0:
256,192,54874,1,0,0:0:0:0:
256,192,55066,1,8,0:0:0:0:
256,192,55355,1,8,0:0:0:0:
256,192,55451,1,0,0:0:0:0:
256,192,55643,1,8,0:0:0:0:
256,192,55836,1,0,0:0:0:0:
256,192,56124,1,12,0:0:0:0:
256,192,56413,1,0,0:0:0:0:
256,192,56509,1,0,0:0:0:0:
256,192,56605,1,0,0:0:0:0:
256,192,56893,1,12,0:0:0:0:
256,192,57182,1,0,0:0:0:0:
256,192,57278,1,0,0:0:0:0:
256,192,57374,1,8,0:0:0:0:
256,192,57663,1,12,0:0:0:0:
256,192,57951,1,8,0:0:0:0:
256,192,58143,1,4,0:0:0:0:
256,192,58336,1,8,0:0:0:0:
256,192,58432,1,0,0:0:0:0:
256,192,58528,1,8,0:0:0:0:
256,192,58624,1,0,0:0:0:0:
256,192,58720,1,0,0:0:0:0:
256,192,58913,1,4,0:0:0:0:
256,192,59105,1,0,0:0:0:0:
256,192,59201,1,8,0:0:0:0:
256,192,59297,1,8,0:0:0:0:
256,192,59393,1,8,0:0:0:0:
256,192,59490,1,0,0:0:0:0:
256,192,59682,1,0,0:0:0:0:
256,192,59874,1,8,0:0:0:0:
256,192,60066,1,8,0:0:0:0:
256,192,60163,1,0,0:0:0:0:
256,192,60259,1,0,0:0:0:0:
256,192,60355,1,0,0:0:0:0:
256,192,60451,1,8,0:0:0:0:
256,192,60643,1,0,0:0:0:0:
256,192,60740,1,8,0:0:0:0:
256,192,60836,1,8,0:0:0:0:
256,192,60932,1,8,0:0:0:0:
256,192,61028,1,0,0:0:0:0:
256,192,61220,1,0,0:0:0:0:
256,192,61316,1,0,0:0:0:0:
256,192,61413,1,8,0:0:0:0:
256,192,61605,1,0,0:0:0:0:
256,192,61797,1,8,0:0:0:0:
256,192,61990,1,0,0:0:0:0:
256,192,62086,1,8,0:0:0:0:
256,192,62278,1,8,0:0:0:0:
256,192,62374,1,0,0:0:0:0:
256,192,62566,1,8,0:0:0:0:
256,192,62759,1,8,0:0:0:0:
256,192,62855,1,8,0:0:0:0:
256,192,63047,1,8,0:0:0:0:
256,192,63143,1,0,0:0:0:0:
256,192,63336,1,8,0:0:0:0:
256,192,63528,1,0,0:0:0:0:
256,192,63816,1,0,0:0:0:0:
256,192,63913,1,8,0:0:0:0:
256,192,64105,1,0,0:0:0:0:
256,192,64201,1,0,0:0:0:0:
256,192,64297,1,8,0:0:0:0:
256,192,64393,1,0,0:0:0:0:
256,192,64490,1,8,0:0:0:0:
256,192,64682,1,0,0:0:0:0:
256,192,64874,1,8,0:0:0:0:
256,192,65066,1,0,0:0:0:0:
256,192,65259,1,8,0:0:0:0:
256,192,65355,1,0,0:0:0:0:
256,192,65451,1,8,0:0:0:0:
256,192,65547,1,8,0:0:0:0:
256,192,65643,1,0,0:0:0:0:
256,192,65740,1,8,0:0:0:0:
256,192,65836,1,0,0:0:0:0:
256,192,66028,1,8,0:0:0:0:
256,192,66220,1,0,0:0:0:0:
256,192,66316,1,0,0:0:0:0:
256,192,66413,1,8,0:0:0:0:
256,192,66605,1,8,0:0:0:0:
256,192,66797,1,0,0:0:0:0:
256,192,66893,1,0,0:0:0:0:
256,192,66990,1,8,0:0:0:0:
256,192,67182,1,8,0:0:0:0:
256,192,67278,1,8,0:0:0:0:
256,192,67374,1,0,0:0:0:0:
256,192,67566,1,8,0:0:0:0:
256,192,67759,1,0,0:0:0:0:
256,192,67855,1,8,0:0:0:0:
256,192,67951,1,8,0:0:0:0:
256,192,68143,1,4,0:0:0:0:
256,192,68336,1,0,0:0:0:0:
256,192,68432,1,8,0:0:0:0:
256,192,68624,1,8,0:0:0:0:
256,192,68720,1,0,0:0:0:0:
256,192,68913,1,0,0:0:0:0:
256,192,69105,1,0,0:0:0:0:
256,192,69201,1,8,0:0:0:0:
256,192,69393,1,0,0:0:0:0:
256,192,69490,1,8,0:0:0:0:
256,192,69682,1,8,0:0:0:0:
256,192,69778,1,0,0:0:0:0:
256,192,69874,1,0,0:0:0:0:
256,192,70066,1,8,0:0:0:0:
256,192,70163,1,8,0:0:0:0:
256,192,70259,1,0,0:0:0:0:
256,192,70451,1,0,0:0:0:0:
256,192,70643,1,0,0:0:0:0:
256,192,70740,1,8,0:0:0:0:
256,192,70836,1,8,0:0:0:0:
256,192,70932,1,8,0:0:0:0:
256,192,71028,1,0,0:0:0:0:
256,192,71220,1,0,0:0:0:0:
256,192,71413,1,0,0:0:0:0:
256,192,71509,1,8,0:0:0:0:
256,192,71605,1,8,0:0:0:0:
256,192,71701,1,8,0:0:0:0:
256,192,71797,1,0,0:0:0:0:
256,192,71990,1,0,0:0:0:0:
256,192,72182,1,8,0:0:0:0:
256,192,72374,1,8,0:0:0:0:
256,192,72471,1,0,0:0:0:0:
256,192,72567,1,0,0:0:0:0:
256,192,72663,1,0,0:0:0:0:
256,192,72759,1,8,0:0:0:0:
256,192,72951,1,0,0:0:0:0:
256,192,73048,1,0,0:0:0:0:
256,192,73143,1,8,0:0:0:0:
256,192,73240,1,8,0:0:0:0:
256,192,73336,1,0,0:0:0:0:
256,192,73528,1,0,0:0:0:0:
256,192,73624,1,0,0:0:0:0:
256,192,73721,1,8,0:0:0:0:
256,192,73913,1,8,0:0:0:0:
256,192,74105,1,8,0:0:0:0:
256,192,74298,1,0,0:0:0:0:
256,192,74393,1,8,0:0:0:0:
256,192,74586,1,8,0:0:0:0:
256,192,74682,1,0,0:0:0:0:
256,192,74874,1,8,0:0:0:0:
256,192,75067,1,0,0:0:0:0:
256,192,75163,1,8,0:0:0:0:
256,192,75355,1,8,0:0:0:0:
256,192,75451,1,8,0:0:0:0:
256,192,75644,1,8,0:0:0:0:
256,192,75740,1,8,0:0:0:0:
256,192,75836,1,0,0:0:0:0:
256,192,76124,1,0,0:0:0:0:
256,192,76221,1,8,0:0:0:0:
256,192,76317,1,0,0:0:0:0:
256,192,76413,1,8,0:0:0:0:
256,192,76605,1,0,0:0:0:0:
256,192,76701,1,8,0:0:0:0:
256,192,76893,1,8,0:0:0:0:
256,192,76990,1,0,0:0:0:0:
256,192,77182,1,0,0:0:0:0:
256,192,77374,1,4,0:0:0:0:
256,192,77566,1,0,0:0:0:0:
256,192,77663,1,0,0:0:0:0:
256,192,77759,1,8,0:0:0:0:
256,192,77951,1,8,0:0:0:0:
256,192,78047,1,0,0:0:0:0:
256,192,78143,1,0,0:0:0:0:
256,192,78336,1,8,0:0:0:0:
256,192,78432,1,0,0:0:0:0:
256,192,78528,1,8,0:0:0:0:
256,192,78720,1,0,0:0:0:0:
256,192,78816,1,0,0:0:0:0:
256,192,78913,1,8,0:0:0:0:
256,192,79105,1,8,0:0:0:0:
256,192,79201,1,0,0:0:0:0:
256,192,79297,1,8,0:0:0:0:
256,192,79393,1,8,0:0:0:0:
256,192,79490,1,8,0:0:0:0:
256,192,79682,1,8,0:0:0:0:
256,192,79874,1,0,0:0:0:0:
256,192,80066,1,0,0:0:0:0:
256,192,80163,1,8,0:0:0:0:
256,192,80259,1,8,0:0:0:0:
256,192,80451,1,4,0:0:0:0:
256,192,80643,1,8,0:0:0:0:
256,192,80836,1,8,0:0:0:0:
256,192,81028,1,0,0:0:0:0:
256,192,81124,1,8,0:0:0:0:
256,192,81220,1,8,0:0:0:0:
256,192,81316,1,0,0:0:0:0:
256,192,81413,1,0,0:0:0:0:
256,192,81605,1,0,0:0:0:0:
256,192,81797,1,8,0:0:0:0:
256,192,82182,1,8,0:0:0:0:
256,192,82278,1,0,0:0:0:0:
256,192,82374,1,8,0:0:0:0:
256,192,82566,1,4,0:0:0:0:
256,192,82759,1,0,0:0:0:0:
256,192,82855,1,8,0:0:0:0:
256,192,82951,1,0,0:0:0:0:
256,192,83143,1,8,0:0:0:0:
256,192,83240,1,0,0:0:0:0:
256,192,83336,1,0,0:0:0:0:
256,192,83432,1,0,0:0:0:0:
256,192,83528,1,8,0:0:0:0:
256,192,83720,1,8,0:0:0:0:
256,192,83816,1,0,0:0:0:0:
256,192,84009,1,0,0:0:0:0:
256,192,84105,1,8,0:0:0:0:
256,192,84297,1,0,0:0:0:0:
256,192,84490,1,0,0:0:0:0:
256,192,84586,1,8,0:0:0:0:
256,192,84682,1,0,0:0:0:0:
256,192,84874,1,0,0:0:0:0:
256,192,85066,1,8,0:0:0:0:
256,192,85259,1,0,0:0:0:0:
256,192,85355,1,0,0:0:0:0:
256,192,85451,1,8,0:0:0:0:
256,192,85643,1,8,0:0:0:0:
256,192,85739,1,8,0:0:0:0:
256,192,85836,1,0,0:0:0:0:
256,192,86028,1,0,0:0:0:0:
256,192,86124,1,0,0:0:0:0:
256,192,86220,1,8,0:0:0:0:
256,192,86316,1,0,0:0:0:0:
256,192,86413,1,0,0:0:0:0:
256,192,86605,1,4,0:0:0:0:
256,192,86990,1,0,0:0:0:0:
256,192,87182,1,8,0:0:0:0:
256,192,87374,1,12,0:0:0:0:
256,192,87759,1,4,0:0:0:0:
256,192,88143,1,8,0:0:0:0:
256,192,88336,1,0,0:0:0:0:
256,192,88528,1,8,0:0:0:0:
256,192,88720,1,0,0:0:0:0:
256,192,88913,1,8,0:0:0:0:
256,192,89009,1,8,0:0:0:0:
256,192,89105,1,8,0:0:0:0:
256,192,89201,1,0,0:0:0:0:
256,192,89297,1,0,0:0:0:0:
256,192,89393,1,0,0:0:0:0:
256,192,89490,1,0,0:0:0:0:
256,192,89586,1,8,0:0:0:0:
256,192,89682,1,8,0:0:0:0:
256,192,89874,1,8,0:0:0:0:
256,192,90066,1,8,0:0:0:0:
256,192,90258,1,0,0:0:0:0:
256,192,90451,1,8,0:0:0:0:
256,192,90547,1,0,0:0:0:0:
256,192,90643,1,8,0:0:0:0:
256,192,90835,1,0,0:0:0:0:
256,192,90931,1,0,0:0:0:0:
256,192,91028,1,8,0:0:0:0:
256,192,91220,1,8,0:0:0:0:
256,192,91412,1,8,0:0:0:0:
256,192,91509,1,0,0:0:0:0:
256,192,91605,1,0,0:0:0:0:
256,192,91797,1,0,0:0:0:0:
256,192,91893,1,8,0:0:0:0:
256,192,91989,1,8,0:0:0:0:
256,192,92181,1,8,0:0:0:0:
256,192,92374,1,8,0:0:0:0:
256,192,92566,1,0,0:0:0:0:
256,192,92663,1,0,0:0:0:0:
256,192,92758,1,0,0:0:0:0:
256,192,92951,1,8,0:0:0:0:
256,192,93047,1,0,0:0:0:0:
256,192,93143,1,8,0:0:0:0:
256,192,93335,1,0,0:0:0:0:
256,192,93528,1,8,0:0:0:0:
256,192,93720,1,0,0:0:0:0:
256,192,93912,1,0,0:0:0:0:
256,192,94009,1,0,0:0:0:0:
256,192,94104,1,8,0:0:0:0:
256,192,94297,1,8,0:0:0:0:
256,192,94489,1,8,0:0:0:0:
256,192,94586,1,0,0:0:0:0:
256,192,94681,1,8,0:0:0:0:
256,192,94874,1,8,0:0:0:0:
256,192,95066,1,0,0:0:0:0:
256,192,95258,1,8,0:0:0:0:
256,192,95451,1,0,0:0:0:0:
256,192,95547,1,0,0:0:0:0:
256,192,95643,1,8,0:0:0:0:
256,192,95740,1,8,0:0:0:0:
256,192,95835,1,0,0:0:0:0:
256,192,96028,1,8,0:0:0:0:
256,192,96220,1,8,0:0:0:0:
256,192,96412,1,0,0:0:0:0:
256,192,96604,1,8,0:0:0:0:
256,192,96701,1,0,0:0:0:0:
256,192,96797,1,8,0:0:0:0:
256,192,96893,1,8,0:0:0:0:
256,192,96989,1,0,0:0:0:0:
256,192,97181,1,8,0:0:0:0:
256,192,97374,1,0,0:0:0:0:
256,192,97566,1,8,0:0:0:0:
256,192,97662,1,8,0:0:0:0:
256,192,97758,1,0,0:0:0:0:
256,192,97951,1,8,0:0:0:0:
256,192,98143,1,0,0:0:0:0:
256,192,98336,1,8,0:0:0:0:
256,192,98432,1,0,0:0:0:0:
256,192,98528,1,8,0:0:0:0:
256,192,98624,1,8,0:0:0:0:
256,192,98720,1,0,0:0:0:0:
256,192,98816,1,0,0:0:0:0:
256,192,98912,1,0,0:0:0:0:
256,192,99201,1,0,0:0:0:0:
256,192,99297,1,8,0:0:0:0:
256,192,99489,1,8,0:0:0:0:
256,192,99681,1,0,0:0:0:0:
256,192,99970,1,0,0:0:0:0:
256,192,100066,1,8,0:0:0:0:
256,192,100258,1,0,0:0:0:0:
256,192,100354,1,0,0:0:0:0:
256,192,100451,1,0,0:0:0:0:
256,192,100740,1,8,0:0:0:0:
256,192,101028,1,8,0:0:0:0:
256,192,101220,1,0,0:0:0:0:
256,192,101509,1,0,0:0:0:0:
256,192,101605,1,8,0:0:0:0:
256,192,101797,1,0,0:0:0:0:
256,192,101990,1,4,0:0:0:0:
256,192,102374,1,8,0:0:0:0:
256,192,102759,1,0,0:0:0:0:
256,192,103143,1,8,0:0:0:0:
256,192,103335,1,0,0:0:0:0:
256,192,103431,1,0,0:0:0:0:
256,192,103528,1,0,0:0:0:0:
256,192,103816,1,0,0:0:0:0:
256,192,103912,1,0,0:0:0:0:
256,192,104104,1,8,0:0:0:0:
256,192,104297,1,8,0:0:0:0:
256,192,104393,1,0,0:0:0:0:
256,192,104489,1,0,0:0:0:0:
256,192,104681,1,8,0:0:0:0:
256,192,104778,1,0,0:0:0:0:
256,192,104874,1,0,0:0:0:0:
256,192,104970,1,0,0:0:0:0:
256,192,105066,1,0,0:0:0:0:
256,192,105354,1,0,0:0:0:0:
256,192,105451,1,8,0:0:0:0:
256,192,105643,1,0,0:0:0:0:
256,192,105835,1,8,0:0:0:0:
256,192,106028,1,0,0:0:0:0:
256,192,106124,1,0,0:0:0:0:
256,192,106220,1,8,0:0:0:0:
256,192,106412,1,0,0:0:0:0:
256,192,106604,1,0,0:0:0:0:
256,192,106893,1,8,0:0:0:0:
256,192,106989,1,8,0:0:0:0:
256,192,107181,1,8,0:0:0:0:
256,192,107374,1,0,0:0:0:0:
256,192,107566,1,8,0:0:0:0:
256,192,107758,1,0,0:0:0:0:
256,192,107855,1,8,0:0:0:0:
256,192,107951,1,8,0:0:0:0:
256,192,108143,1,0,0:0:0:0:
256,192,108431,1,0,0:0:0:0:
256,192,108528,1,8,0:0:0:0:
256,192,108720,1,8,0:0:0:0:
256,192,108816,1,0,0:0:0:0:
256,192,108912,1,0,0:0:0:0:
256,192,109104,1,8,0:0:0:0:
256,192,109297,1,0,0:0:0:0:
256,192,109393,1,0,0:0:0:0:
256,192,109490,1,8,0:0:0:0:
256,192,109681,1,8,0:0:0:0:
256,192,109970,1,0,0:0:0:0:
256,192,110066,1,8,0:0:0:0:
256,192,110258,1,8,0:0:0:0:
256,192,110354,1,0,0:0:0:0:
256,192,110451,1,0,0:0:0:0:
256,192,110643,1,8,0:0:0:0:
256,192,110835,1,0,0:0:0:0:
256,192,111028,1,8,0:0:0:0:
256,192,111220,1,0,0:0:0:0:
256,192,111316,1,0,0:0:0:0:
256,192,111413,1,0,0:0:0:0:
256,192,111508,1,0,0:0:0:0:
256,192,111604,1,8,0:0:0:0:
256,192,111989,1,0,0:0:0:0:
256,192,112181,1,0,0:0:0:0:
256,192,112278,1,0,0:0:0:0:
256,192,112374,1,8,0:0:0:0:
256,192,112470,1,8,0:0:0:0:
256,192,112566,1,0,0:0:0:0:
256,192,112758,1,4,0:0:0:0:
256,192,113047,1,0,0:0:0:0:
256,192,113143,1,8,0:0:0:0:
256,192,113336,1,4,0:0:0:0:
256,192,113720,1,8,0:0:0:0:
256,192,113912,1,8,0:0:0:0:
256,192,114104,1,0,0:0:0:0:
256,192,114296,1,0,0:0:0:0:
256,192,114489,1,0,0:0:0:0:
256,192,114585,1,0,0:0:0:0:
256,192,114681,1,8,0:0:0:0:
256,192,114777,1,8,0:0:0:0:
256,192,114873,1,0,0:0:0:0:
256,192,115066,1,8,0:0:0:0:
256,192,115162,1,8,0:0:0:0:
256,192,115258,1,0,0:0:0:0:
256,192,115450,1,8,0:0:0:0:
256,192,115643,1,0,0:0:0:0:
256,192,115836,1,4,0:0:0:0:
256,192,116028,1,8,0:0:0:0:
256,192,116124,1,8,0:0:0:0:
256,192,116220,1,0,0:0:0:0:
256,192,116412,1,4,0:0:0:0:
256,192,116605,1,8,0:0:0:0:
256,192,116796,1,8,0:0:0:0:
256,192,116893,1,0,0:0:0:0:
256,192,116990,1,8,0:0:0:0:
256,192,117181,1,8,0:0:0:0:
256,192,117373,1,4,0:0:0:0:
256,192,117566,1,0,0:0:0:0:
256,192,117662,1,0,0:0:0:0:
256,192,117758,1,8,0:0:0:0:
256,192,117950,1,0,0:0:0:0:
256,192,118046,1,0,0:0:0:0:
256,192,118143,1,8,0:0:0:0:
256,192,118335,1,0,0:0:0:0:
256,192,118432,1,0,0:0:0:0:
256,192,118527,1,8,0:0:0:0:
256,192,118624,1,8,0:0:0:0:
256,192,118720,1,0,0:0:0:0:
256,192,118912,1,8,0:0:0:0:
256,192,119104,1,8,0:0:0:0:
256,192,119200,1,0,0:0:0:0:
256,192,119296,1,8,0:0:0:0:
256,192,119489,1,8,0:0:0:0:
256,192,119585,1,0,0:0:0:0:
256,192,119681,1,8,0:0:0:0:
256,192,119970,1,8,0:0:0:0:
256,192,120066,1,0,0:0:0:0:
256,192,120258,1,0,0:0:0:0:
256,192,120450,1,0,0:0:0:0:
256,192,120643,1,0,0:0:0:0:
256,192,120835,1,12,0:0:0:0:
256,192,121123,1,0,0:0:0:0:
256,192,121220,1,8,0:0:0:0:
256,192,121412,1,0,0:0:0:0:
256,192,121604,1,12,0:0:0:0:
256,192,121893,1,0,0:0:0:0:
256,192,121989,1,8,0:0:0:0:
256,192,122278,1,8,0:0:0:0:
256,192,122566,1,8,0:0:0:0:
256,192,122663,1,8,0:0:0:0:
256,192,122758,1,0,0:0:0:0:
256,192,122950,1,8,0:0:0:0:
256,192,123046,1,0,0:0:0:0:
256,192,123143,1,0,0:0:0:0:
256,192,123335,1,0,0:0:0:0:
256,192,123527,1,4,0:0:0:0:
256,192,123816,1,0,0:0:0:0:
256,192,123912,1,8,0:0:0:0:
256,192,124104,1,8,0:0:0:0:
256,192,124297,1,0,0:0:0:0:
256,192,124490,1,8,0:0:0:0:
256,192,124586,1,8,0:0:0:0:
256,192,124681,1,0,0:0:0:0:
256,192,124873,1,8,0:0:0:0:
256,192,125066,1,4,0:0:0:0:
256,192,125355,1,12,0:0:0:0:
256,192,125643,1,0,0:0:0:0:
256,192,125739,1,0,0:0:0:0:
256,192,125836,1,0,0:0:0:0:
256,192,126124,1,12,0:0:0:0:
256,192,126412,1,0,0:0:0:0:
256,192,126605,1,12,0:0:0:0:
256,192,126797,1,12,0:0:0:0:
256,192,126990,1,0,0:0:0:0:
256,192,127181,1,8,0:0:0:0:
256,192,127374,1,8,0:0:0:0:
256,192,127470,1,8,0:0:0:0:
256,192,127566,1,0,0:0:0:0:
256,192,127662,1,0,0:0:0:0:
256,192,127758,1,8,0:0:0:0:
256,192,127854,1,0,0:0:0:0:
256,192,127950,1,0,0:0:0:0:
256,192,128143,1,4,0:0:0:0:
256,192,128335,1,0,0:0:0:0:
256,192,128431,1,8,0:0:0:0:
256,192,128528,1,8,0:0:0:0:
256,192,128623,1,8,0:0:0:0:
256,192,128720,1,0,0:0:0:0:
256,192,128912,1,0,0:0:0:0:
256,192,129104,1,8,0:0:0:0:
256,192,129296,1,8,0:0:0:0:
256,192,129393,1,0,0:0:0:0:
256,192,129489,1,0,0:0:0:0:
256,192,129585,1,0,0:0:0:0:
256,192,129681,1,8,0:0:0:0:
256,192,129873,1,0,0:0:0:0:
256,192,129970,1,8,0:0:0:0:
256,192,130066,1,8,0:0:0:0:
256,192,130162,1,8,0:0:0:0:
256,192,130258,1,0,0:0:0:0:
256,192,130450,1,0,0:0:0:0:
256,192,130546,1,0,0:0:0:0:
256,192,130643,1,8,0:0:0:0:
256,192,130835,1,8,0:0:0:0:
256,192,131027,1,8,0:0:0:0:
256,192,131220,1,0,0:0:0:0:
256,192,131316,1,8,0:0:0:0:
256,192,131508,1,8,0:0:0:0:
256,192,131604,1,0,0:0:0:0:
256,192,131796,1,8,0:0:0:0:
256,192,131989,1,0,0:0:0:0:
256,192,132085,1,8,0:0:0:0:
256,192,132277,1,8,0:0:0:0:
256,192,132374,1,0,0:0:0:0:
256,192,132566,1,8,0:0:0:0:
256,192,132758,1,0,0:0:0:0:
256,192,133046,1,0,0:0:0:0:
256,192,133143,1,8,0:0:0:0:
256,192,133335,1,0,0:0:0:0:
256,192,133431,1,0,0:0:0:0:
256,192,133527,1,8,0:0:0:0:
256,192,133623,1,0,0:0:0:0:
256,192,133720,1,8,0:0:0:0:
256,192,133912,1,0,0:0:0:0:
256,192,134105,1,8,0:0:0:0:
256,192,134296,1,0,0:0:0:0:
256,192,134489,1,8,0:0:0:0:
256,192,134586,1,0,0:0:0:0:
256,192,134682,1,8,0:0:0:0:
256,192,134777,1,8,0:0:0:0:
256,192,134873,1,0,0:0:0:0:
256,192,134970,1,0,0:0:0:0:
256,192,135066,1,8,0:0:0:0:
256,192,135258,1,0,0:0:0:0:
256,192,135355,1,0,0:0:0:0:
256,192,135451,1,8,0:0:0:0:
256,192,135547,1,0,0:0:0:0:
256,192,135643,1,8,0:0:0:0:
256,192,135835,1,8,0:0:0:0:
256,192,136027,1,0,0:0:0:0:
256,192,136220,1,8,0:0:0:0:
256,192,136316,1,0,0:0:0:0:
256,192,136413,1,8,0:0:0:0:
256,192,136509,1,8,0:0:0:0:
256,192,136605,1,0,0:0:0:0:
256,192,136797,1,8,0:0:0:0:
256,192,136989,1,0,0:0:0:0:
256,192,137085,1,0,0:0:0:0:
256,192,137181,1,8,0:0:0:0:
256,192,137373,1,0,0:0:0:0:
256,192,137566,1,0,0:0:0:0:
256,192,137662,1,8,0:0:0:0:
256,192,137854,1,8,0:0:0:0:
256,192,137950,1,0,0:0:0:0:
256,192,138143,1,0,0:0:0:0:
256,192,138240,1,0,0:0:0:0:
256,192,138336,1,8,0:0:0:0:
256,192,138528,1,8,0:0:0:0:
256,192,138720,1,0,0:0:0:0:
256,192,138816,1,8,0:0:0:0:
256,192,138913,1,0,0:0:0:0:
256,192,139104,1,0,0:0:0:0:
256,192,139201,1,8,0:0:0:0:
256,192,139297,1,8,0:0:0:0:
256,192,139393,1,8,0:0:0:0:
256,192,139490,1,0,0:0:0:0:
256,192,139682,1,0,0:0:0:0:
256,192,139873,1,0,0:0:0:0:
256,192,139970,1,8,0:0:0:0:
256,192,140066,1,8,0:0:0:0:
256,192,140162,1,0,0:0:0:0:
256,192,140258,1,0,0:0:0:0:
256,192,140450,1,0,0:0:0:0:
256,192,140643,1,0,0:0:0:0:
256,192,140739,1,8,0:0:0:0:
256,192,140836,1,8,0:0:0:0:
256,192,140931,1,8,0:0:0:0:
256,192,141027,1,0,0:0:0:0:
256,192,141220,1,0,0:0:0:0:
256,192,141412,1,8,0:0:0:0:
256,192,141604,1,8,0:0:0:0:
256,192,141701,1,0,0:0:0:0:
256,192,141797,1,0,0:0:0:0:
256,192,141893,1,0,0:0:0:0:
256,192,141989,1,8,0:0:0:0:
256,192,142181,1,0,0:0:0:0:
256,192,142278,1,0,0:0:0:0:
256,192,142374,1,8,0:0:0:0:
256,192,142470,1,8,0:0:0:0:
256,192,142566,1,0,0:0:0:0:
256,192,142758,1,0,0:0:0:0:
256,192,142951,1,8,0:0:0:0:
256,192,143047,1,0,0:0:0:0:
256,192,143143,1,8,0:0:0:0:
256,192,143335,1,8,0:0:0:0:
256,192,143528,1,0,0:0:0:0:
256,192,143624,1,8,0:0:0:0:
256,192,143816,1,8,0:0:0:0:
256,192,143912,1,0,0:0:0:0:
256,192,144104,1,8,0:0:0:0:
256,192,144297,1,0,0:0:0:0:
256,192,144393,1,8,0:0:0:0:
256,192,144585,1,8,0:0:0:0:
256,192,144682,1,8,0:0:0:0:
256,192,144874,1,8,0:0:0:0:
256,192,145066,1,0,0:0:0:0:
256,192,145354,1,0,0:0:0:0:
256,192,145451,1,8,0:0:0:0:
256,192,145643,1,8,0:0:0:0:
256,192,145835,1,0,0:0:0:0:
256,192,145931,1,8,0:0:0:0:
256,192,146123,1,8,0:0:0:0:
256,192,146220,1,0,0:0:0:0:
256,192,146412,1,0,0:0:0:0:
256,192,146604,1,4,0:0:0:0:
256,192,146796,1,0,0:0:0:0:
256,192,146893,1,0,0:0:0:0:
256,192,146989,1,8,0:0:0:0:
256,192,147181,1,8,0:0:0:0:
256,192,147277,1,0,0:0:0:0:
256,192,147470,1,0,0:0:0:0:
256,192,147566,1,0,0:0:0:0:
256,192,147662,1,0,0:0:0:0:
256,192,147758,1,8,0:0:0:0:
256,192,147950,1,0,0:0:0:0:
256,192,148143,1,8,0:0:0:0:
256,192,148335,1,0,0:0:0:0:
256,192,148431,1,0,0:0:0:0:
256,192,148527,1,8,0:0:0:0:
256,192,148623,1,8,0:0:0:0:
256,192,148720,1,0,0:0:0:0:
256,192,148912,1,8,0:0:0:0:
256,192,149104,1,8,0:0:0:0:
256,192,149201,1,8,0:0:0:0:
256,192,149297,1,0,0:0:0:0:
256,192,149393,1,8,0:0:0:0:
256,192,149489,1,0,0:0:0:0:
256,192,149681,1,4,0:0:0:0:
256,192,149873,1,8,0:0:0:0:
256,192,150066,1,8,0:0:0:0:
256,192,150258,1,0,0:0:0:0:
256,192,150355,1,0,0:0:0:0:
256,192,150450,1,8,0:0:0:0:
256,192,150643,1,0,0:0:0:0:
256,192,150835,1,0,0:0:0:0:
256,192,151027,1,8,0:0:0:0:
256,192,151412,1,0,0:0:0:0:
256,192,151604,1,8,0:0:0:0:
256,192,151796,1,4,0:0:0:0:
256,192,152085,1,8,0:0:0:0:
256,192,152181,1,0,0:0:0:0:
256,192,152373,1,8,0:0:0:0:
256,192,152470,1,8,0:0:0:0:
256,192,152566,1,0,0:0:0:0:
256,192,152662,1,0,0:0:0:0:
256,192,152758,1,8,0:0:0:0:
256,192,152950,1,8,0:0:0:0:
256,192,153046,1,0,0:0:0:0:
256,192,153239,1,8,0:0:0:0:
256,192,153335,1,8,0:0:0:0:
256,192,153527,1,0,0:0:0:0:
256,192,153720,1,0,0:0:0:0:
256,192,153816,1,8,0:0:0:0:
256,192,153913,1,0,0:0:0:0:
256,192,154104,1,0,0:0:0:0:
256,192,154297,1,8,0:0:0:0:
256,192,154490,1,0,0:0:0:0:
256,192,154586,1,0,0:0:0:0:
256,192,154682,1,8,0:0:0:0:
256,192,154874,1,8,0:0:0:0:
256,192,154970,1,8,0:0:0:0:
256,192,155067,1,0,0:0:0:0:
256,192,155259,1,0,0:0:0:0:
256,192,155355,1,0,0:0:0:0:
256,192,155451,1,8,0:0:0:0:
256,192,155547,1,0,0:0:0:0:
256,192,155644,1,0,0:0:0:0:
256,192,155836,1,4,0:0:0:0:
256,192,156220,1,0,0:0:0:0:
256,192,156412,1,8,0:0:0:0:
256,192,156604,1,12,0:0:0:0:
256,192,156989,1,4,0:0:0:0:
256,192,157566,1,0,0:0:0:0:
256,192,157758,1,8,0:0:0:0:
256,192,157950,1,0,0:0:0:0:
256,192,158143,1,0,0:0:0:0:
256,192,158239,1,0,0:0:0:0:
256,192,158335,1,0,0:0:0:0:
256,192,158431,1,8,0:0:0:0:
256,192,158527,1,8,0:0:0:0:
256,192,158623,1,8,0:0:0:0:
256,192,158720,1,0,0:0:0:0:
256,192,158816,1,0,0:0:0:0:
256,192,158912,1,8,0:0:0:0:
256,192,159105,1,8,0:0:0:0:
256,192,159201,1,0,0:0:0:0:
256,192,159297,1,8,0:0:0:0:
256,192,159490,1,0,0:0:0:0:
256,192,159874,1,0,0:0:0:0:
256,192,160066,1,8,0:0:0:0:
256,192,160259,1,0,0:0:0:0:
256,192,160355,1,0,0:0:0:0:
256,192,160451,1,8,0:0:0:0:
256,192,160643,1,0,0:0:0:0:
256,192,160740,1,8,0:0:0:0:
256,192,160932,1,0,0:0:0:0:
256,192,161028,1,8,0:0:0:0:
256,192,161220,1,0,0:0:0:0:
256,192,161316,1,0,0:0:0:0:
256,192,161413,1,0,0:0:0:0:
256,192,161605,1,8,0:0:0:0:
256,192,161797,1,0,0:0:0:0:
256,192,162182,1,0,0:0:0:0:
256,192,162374,1,8,0:0:0:0:
256,192,162470,1,8,0:0:0:0:
256,192,162566,1,0,0:0:0:0:
256,192,162759,1,8,0:0:0:0:
256,192,162951,1,0,0:0:0:0:
256,192,163047,1,8,0:0:0:0:
256,192,163240,1,0,0:0:0:0:
256,192,163336,1,8,0:0:0:0:
256,192,163432,1,8,0:0:0:0:
256,192,163528,1,0,0:0:0:0:
256,192,163720,1,0,0:0:0:0:
256,192,163816,1,8,0:0:0:0:
256,192,164009,1,8,0:0:0:0:
256,192,164105,1,0,0:0:0:0:
256,192,164297,1,0,0:0:0:0:
256,192,164393,1,0,0:0:0:0:
256,192,164490,1,0,0:0:0:0:
256,192,164682,1,8,0:0:0:0:
256,192,164874,1,0,0:0:0:0:
256,192,165259,1,8,0:0:0:0:
256,192,165451,1,0,0:0:0:0:
256,192,165515,1,8,0:0:0:0:
256,192,165579,1,8,0:0:0:0:
256,192,165643,1,0,0:0:0:0:
256,192,165836,1,0,0:0:0:0:
256,192,166028,1,8,0:0:0:0:
256,192,166220,1,0,0:0:0:0:
256,192,166316,1,0,0:0:0:0:
256,192,166413,1,8,0:0:0:0:
256,192,166605,1,8,0:0:0:0:
256,192,166797,1,8,0:0:0:0:
256,192,166893,1,8,0:0:0:0:
256,192,167086,1,0,0:0:0:0:
256,192,167182,1,8,0:0:0:0:
256,192,167374,1,0,0:0:0:0:
256,192,167470,1,0,0:0:0:0:
256,192,167566,1,0,0:0:0:0:
256,192,167759,1,8,0:0:0:0:
256,192,167951,1,0,0:0:0:0:
256,192,168143,1,8,0:0:0:0:
256,192,168240,1,0,0:0:0:0:
256,192,168336,1,8,0:0:0:0:
256,192,168432,1,0,0:0:0:0:
256,192,168528,1,8,0:0:0:0:
256,192,168624,1,8,0:0:0:0:
256,192,168720,1,0,0:0:0:0:
256,192,168816,1,0,0:0:0:0:
256,192,168913,1,8,0:0:0:0:
256,192,169009,1,0,0:0:0:0:
256,192,169105,1,8,0:0:0:0:
256,192,169201,1,0,0:0:0:0:
256,192,169297,1,8,0:0:0:0:
256,192,169393,1,8,0:0:0:0:
256,192,169490,1,0,0:0:0:0:
256,192,169586,1,0,0:0:0:0:
256,192,169682,1,8,0:0:0:0:
256,192,169778,1,8,0:0:0:0:
256,192,169874,1,8,0:0:0:0:
256,192,169970,1,0,0:0:0:0:
256,192,170066,1,8,0:0:0:0:
256,192,170163,1,8,0:0:0:0:
256,192,170259,1,0,0:0:0:0:
256,192,170355,1,0,0:0:0:0:
256,192,170451,1,8,0:0:0:0:
256,192,170547,1,0,0:0:0:0:
256,192,170643,1,0,0:0:0:0:
256,192,170740,1,8,0:0:0:0:
256,192,171028,1,0,0:0:0:0:
256,192,171220,1,8,0:0:0:0:
256,192,171413,1,0,0:0:0:0:
256,192,171605,1,8,0:0:0:0:
256,192,171797,1,8,0:0:0:0:
256,192,171893,1,0,0:0:0:0:
256,192,171990,1,0,0:0:0:0:
256,192,172182,1,0,0:0:0:0:
256,192,172374,1,8,0:0:0:0:
256,192,172470,1,8,0:0:0:0:
256,192,172566,1,0,0:0:0:0:
256,192,172663,1,8,0:0:0:0:
256,192,172759,1,0,0:0:0:0:
256,192,172951,1,0,0:0:0:0:
256,192,173143,1,8,0:0:0:0:
256,192,173336,1,0,0:0:0:0:
256,192,173432,1,0,0:0:0:0:
256,192,173528,1,8,0:0:0:0:
256,192,173720,1,0,0:0:0:0:
256,192,173913,1,8,0:0:0:0:
256,192,174105,1,0,0:0:0:0:
256,192,174201,1,0,0:0:0:0:
256,192,174297,1,0,0:0:0:0:
256,192,174490,1,0,0:0:0:0:
256,192,174586,1,0,0:0:0:0:
256,192,174682,1,8,0:0:0:0:
256,192,174874,1,0,0:0:0:0:
256,192,175066,1,8,0:0:0:0:
256,192,175163,1,8,0:0:0:0:
256,192,175259,1,0,0:0:0:0:
256,192,175451,1,8,0:0:0:0:
256,192,175643,1,0,0:0:0:0:
256,192,175836,1,8,0:0:0:0:
256,192,176028,1,0,0:0:0:0:
256,192,176124,1,8,0:0:0:0:
256,192,176220,1,8,0:0:0:0:
256,192,176413,1,0,0:0:0:0:
256,192,176605,1,8,0:0:0:0:
256,192,176797,1,0,0:0:0:0:
256,192,176893,1,0,0:0:0:0:
256,192,176990,1,8,0:0:0:0:
256,192,177086,1,8,0:0:0:0:
256,192,177182,1,0,0:0:0:0:
256,192,177374,1,4,0:0:0:0:
256,192,177566,1,0,0:0:0:0:
256,192,177663,1,0,0:0:0:0:
256,192,177759,1,8,0:0:0:0:
256,192,177951,1,0,0:0:0:0:
256,192,178047,1,0,0:0:0:0:
256,192,178143,1,0,0:0:0:0:
256,192,178336,1,0,0:0:0:0:
256,192,178432,1,0,0:0:0:0:
256,192,178528,1,8,0:0:0:0:
256,192,178720,1,0,0:0:0:0:
256,192,178913,1,4,0:0:0:0:
256,192,179105,1,8,0:0:0:0:
256,192,179201,1,0,0:0:0:0:
256,192,179297,1,0,0:0:0:0:
256,192,179490,1,8,0:0:0:0:
256,192,179682,1,0,0:0:0:0:
256,192,179778,1,0,0:0:0:0:
256,192,179874,1,8,0:0:0:0:
256,192,180066,1,0,0:0:0:0:
256,192,180259,1,8,0:0:0:0:
256,192,180451,1,12,0:0:0:0:
256,192,180643,1,0,0:0:0:0:
256,192,180740,1,8,0:0:0:0:
256,192,180836,1,8,0:0:0:0:
256,192,181028,1,0,0:0:0:0:
256,192,181124,1,0,0:0:0:0:
256,192,181220,1,8,0:0:0:0:
256,192,181413,1,0,0:0:0:0:
256,192,181509,1,0,0:0:0:0:
256,192,181605,1,8,0:0:0:0:
256,192,181701,1,0,0:0:0:0:
256,192,181797,1,0,0:0:0:0:
256,192,181990,1,4,0:0:0:0:
256,192,182278,1,0,0:0:0:0:
256,192,182374,1,8,0:0:0:0:
256,192,182566,1,0,0:0:0:0:
256,192,182663,1,8,0:0:0:0:
256,192,182759,1,0,0:0:0:0:
256,192,182855,1,0,0:0:0:0:
256,192,183047,1,0,0:0:0:0:
256,192,183143,1,0,0:0:0:0:
256,192,183336,1,8,0:0:0:0:
256,192,183528,1,0,0:0:0:0:
256,192,183720,1,0,0:0:0:0:
256,192,183816,1,8,0:0:0:0:
256,192,183913,1,0,0:0:0:0:
256,192,184105,1,0,0:0:0:0:
256,192,184201,1,8,0:0:0:0:
256,192,184297,1,0,0:0:0:0:
256,192,184490,1,0,0:0:0:0:
256,192,184586,1,8,0:0:0:0:
256,192,184682,1,8,0:0:0:0:
256,192,184778,1,8,0:0:0:0:
256,192,184874,1,0,0:0:0:0:
256,192,185066,1,4,0:0:0:0:
256,192,185355,1,4,0:0:0:0:
256,192,185643,1,8,0:0:0:0:
256,192,185740,1,8,0:0:0:0:
256,192,185836,1,4,0:0:0:0:
256,192,186124,1,12,0:0:0:0:
256,192,186413,1,4,0:0:0:0:
256,192,186605,1,8,0:0:0:0:
256,192,186797,1,0,0:0:0:0:
256,192,186893,1,0,0:0:0:0:
256,192,186990,1,8,0:0:0:0:
256,192,187086,1,8,0:0:0:0:
256,192,187182,1,0,0:0:0:0:
256,192,187278,1,0,0:0:0:0:
256,192,187374,1,8,0:0:0:0:
256,192,187470,1,8,0:0:0:0:
256,192,187566,1,0,0:0:0:0:
256,192,187663,1,8,0:0:0:0:
256,192,187759,1,8,0:0:0:0:
256,192,187855,1,8,0:0:0:0:
256,192,187951,1,0,0:0:0:0:
256,192,188143,1,12,0:0:0:0:
256,192,188336,1,0,0:0:0:0:
256,192,188528,1,8,0:0:0:0:
256,192,188720,1,0,0:0:0:0:
256,192,189105,1,0,0:0:0:0:
256,192,189297,1,8,0:0:0:0:
256,192,189490,1,0,0:0:0:0:
256,192,189586,1,0,0:0:0:0:
256,192,189682,1,8,0:0:0:0:
256,192,189874,1,0,0:0:0:0:
256,192,190066,1,8,0:0:0:0:
256,192,190259,1,0,0:0:0:0:
256,192,190643,1,0,0:0:0:0:
256,192,190836,1,8,0:0:0:0:
256,192,191028,1,0,0:0:0:0:
256,192,191220,1,8,0:0:0:0:
256,192,191605,1,0,0:0:0:0:
256,192,191990,1,8,0:0:0:0:
256,192,192374,1,8,0:0:0:0:
256,192,192759,1,0,0:0:0:0:
256,192,193336,1,0,0:0:0:0:
256,192,193528,1,8,0:0:0:0:
256,192,193913,1,8,0:0:0:0:
256,192,194105,1,0,0:0:0:0:
256,192,194201,1,0,0:0:0:0:
256,192,194297,1,8,0:0:0:0:
256,192,194490,1,8,0:0:0:0:
256,192,194682,1,0,0:0:0:0:
256,192,194874,1,0,0:0:0:0:
256,192,195066,1,8,0:0:0:0:
256,192,195259,1,8,0:0:0:0:
256,192,195451,1,0,0:0:0:0:
256,192,195643,1,0,0:0:0:0:
256,192,195836,1,8,0:0:0:0:
256,192,196028,1,0,0:0:0:0:
256,192,196124,1,0,0:0:0:0:
256,192,196220,1,8,0:0:0:0:
256,192,196413,1,0,0:0:0:0:
256,192,196509,1,0,0:0:0:0:
256,192,196605,1,8,0:0:0:0:
256,192,196797,1,0,0:0:0:0:
256,192,196893,1,0,0:0:0:0:
256,192,196990,1,8,0:0:0:0:
256,192,197182,1,0,0:0:0:0:
256,192,197374,1,8,0:0:0:0:
256,192,197566,1,8,0:0:0:0:
256,192,197663,1,8,0:0:0:0:
256,192,197759,1,8,0:0:0:0:
256,192,197951,1,8,0:0:0:0:
256,192,198143,1,8,0:0:0:0:
256,192,198336,1,0,0:0:0:0:
256,192,198432,1,8,0:0:0:0:
256,192,198528,1,8,0:0:0:0:
256,192,198720,1,8,0:0:0:0:
256,192,198913,1,0,0:0:0:0:
256,192,199105,1,8,0:0:0:0:
256,192,199297,1,0,0:0:0:0:
256,192,199490,1,8,0:0:0:0:
256,192,199682,1,8,0:0:0:0:
256,192,199970,1,8,0:0:0:0:
256,192,200259,1,8,0:0:0:0:
256,192,200451,1,4,0:0:0:0:
256,192,200836,1,0,0:0:0:0:
256,192,201220,1,0,0:0:0:0:
256,192,201413,1,0,0:0:0:0:
256,192,201509,1,0,0:0:0:0:
256,192,201605,1,0,0:0:0:0:
256,192,201797,1,0,0:0:0:0:
256,192,201990,1,8,0:0:0:0:
256,192,202278,1,0,0:0:0:0:
256,192,202374,1,8,0:0:0:0:
256,192,202566,1,0,0:0:0:0:
256,192,202663,1,0,0:0:0:0:
256,192,202759,1,8,0:0:0:0:
256,192,202951,1,8,0:0:0:0:
256,192,203047,1,0,0:0:0:0:
256,192,203143,1,0,0:0:0:0:
256,192,203336,1,0,0:0:0:0:
256,192,203528,1,8,0:0:0:0:
256,192,203624,1,0,0:0:0:0:
256,192,203720,1,0,0:0:0:0:
256,192,203913,1,8,0:0:0:0:
256,192,204009,1,0,0:0:0:0:
256,192,204105,1,0,0:0:0:0:
256,192,204297,1,0,0:0:0:0:
256,192,204394,1,0,0:0:0:0:
256,192,204490,1,8,0:0:0:0:
256,192,204682,1,8,0:0:0:0:
256,192,204778,1,0,0:0:0:0:
256,192,204874,1,0,0:0:0:0:
256,192,205066,1,8,0:0:0:0:
256,192,205163,1,0,0:0:0:0:
256,192,205259,1,8,0:0:0:0:
256,192,205451,1,8,0:0:0:0:
256,192,205547,1,0,0:0:0:0:
256,192,205643,1,0,0:0:0:0:
256,192,205740,1,0,0:0:0:0:
256,192,205836,1,8,0:0:0:0:
256,192,206028,1,8,0:0:0:0:
256,192,206124,1,0,0:0:0:0:
256,192,206220,1,8,0:0:0:0:
256,192,206413,1,0,0:0:0:0:
256,192,206605,1,8,0:0:0:0:
256,192,206893,1,0,0:0:0:0:
256,192,206990,1,0,0:0:0:0:
256,192,207182,1,8,0:0:0:0:
256,192,207374,1,8,0:0:0:0:
256,192,207470,1,8,0:0:0:0:
256,192,207566,1,0,0:0:0:0:
256,192,207663,1,0,0:0:0:0:
256,192,207759,1,8,0:0:0:0:
256,192,207855,1,8,0:0:0:0:
256,192,207951,1,8,0:0:0:0:
256,192,208143,1,4,0:0:0:0:
256,192,208528,1,12,0:0:0:0:
256,192,208913,1,4,0:0:0:0:
256,192,209105,1,8,0:0:0:0:
256,192,209201,1,0,0:0:0:0:
256,192,209297,1,8,0:0:0:0:
256,192,209393,1,8,0:0:0:0:
256,192,209490,1,0,0:0:0:0:
256,192,209682,1,4,0:0:0:0:
256,192,209874,1,0,0:0:0:0:
256,192,209970,1,8,0:0:0:0:
256,192,210066,1,8,0:0:0:0:
256,192,210162,1,8,0:0:0:0:
256,192,210259,1,0,0:0:0:0:
256,192,210451,1,0,0:0:0:0:
256,192,210643,1,8,0:0:0:0:
256,192,210835,1,8,0:0:0:0:
256,192,210932,1,0,0:0:0:0:
256,192,211028,1,0,0:0:0:0:
256,192,211124,1,0,0:0:0:0:
256,192,211220,1,8,0:0:0:0:
256,192,211412,1,0,0:0:0:0:
256,192,211509,1,8,0:0:0:0:
256,192,211605,1,8,0:0:0:0:
256,192,211701,1,8,0:0:0:0:
256,192,211797,1,0,0:0:0:0:
256,192,211989,1,0,0:0:0:0:
256,192,212085,1,0,0:0:0:0:
256,192,212182,1,8,0:0:0:0:
256,192,212374,1,8,0:0:0:0:
256,192,212566,1,8,0:0:0:0:
256,192,212759,1,0,0:0:0:0:
256,192,212855,1,8,0:0:0:0:
256,192,213047,1,8,0:0:0:0:
256,192,213143,1,0,0:0:0:0:
256,192,213335,1,8,0:0:0:0:
256,192,213528,1,8,0:0:0:0:
256,192,213624,1,8,0:0:0:0:
256,192,213816,1,8,0:0:0:0:
256,192,213912,1,0,0:0:0:0:
256,192,214105,1,8,0:0:0:0:
256,192,214297,1,0,0:0:0:0:
256,192,214585,1,0,0:0:0:0:
256,192,214682,1,8,0:0:0:0:
256,192,214874,1,0,0:0:0:0:
256,192,214970,1,0,0:0:0:0:
256,192,215066,1,8,0:0:0:0:
256,192,215162,1,0,0:0:0:0:
256,192,215259,1,8,0:0:0:0:
256,192,215451,1,0,0:0:0:0:
256,192,215643,1,8,0:0:0:0:
256,192,215835,1,0,0:0:0:0:
256,192,216028,1,8,0:0:0:0:
256,192,216124,1,0,0:0:0:0:
256,192,216220,1,8,0:0:0:0:
256,192,216316,1,8,0:0:0:0:
256,192,216413,1,0,0:0:0:0:
256,192,216509,1,8,0:0:0:0:
256,192,216605,1,8,0:0:0:0:
256,192,216797,1,8,0:0:0:0:
256,192,216990,1,0,0:0:0:0:
256,192,217085,1,0,0:0:0:0:
256,192,217182,1,8,0:0:0:0:
256,192,217374,1,8,0:0:0:0:
256,192,217566,1,0,0:0:0:0:
256,192,217759,1,8,0:0:0:0:
256,192,217855,1,0,0:0:0:0:
256,192,217951,1,0,0:0:0:0:
256,192,218047,1,8,0:0:0:0:
256,192,218143,1,8,0:0:0:0:
256,192,218336,1,0,0:0:0:0:
256,192,218432,1,8,0:0:0:0:
256,192,218528,1,8,0:0:0:0:
256,192,218624,1,0,0:0:0:0:
256,192,218720,1,0,0:0:0:0:
256,192,218912,1,4,0:0:0:0:
256,192,219201,1,8,0:0:0:0:
256,192,219297,1,0,0:0:0:0:
256,192,219490,1,12,0:0:0:0:
256,192,219874,1,8,0:0:0:0:
256,192,220066,1,8,0:0:0:0:
256,192,220259,1,8,0:0:0:0:
256,192,220355,1,8,0:0:0:0:
256,192,220451,1,0,0:0:0:0:
256,192,220644,1,0,0:0:0:0:
256,192,220740,1,0,0:0:0:0:
256,192,220836,1,8,0:0:0:0:
256,192,220932,1,8,0:0:0:0:
256,192,221028,1,0,0:0:0:0:
256,192,221220,1,8,0:0:0:0:
256,192,221413,1,0,0:0:0:0:
256,192,221509,1,8,0:0:0:0:
256,192,221605,1,0,0:0:0:0:
256,192,221701,1,0,0:0:0:0:
256,192,221797,1,8,0:0:0:0:
256,192,221893,1,8,0:0:0:0:
256,192,221989,1,0,0:0:0:0:
256,192,222182,1,0,0:0:0:0:
256,192,222278,1,8,0:0:0:0:
256,192,222374,1,8,0:0:0:0:
256,192,222566,1,8,0:0:0:0:
256,192,222663,1,8,0:0:0:0:
256,192,222759,1,0,0:0:0:0:
256,192,222951,1,0,0:0:0:0:
256,192,223143,1,8,0:0:0:0:
256,192,223240,1,0,0:0:0:0:
256,192,223336,1,0,0:0:0:0:
256,192,223432,1,0,0:0:0:0:
256,192,223528,1,8,0:0:0:0:
256,192,223720,1,0,0:0:0:0:
256,192,223817,1,0,0:0:0:0:
256,192,223913,1,8,0:0:0:0:
256,192,224009,1,8,0:0:0:0:
256,192,224105,1,0,0:0:0:0:
256,192,224297,1,0,0:0:0:0:
256,192,224393,1,0,0:0:0:0:
256,192,224490,1,8,0:0:0:0:
256,192,224682,1,8,0:0:0:0:
256,192,224874,1,8,0:0:0:0:
256,192,225067,1,0,0:0:0:0:
256,192,225163,1,8,0:0:0:0:
256,192,225355,1,8,0:0:0:0:
256,192,225451,1,0,0:0:0:0:
256,192,225643,1,8,0:0:0:0:
256,192,225836,1,0,0:0:0:0:
256,192,225932,1,8,0:0:0:0:
256,192,226124,1,8,0:0:0:0:
256,192,226220,1,0,0:0:0:0:
256,192,226413,1,8,0:0:0:0:
256,192,226605,1,0,0:0:0:0:
256,192,226797,1,0,0:0:0:0:
256,192,226893,1,0,0:0:0:0:
256,192,226990,1,8,0:0:0:0:
256,192,227182,1,8,0:0:0:0:
256,192,227374,1,0,0:0:0:0:
256,192,227470,1,8,0:0:0:0:
256,192,227663,1,8,0:0:0:0:
256,192,227759,1,0,0:0:0:0:
256,192,227855,1,8,0:0:0:0:
256,192,227951,1,8,0:0:0:0:
256,192,228143,1,4,0:0:0:0:
256,192,228335,1,0,0:0:0:0:
256,192,228432,1,0,0:0:0:0:
256,192,228528,1,8,0:0:0:0:
256,192,228720,1,8,0:0:0:0:
256,192,228816,1,0,0:0:0:0:
256,192,229009,1,0,0:0:0:0:
256,192,229105,1,8,0:0:0:0:
256,192,229201,1,0,0:0:0:0:
256,192,229297,1,8,0:0:0:0:
256,192,229489,1,0,0:0:0:0:
256,192,229682,1,8,0:0:0:0:
256,192,229874,1,0,0:0:0:0:
256,192,229970,1,0,0:0:0:0:
256,192,230066,1,8,0:0:0:0:
256,192,230162,1,8,0:0:0:0:
256,192,230259,1,0,0:0:0:0:
256,192,230451,1,0,0:0:0:0:
256,192,230643,1,0,0:0:0:0:
256,192,230740,1,8,0:0:0:0:
256,192,230835,1,8,0:0:0:0:
256,192,230932,1,8,0:0:0:0:
256,192,231028,1,0,0:0:0:0:
256,192,231220,1,4,0:0:0:0:
256,192,231413,1,8,0:0:0:0:
256,192,231605,1,8,0:0:0:0:
256,192,231797,1,0,0:0:0:0:
256,192,231893,1,0,0:0:0:0:
256,192,231989,1,8,0:0:0:0:
256,192,232182,1,8,0:0:0:0:
256,192,232566,1,8,0:0:0:0:
256,192,232951,1,0,0:0:0:0:
256,192,233143,1,8,0:0:0:0:
256,192,233335,1,8,0:0:0:0:
256,192,233528,1,0,0:0:0:0:
256,192,233624,1,8,0:0:0:0:
256,192,233720,1,0,0:0:0:0:
256,192,233912,1,8,0:0:0:0:
256,192,234009,1,8,0:0:0:0:
256,192,234105,1,0,0:0:0:0:
256,192,234201,1,0,0:0:0:0:
256,192,234297,1,8,0:0:0:0:
256,192,234489,1,8,0:0:0:0:
256,192,234585,1,0,0:0:0:0:
256,192,234778,1,0,0:0:0:0:
256,192,234874,1,8,0:0:0:0:
256,192,235066,1,0,0:0:0:0:
256,192,235259,1,0,0:0:0:0:
256,192,235355,1,8,0:0:0:0:
256,192,235451,1,0,0:0:0:0:
256,192,235643,1,0,0:0:0:0:
256,192,235835,1,8,0:0:0:0:
256,192,235932,1,0,0:0:0:0:
256,192,236028,1,8,0:0:0:0:
256,192,236124,1,8,0:0:0:0:
256,192,236220,1,0,0:0:0:0:
256,192,236316,1,0,0:0:0:0:
256,192,236412,1,8,0:0:0:0:
256,192,236509,1,8,0:0:0:0:
256,192,236605,1,8,0:0:0:0:
256,192,236701,1,0,0:0:0:0:
256,192,236797,1,8,0:0:0:0:
256,192,236893,1,8,0:0:0:0:
256,192,236989,1,0,0:0:0:0:
256,192,237086,1,8,0:0:0:0:
256,192,237182,1,0,0:0:0:0:
256,192,237374,1,4,0:0:0:0:
256,192,237759,1,0,0:0:0:0:
256,192,237951,1,8,0:0:0:0:
256,192,238143,1,12,0:0:0:0:
256,192,238528,1,4,0:0:0:0:
256,192,238720,1,8,0:0:0:0:
256,192,238913,1,8,0:0:0:0:
256,192,239297,1,8,0:0:0:0:
256,192,239489,1,0,0:0:0:0:
256,192,239682,1,8,0:0:0:0:
256,192,239778,1,8,0:0:0:0:
256,192,239874,1,0,0:0:0:0:
256,192,239970,1,0,0:0:0:0:
256,192,240066,1,0,0:0:0:0:
256,192,240162,1,0,0:0:0:0:
256,192,240259,1,0,0:0:0:0:
256,192,240355,1,8,0:0:0:0:
256,192,240451,1,8,0:0:0:0:
256,192,240643,1,8,0:0:0:0:
256,192,240835,1,8,0:0:0:0:
256,192,241027,1,0,0:0:0:0:
256,192,241220,1,8,0:0:0:0:
256,192,241316,1,0,0:0:0:0:
256,192,241412,1,8,0:0:0:0:
256,192,241604,1,0,0:0:0:0:
256,192,241700,1,0,0:0:0:0:
256,192,241797,1,8,0:0:0:0:
256,192,241989,1,8,0:0:0:0:
256,192,242181,1,8,0:0:0:0:
256,192,242278,1,0,0:0:0:0:
256,192,242374,1,0,0:0:0:0:
256,192,242566,1,0,0:0:0:0:
256,192,242662,1,8,0:0:0:0:
256,192,242758,1,8,0:0:0:0:
256,192,242950,1,8,0:0:0:0:
256,192,243143,1,8,0:0:0:0:
256,192,243335,1,0,0:0:0:0:
256,192,243432,1,0,0:0:0:0:
256,192,243527,1,0,0:0:0:0:
256,192,243720,1,8,0:0:0:0:
256,192,243816,1,0,0:0:0:0:
256,192,243912,1,8,0:0:0:0:
256,192,244104,1,0,0:0:0:0:
256,192,244297,1,8,0:0:0:0:
256,192,244489,1,0,0:0:0:0:
256,192,244681,1,0,0:0:0:0:
256,192,244778,1,0,0:0:0:0:
256,192,244873,1,8,0:0:0:0:
256,192,245066,1,8,0:0:0:0:
256,192,245258,1,8,0:0:0:0:
256,192,245355,1,0,0:0:0:0:
256,192,245450,1,8,0:0:0:0:
256,192,245643,1,8,0:0:0:0:
256,192,245835,1,0,0:0:0:0:
256,192,246027,1,8,0:0:0:0:
256,192,246220,1,0,0:0:0:0:
256,192,246316,1,0,0:0:0:0:
256,192,246412,1,8,0:0:0:0:
256,192,246509,1,8,0:0:0:0:
256,192,246604,1,0,0:0:0:0:
256,192,246797,1,8,0:0:0:0:
256,192,246989,1,8,0:0:0:0:
256,192,247181,1,0,0:0:0:0:
256,192,247373,1,8,0:0:0:0:
256,192,247470,1,0,0:0:0:0:
256,192,247566,1,8,0:0:0:0:
256,192,247662,1,8,0:0:0:0:
256,192,247758,1,0,0:0:0:0:
256,192,247950,1,8,0:0:0:0:
256,192,248143,1,0,0:0:0:0:
256,192,248335,1,8,0:0:0:0:
256,192,248431,1,8,0:0:0:0:
256,192,248527,1,0,0:0:0:0:
256,192,248720,1,8,0:0:0:0:
256,192,248912,1,0,0:0:0:0:
256,192,249105,1,8,0:0:0:0:
256,192,249201,1,0,0:0:0:0:
256,192,249297,1,8,0:0:0:0:
256,192,249393,1,8,0:0:0:0:
256,192,249489,1,0,0:0:0:0:
256,192,249585,1,0,0:0:0:0:
256,192,249682,1,0,0:0:0:0:
256,192,249971,1,0,0:0:0:0:
256,192,250067,1,8,0:0:0:0:
256,192,250259,1,8,0:0:0:0:
256,192,250451,1,0,0:0:0:0:
256,192,250740,1,0,0:0:0:0:
256,192,250836,1,8,0:0:0:0:
256,192,251028,1,0,0:0:0:0:
256,192,251220,5,4,0:0:0:0:
256,192,251509,1,8,0:0:0:0:
256,192,251797,1,8,0:0:0:0:
256,192,251989,1,4,0:0:0:0:
256,192,252278,1,8,0:0:0:0:
256,192,252566,1,0,0:0:0:0:
256,192,253143,1,4,0:0:0:0:
256,192,253336,12,0,253913,0:0:0:0:
256,192,254105,5,0,0:0:0:0:
256,192,254201,1,8,0:0:0:0:
256,192,254297,5,4,0:0:0:0:
