osu file format v14

[General]
AudioFilename: Chloe-II -Perplexity-.mp3
AudioLeadIn: 0
PreviewTime: 550
Countdown: 0
SampleSet: Soft
StackLeniency: 0.4
Mode: 0
LetterboxInBreaks: 0
WidescreenStoryboard: 1

[Editor]
DistanceSpacing: 1.2
BeatDivisor: 4
GridSize: 4
TimelineZoom: 1

[Metadata]
Title:Chloe-II -Perplexity-
TitleUnicode:Chloe-II -Perplexity-
Artist:Takeshi Abo
ArtistUnicode:阿保 剛
Creator:Imouto OuO
Version:Oiso's Normal
Source:メモリーズオフ6 ~T-wave~
Tags:嘉神川 クロエ Kagamigawa Kuroe 後藤 邑子 Gotou Yuuko Memories Off 6 Oiso 5pb original soundtrack ost visual novel galgame avg
BeatmapID:1308974
BeatmapSetID:620634

[Difficulty]
HPDrainRate:3
CircleSize:3
OverallDifficulty:3
ApproachRate:4
SliderMultiplier:1.4
SliderTickRate:1

[Events]
//Background and Video events
0,0,"BG.jpg",0,0
//Break Periods
//Storyboard Layer 0 (Background)
//Storyboard Layer 1 (Fail)
//Storyboard Layer 2 (Pass)
//Storyboard Layer 3 (Foreground)
//Storyboard Sound Samples

[TimingPoints]
550,722.89156626506,4,2,1,50,1,0
550,-100,4,2,1,50,0,0
17899,731.707317073171,4,2,1,50,1,0
18630,740.740740740741,4,2,1,40,1,0
18630,-111.111111111111,4,2,1,40,0,0
19370,750,4,2,1,30,1,0
19370,-125,4,2,1,30,0,0
20120,789.473684210526,4,2,1,20,1,0
20120,-166.666666666667,4,2,1,20,0,0
20909,779.220779220779,4,2,1,30,1,0
21688,722.89156626506,4,2,1,50,1,0
22410,-100,4,2,1,40,0,0
23133,-100,4,2,1,30,0,0
23856,731.707317073171,4,2,1,50,1,0
24587,722.89156626506,4,2,1,50,1,0
25309,-100,4,2,1,60,0,0
26755,722.89156626506,4,2,1,60,1,0
29466,-100,4,2,1,60,0,0
29647,-100,4,2,1,60,0,0
31454,-100,4,2,1,30,0,0
32177,-100,4,2,1,60,0,0
35972,-100,4,2,1,5,0,0
36153,-100,4,2,1,60,0,0
41213,-100,4,2,1,50,0,0
41574,-100,4,2,1,5,0,0
41755,-100,4,2,1,5,0,0
41936,-100,4,2,1,60,0,0
42297,-100,4,2,1,5,0,0
42659,-100,4,2,1,40,0,0
43201,-100,4,2,1,40,0,0
43382,750,4,2,1,50,1,0
43382,-100,4,2,1,50,0,0
43757,740.740740740741,4,2,1,5,1,0
43757,-100,4,2,1,5,0,0
44127,714.285714285714,4,2,1,40,1,0
44841,750,4,2,1,40,1,0
45216,789.473684210526,4,2,1,50,1,0
45610,779.220779220779,4,2,1,50,1,0
46389,821.917808219178,4,2,1,60,1,0
47210,800,4,2,1,50,1,0
48010,722.89156626506,4,2,1,60,1,0
48010,-100,4,2,1,60,0,0
50178,722.89156626506,4,2,1,60,1,0
57135,-100,4,2,1,50,0,0
57406,-100,4,2,1,60,0,0
58852,-83.3333333333333,4,2,1,80,0,1
70057,-83.3333333333333,4,2,1,70,0,1
70418,-100,4,2,1,80,0,0
70780,-100,4,2,1,70,0,0
71141,-100,4,2,1,60,0,0
80900,-100,4,2,1,70,0,0
81262,-100,4,2,1,80,0,0
81623,-100,4,2,1,90,0,0
81985,-83.3333333333333,4,2,1,80,0,1
82708,-83.3333333333333,4,2,1,50,0,1
83431,-83.3333333333333,4,2,1,80,0,1
88491,-83.3333333333333,4,2,1,50,0,1
89214,-83.3333333333333,4,2,1,80,0,1
90659,750,4,2,1,70,1,1
91409,800,4,2,1,70,1,1
92209,800,4,2,1,80,1,1
92209,-111.111111111111,4,2,1,80,0,1
93009,779.220779220779,4,2,1,70,1,1
93009,-125,4,2,1,70,0,1
93788,779.220779220779,4,2,1,60,1,0
93788,-111.111111111111,4,2,1,60,0,0
94567,722.89156626506,4,2,1,50,1,0
96735,722.89156626506,4,2,1,50,1,0
111192,759.493670886076,4,2,1,50,1,0
111951,779.220779220779,4,2,1,40,1,0
111951,-111.111111111111,4,2,1,40,0,0
112730,833.333333333333,4,2,1,30,1,0
112730,-133.333333333333,4,2,1,30,0,0
113563,895.522388059701,4,2,1,20,1,0
113563,-200,4,2,1,20,0,0
114458,-200,4,2,1,40,0,0
114682,-100,4,2,1,5,0,0

[Colours]
Combo1 : 206,157,255
Combo2 : 198,209,255
Combo3 : 47,219,255
Combo4 : 49,155,255

[HitObjects]
256,192,550,6,0,L|256:262,1,70,10|0,0:0|0:0,0:0:0:0:
298,337,1272,1,2,0:0:0:0:
366,288,1634,1,0,0:0:0:0:
380,204,1995,2,0,P|369:160|353:136,1,70,2|0,0:0|0:0,0:0:0:0:
288,92,2718,2,0,P|244:79|215:81,1,70,2|0,0:0|0:0,0:0:0:0:
148,124,3441,6,0,L|45:101,2,105,2|2|8,0:0|0:0|0:0,0:0:0:0:
308,320,5610,1,2,0:0:0:0:
146,288,6333,6,0,P|88:300|48:328,2,105,2|2|0,0:0|0:0|0:0,0:0:0:0:
214,337,7778,1,10,0:0:0:0:
76,124,8863,1,0,0:0:0:0:
132,60,9224,6,0,P|172:44|204:40,1,70,2|0,0:0|0:0,0:0:0:0:
280,52,9947,2,0,P|319:68|345:88,1,70,0|0,0:0|0:0,0:0:0:0:
424,84,10670,2,0,P|412:124|412:160,1,70,2|0,0:0|0:0,0:0:0:0:
432,232,11393,2,0,P|451:268|477:294,1,70,2|0,0:0|0:0,0:0:0:0:
408,348,12116,6,0,P|348:348|272:304,1,140,10|10,0:0|0:0,0:0:0:0:
212,156,13562,2,0,L|204:228,1,70,2|0,0:0|0:0,0:0:0:0:
192,308,14284,1,2,0:0:0:0:
120,268,14646,1,0,0:0:0:0:
48,224,15007,6,0,B|32:256|32:256|32:326,2,105,2|2|0,0:0|0:0|0:0,0:0:0:0:
120,184,16453,2,0,L|120:112,1,70,10|0,0:0|0:0,0:0:0:0:
176,52,17176,2,0,L|248:52,1,70,2|0,0:0|0:0,0:0:0:0:
316,96,17899,6,0,L|356:96,2,35,10|0|0,0:0|0:0|0:0,0:0:0:0:
312,100,20909,2,0,P|360:88|448:112,1,140,2|8,0:0|0:0,0:0:0:0:
476,276,22410,2,0,P|432:300|341:299,1,140,2|8,0:0|0:0,0:0:0:0:
206,208,23856,5,12,0:0:0:0:
100,192,24587,2,0,L|84:124,1,70,2|0,0:0|0:0,0:0:0:0:
168,108,25309,2,0,L|234:128,1,70,2|0,0:0|0:0,0:0:0:0:
206,208,26032,2,0,L|155:255,1,70,2|0,0:0|0:0,0:0:0:0:
100,192,26755,6,0,B|84:124|84:124|92:88,2,105,2|2|0,0:0|0:0|0:0,0:0:0:0:
80,272,28201,1,10,0:0:0:0:
221,361,28924,2,0,L|293:361,1,70,2|0,0:0|0:0,0:0:0:0:
360,312,29647,6,0,P|420:312|464:328,2,105,6|2|0,0:0|0:0|0:0,0:0:0:0:
283,272,31092,2,0,P|254:223|279:140,1,140,10|0,0:0|0:0,0:0:0:0:
340,204,32176,1,0,0:0:0:0:
420,176,32538,6,0,P|440:140|396:60,1,140,2|0,0:0|0:0,0:0:0:0:
232,24,33984,2,0,P|156:40|104:80,1,140,2|2,0:0|0:0,0:0:0:0:
136,244,35430,6,0,B|168:256|168:256|232:228|232:228|268:240,1,140,6|2,0:0|0:0,0:0:0:0:
400,340,36876,2,0,L|472:332,1,70,2|0,0:0|0:0,0:0:0:0:
436,256,37599,2,0,L|465:189,1,70,2|0,0:0|0:0,0:0:0:0:
381,182,38321,6,0,P|304:160|280:164,2,105,2|2|0,0:0|0:0|0:0,0:0:0:0:
463,191,39767,1,2,0:0:0:0:
468,108,40128,2,0,P|454:76|429:51,2,70,0|2|0,0:0|0:0|0:0,0:0:0:0:
463,191,41213,5,6,0:0:0:0:
307,131,41936,1,10,0:0:0:0:
148,188,42659,1,6,0:0:0:0:
96,340,43382,1,10,0:0:0:0:
256,296,44127,6,0,P|304:296|332:304,1,70,12|0,0:0|0:0,0:0:0:0:
216,216,45216,1,0,0:0:0:0:
144,260,45610,2,0,P|112:260|72:244,1,70,2|0,0:0|0:0,0:0:0:0:
44,172,46389,2,0,P|40:140|40:100,1,70,2|0,0:0|0:0,0:0:0:0:
76,24,47210,6,0,L|148:28,1,70,2|0,0:0|0:0,0:0:0:0:
188,112,48010,2,0,P|268:120|324:100,1,140,8|0,0:0|0:0,0:0:0:0:
386,45,49094,1,0,0:0:0:0:
468,58,49455,2,0,P|480:98|480:130,1,70,2|0,0:0|0:0,0:0:0:0:
448,204,50178,6,0,L|308:192,1,140,6|0,0:0|0:0,0:0:0:0:
256,256,51262,2,0,L|216:252,2,35,0|0|4,0:0|0:0|0:0,0:0:0:0:
276,340,51985,2,0,L|136:348,1,140,0|0,0:0|0:0,0:0:0:0:
52,332,53069,5,2,0:0:0:0:
68,248,53431,2,0,L|60:108,1,140,8|0,0:0|0:0,0:0:0:0:
16,36,54515,2,0,B|56:24|56:24|160:36,1,140,2|2,0:0|0:0,0:0:0:0:
212,192,55961,6,0,B|252:204|252:204|356:192,1,140,14|0,0:0|0:0,0:0:0:0:
364,112,57045,2,0,L|320:116,2,35,8|0|2,0:0|0:0|0:0,0:0:0:0:
440,144,57768,2,0,L|444:72,2,70,0|2|0,0:0|0:0|0:0,0:0:0:0:
456,244,58852,5,6,0:0:0:0:
508,332,59214,2,0,B|412:376|380:284|264:312,1,251.999992309571,0|0,0:0|0:0,0:0:0:0:
176,364,60659,1,0,0:0:0:0:
76,352,61021,1,2,0:0:0:0:
32,260,61382,1,0,0:0:0:0:
108,192,61744,6,0,P|190:187|264:228,1,167.999994873047,6|0,0:0|0:0,0:0:0:0:
364,216,62828,1,0,0:0:0:0:
352,116,63190,1,6,0:0:0:0:
260,68,63551,2,0,P|342:73|416:32,1,167.999994873047,10|0,0:0|0:0,0:0:0:0:
480,108,64635,6,0,L|472:192,1,83.9999974365235,6|0,0:0|0:0,0:0:0:0:
380,152,65358,2,0,L|372:236,1,83.9999974365235,2|0,0:0|0:0,0:0:0:0:
288,292,66081,2,0,P|368:276|424:336,1,167.999994873047,2|2,0:0|0:0,0:0:0:0:
224,360,67527,6,0,L|56:344,1,167.999994873047,6|0,0:0|0:0,0:0:0:0:
120,264,68611,1,0,0:0:0:0:
44,196,68973,2,0,P|84:168|124:164,1,83.9999974365235,2|0,0:0|0:0,0:0:0:0:
212,200,69696,1,2,0:0:0:0:
256,112,70057,1,0,0:0:0:0:
344,108,70418,6,0,P|348:85|348:69,2,35,2|0|0,0:0|0:0|0:0,0:0:0:0:
360,188,71141,2,0,P|356:224|360:260,2,70,10|0|0,0:0|0:0|0:0,0:0:0:0:
428,140,72226,1,0,0:0:0:0:
496,188,72587,2,0,P|500:224|496:260,1,70,2|0,0:0|0:0,0:0:0:0:
452,328,73310,6,0,B|408:351|380:308|316:332,1,140,6|0,0:0|0:0,0:0:0:0:
256,272,74394,1,8,0:0:0:0:
196,332,74756,2,0,B|132:308|104:351|60:328,1,140,4|0,0:0|0:0,0:0:0:0:
28,248,75840,1,0,0:0:0:0:
91,192,76202,6,0,P|126:188|161:191,1,70,2|0,0:0|0:0,0:0:0:0:
196,116,76924,2,0,P|224:138|246:165,1,70,2|0,0:0|0:0,0:0:0:0:
320,124,77647,2,0,P|392:136|440:184,1,140,6|2,0:0|0:0,0:0:0:0:
480,348,79093,6,0,P|478:302|466:278,1,70,14|0,0:0|0:0,0:0:0:0:
396,328,79816,2,0,P|336:288|320:216,1,140,0|2,0:0|0:0,0:0:0:0:
340,144,80900,1,0,0:0:0:0:
424,132,81262,2,0,P|444:96|448:68,1,70,2|0,0:0|0:0,0:0:0:0:
348,48,81985,6,0,B|304:44|304:44|224:72|224:72|184:68,1,167.999994873047,14|0,0:0|0:0,0:0:0:0:
268,252,83431,1,0,0:0:0:0:
336,184,83792,2,0,P|312:144|280:124,1,83.9999974365235,0|2,0:0|0:0,0:0:0:0:
182,139,84515,1,0,0:0:0:0:
88,172,84876,6,0,P|44:108|108:72,1,167.999994873047,6|0,0:0|0:0,0:0:0:0:
182,139,85961,2,0,L|188:184,2,41.9999987182618,8|0|6,0:0|0:0|0:0,0:0:0:0:
268,84,86684,2,0,L|352:80,1,83.9999974365235,0|0,0:0|0:0,0:0:0:0:
440,124,87406,1,0,0:0:0:0:
412,220,87768,6,0,P|312:296|204:152,1,335.999989746094,14|0,0:0|0:0,0:0:0:0:
300,144,89575,1,0,0:0:0:0:
376,76,89937,2,0,P|340:48|296:40,1,83.9999974365235,2|0,0:0|0:0,0:0:0:0:
204,64,90659,6,0,P|164:76|72:52,1,140,6|0,0:0|0:0,0:0:0:0:
28,136,91809,1,0,0:0:0:0:
92,192,92209,2,0,L|88:256,1,62.9999980773926,10|0,0:0|0:0,0:0:0:0:
16,304,93009,2,0,L|52:352,1,56,10|0,0:0|0:0,0:0:0:0:
136,340,93788,6,0,L|198:333,1,62.9999980773926,10|0,0:0|0:0,0:0:0:0:
240,256,94567,1,2,0:0:0:0:
285,326,94928,1,0,0:0:0:0:
366,346,95289,2,0,P|408:328|424:308,1,70,2|0,0:0|0:0,0:0:0:0:
444,228,96012,2,0,P|429:184|411:166,1,70,2|0,0:0|0:0,0:0:0:0:
340,128,96735,6,0,L|236:105,2,105,2|2|8,0:0|0:0|0:0,0:0:0:0:
104,212,98903,1,0,0:0:0:0:
204,348,99626,6,0,P|268:360|316:344,2,105,2|2|0,0:0|0:0|0:0,0:0:0:0:
120,360,101072,1,10,0:0:0:0:
64,116,102156,1,0,0:0:0:0:
120,52,102518,6,0,P|160:36|192:32,1,70,2|0,0:0|0:0,0:0:0:0:
268,44,103241,2,0,P|307:60|333:80,1,70,0|0,0:0|0:0,0:0:0:0:
412,76,103963,2,0,P|400:116|400:152,1,70,2|0,0:0|0:0,0:0:0:0:
420,224,104686,2,0,P|439:260|465:286,1,70,2|0,0:0|0:0,0:0:0:0:
408,348,105409,6,0,P|348:348|272:304,1,140,10|10,0:0|0:0,0:0:0:0:
184,168,106855,2,0,L|176:240,1,70,2|0,0:0|0:0,0:0:0:0:
164,320,107577,1,2,0:0:0:0:
92,280,107939,1,0,0:0:0:0:
20,236,108301,6,0,B|4:268|4:268|4:338,2,105,2|2|0,0:0|0:0|0:0,0:0:0:0:
72,168,109747,2,0,L|72:96,1,70,10|0,0:0|0:0,0:0:0:0:
140,48,110469,2,0,L|212:48,1,70,2|0,0:0|0:0,0:0:0:0:
280,84,111192,6,0,L|320:84,2,35,10|0|0,0:0|0:0|0:0,0:0:0:0:
256,192,111951,12,2,114458,0:0:0:0:
