osu file format v14

[General]
AudioFilename: Chloe-II -Perplexity-.mp3
AudioLeadIn: 0
PreviewTime: 550
Countdown: 0
SampleSet: Soft
StackLeniency: 0.4
Mode: 0
LetterboxInBreaks: 0
WidescreenStoryboard: 0

[Editor]
DistanceSpacing: 1.3
BeatDivisor: 4
GridSize: 4
TimelineZoom: 1.1

[Metadata]
Title:Chloe-II -Perplexity-
TitleUnicode:Chloe-II -Perplexity-
Artist:Takeshi Abo
ArtistUnicode:阿保 剛
Creator:Imouto OuO
Version:Orgel
Source:メモリーズオフ6 ~T-wave~
Tags:嘉神川 クロエ Kagamigawa Kuroe 後藤 邑子 Gotou Yuuko Memories Off 6 Oiso 5pb original soundtrack ost visual novel galgame avg
BeatmapID:1308338
BeatmapSetID:620634

[Difficulty]
HPDrainRate:5
CircleSize:4.5
OverallDifficulty:5.5
ApproachRate:7
SliderMultiplier:1.4
SliderTickRate:1

[Events]
//Background and Video events
0,0,"BG.jpg",0,0
//Break Periods
//Storyboard Layer 0 (Background)
//Storyboard Layer 1 (Fail)
//Storyboard Layer 2 (Pass)
//Storyboard Layer 3 (Foreground)
//Storyboard Sound Samples

[TimingPoints]
550,722.89156626506,4,2,1,50,1,0
550,-100,4,2,1,50,0,0
17899,731.707317073171,4,2,1,50,1,0
18630,740.740740740741,4,2,1,40,1,0
18630,-111.111111111111,4,2,1,40,0,0
19370,750,4,2,1,30,1,0
19370,-125,4,2,1,30,0,0
20120,789.473684210526,4,2,1,20,1,0
20120,-166.666666666667,4,2,1,20,0,0
20909,779.220779220779,4,2,1,30,1,0
21688,722.89156626506,4,2,1,50,1,0
22410,-100,4,2,1,40,0,0
23133,-100,4,2,1,30,0,0
23856,731.707317073171,4,2,1,50,1,0
24587,722.89156626506,4,2,1,50,1,0
25309,-100,4,2,1,60,0,0
26755,722.89156626506,4,2,1,60,1,0
31454,-100,4,2,1,30,0,0
32177,-100,4,2,1,60,0,0
35972,-100,4,2,1,5,0,0
36153,-100,4,2,1,60,0,0
41213,-100,4,2,1,50,0,0
41574,-100,4,2,1,5,0,0
41936,-100,4,2,1,60,0,0
42297,-100,4,2,1,5,0,0
42659,-100,4,2,1,40,0,0
43382,750,4,2,1,50,1,0
43382,-100,4,2,1,50,0,0
43757,740.740740740741,4,2,1,5,1,0
43757,-100,4,2,1,5,0,0
44127,714.285714285714,4,2,1,40,1,0
44841,750,4,2,1,40,1,0
45216,789.473684210526,4,2,1,50,1,0
45610,779.220779220779,4,2,1,50,1,0
46389,821.917808219178,4,2,1,60,1,0
47210,800,4,2,1,50,1,0
48010,722.89156626506,4,2,1,60,1,0
50178,722.89156626506,4,2,1,60,1,0
57135,-100,4,2,1,50,0,0
57406,-100,4,2,1,60,0,0
58852,-83.3333333333333,4,2,1,80,0,1
70057,-83.3333333333333,4,2,1,70,0,1
70418,-100,4,2,1,80,0,0
70780,-100,4,2,1,70,0,0
71141,-100,4,2,1,60,0,0
80900,-100,4,2,1,70,0,0
81262,-100,4,2,1,80,0,0
81623,-100,4,2,1,90,0,0
81985,-83.3333333333333,4,2,1,80,0,1
82708,-83.3333333333333,4,2,1,50,0,1
83431,-83.3333333333333,4,2,1,80,0,1
88491,-83.3333333333333,4,2,1,50,0,1
89214,-83.3333333333333,4,2,1,80,0,1
90659,750,4,2,1,70,1,1
91409,800,4,2,1,70,1,1
92209,800,4,2,1,80,1,1
92209,-111.111111111111,4,2,1,80,0,1
93009,779.220779220779,4,2,1,70,1,1
93009,-125,4,2,1,70,0,1
93788,779.220779220779,4,2,1,60,1,0
93788,-111.111111111111,4,2,1,60,0,0
94567,722.89156626506,4,2,1,50,1,0
96735,722.89156626506,4,2,1,50,1,0
111192,759.493670886076,4,2,1,50,1,0
111951,779.220779220779,4,2,1,40,1,0
111951,-111.111111111111,4,2,1,40,0,0
112730,833.333333333333,4,2,1,30,1,0
112730,-133.333333333333,4,2,1,30,0,0
113563,895.522388059701,4,2,1,20,1,0
113563,-200,4,2,1,20,0,0
114458,-200,4,2,1,40,0,0
114682,-100,4,2,1,5,0,0

[Colours]
Combo1 : 206,157,255
Combo2 : 198,209,255
Combo3 : 47,219,255
Combo4 : 49,155,255

[HitObjects]
113,337,550,6,0,P|96:310|92:270,1,70,10|0,0:0|0:0,0:0:0:0:
103,182,1272,1,2,0:0:0:0:
57,102,1634,1,0,0:0:0:0:
173,238,1995,1,2,0:0:0:0:
253,285,2357,1,0,0:0:0:0:
344,280,2718,1,2,0:0:0:0:
418,225,3080,1,0,0:0:0:0:
466,148,3441,6,0,P|482:110|477:79,1,70,2|0,0:0|0:0,0:0:0:0:
462,47,3983,2,0,P|412:61|362:47,1,105,2|8,0:0|0:0,0:0:0:0:
69,125,5610,1,2,0:0:0:0:
114,365,6333,6,0,P|94:329|106:281,1,70,2|0,0:0|0:0,0:0:0:0:
113,266,6875,2,0,P|162:279|212:266,1,105,2|0,0:0|0:0,0:0:0:0:
305,209,7778,1,10,0:0:0:0:
467,184,8863,1,0,0:0:0:0:
492,271,9224,6,0,L|454:336,1,70,2|0,0:0|0:0,0:0:0:0:
367,312,9947,2,0,L|329:377,1,70
241,360,10670,2,0,P|204:345|180:315,1,70,2|0,0:0|0:0,0:0:0:0:
256,273,11393,2,0,P|275:244|275:193,1,70,2|0,0:0|0:0,0:0:0:0:
106,147,12116,5,10,0:0:0:0:
278,209,12839,1,10,0:0:0:0:
64,318,13562,1,2,0:0:0:0:
111,238,13924,1,0,0:0:0:0:
106,147,14285,1,2,0:0:0:0:
51,73,14647,1,0,0:0:0:0:
226,80,15007,6,0,P|261:81|293:67,1,70,2|0,0:0|0:0,0:0:0:0:
324,45,15549,2,0,P|348:89|333:138,1,105,2|0,0:0|0:0,0:0:0:0:
282,212,16453,1,10,0:0:0:0:
171,335,17176,1,2,0:0:0:0:
261,329,17537,1,0,0:0:0:0:
210,253,17899,1,10,0:0:0:0:
200,208,18081,1,0,0:0:0:0:
214,164,18264,1,0,0:0:0:0:
330,50,18630,6,0,P|306:67|253:70,1,62.9999980773926,2|0,0:0|0:0,0:0:0:0:
109,193,19370,2,0,P|108:224|119:253,1,56,2|0,0:0|0:0,0:0:0:0:
249,186,20120,2,0,L|214:164,1,41.9999987182618,2|0,0:0|0:0,0:0:0:0:
107,107,20909,6,0,P|36:141|15:195,1,140,2|8,0:0|0:0,0:0:0:0:
346,263,22410,6,0,P|417:229|438:175,1,140,2|8,0:0|0:0,0:0:0:0:
209,202,23856,6,0,L|344:168,1,140,12|2,0:0|0:0,0:0:0:0:
398,95,24948,1,0,0:0:0:0:
400,319,25309,1,2,0:0:0:0:
316,278,25671,1,0,0:0:0:0:
224,286,26032,1,2,0:0:0:0:
149,339,26394,1,0,0:0:0:0:
252,367,26755,6,0,P|283:351|301:321,1,70,2|0,0:0|0:0,0:0:0:0:
316,278,27297,2,0,P|332:234|386:212,1,105,2|0,0:0|0:0,0:0:0:0:
467,220,28201,1,10,0:0:0:0:
273,162,28924,2,0,L|206:143,1,70,2|0,0:0|0:0,0:0:0:0:
122,114,29647,6,0,P|168:64|215:55,2,105,6|2|0,0:0|0:0|0:0,0:0:0:0:
83,194,31093,1,10,0:0:0:0:
18,341,31454,2,0,L|48:277,1,70
83,194,32177,1,0,0:0:0:0:
134,269,32538,6,0,P|155:297|184:315,1,70,2|0,0:0|0:0,0:0:0:0:
286,219,33261,2,0,L|217:228,1,70
258,372,33984,2,0,P|272:340|275:305,1,70,2|0,0:0|0:0,0:0:0:0:
309,130,34707,2,0,P|341:144|364:171,1,70,2|0,0:0|0:0,0:0:0:0:
116,153,35430,6,0,P|62:130|48:74,1,105,6|0,0:0|0:0,0:0:0:0:
84,81,36153,2,0,L|165:67,1,70,2|0,0:0|0:0,0:0:0:0:
376,280,36876,1,2,0:0:0:0:
443,218,37237,1,0,0:0:0:0:
453,127,37599,1,2,0:0:0:0:
402,51,37960,1,0,0:0:0:0:
315,78,38321,6,0,P|313:125|288:153,1,70,2|0,0:0|0:0,0:0:0:0:
262,134,38864,2,0,B|226:127|184:154|184:154|162:147,1,105,2|0,0:0|0:0,0:0:0:0:
79,110,39767,1,2,0:0:0:0:
37,353,40129,1,0,0:0:0:0:
128,334,40490,1,2,0:0:0:0:
206,283,40852,1,0,0:0:0:0:
297,161,41212,6,0,P|293:195|274:225,1,70,6|0,0:0|0:0,0:0:0:0:
254,96,41935,2,0,P|258:61|276:32,1,70,10|0,0:0|0:0,0:0:0:0:
431,160,42658,2,0,P|404:182|371:192,1,70,6|0,0:0|0:0,0:0:0:0:
442,81,43382,2,0,P|468:58|501:48,1,70,10|0,0:0|0:0,0:0:0:0:
489,304,44127,6,0,P|434:267|360:273,1,140,12|0,0:0|0:0,0:0:0:0:
164,377,45216,1,0,0:0:0:0:
252,355,45610,2,0,L|285:290,1,70,2|0,0:0|0:0,0:0:0:0:
330,192,46389,2,0,L|243:224,1,70,2|0,0:0|0:0,0:0:0:0:
174,250,47210,6,0,P|138:264|96:257,1,70,2|0,0:0|0:0,0:0:0:0:
32,103,48010,2,0,P|80:70|178:90,1,140,8|0,0:0|0:0,0:0:0:0:
24,305,49094,1,0,0:0:0:0:
28,211,49455,1,2,0:0:0:0:
111,167,49817,1,0,0:0:0:0:
373,185,50178,6,0,P|438:164|464:102,1,140,6|0,0:0|0:0,0:0:0:0:
224,136,51262,1,0,0:0:0:0:
195,102,51443,1,0,0:0:0:0:
157,75,51623,2,0,P|89:67|31:102,1,140,4|0,0:0|0:0,0:0:0:0:
107,261,52708,1,0,0:0:0:0:
111,167,53069,5,2,0:0:0:0:
28,211,53431,2,0,L|5:196,2,17.5,8|0|0,0:0|0:0|0:0,0:0:0:0:
24,305,53792,1,2,0:0:0:0:
191,217,54153,1,0,0:0:0:0:
281,208,54515,2,0,P|315:210|346:225,1,70,2|0,0:0|0:0,0:0:0:0:
375,312,55238,2,0,P|410:290|430:259,1,70,2|0,0:0|0:0,0:0:0:0:
512,74,55961,6,0,P|452:34|379:50,1,140,14|0,0:0|0:0,0:0:0:0:
310,104,57045,2,0,L|291:120,2,17.5,8|0|0,0:0|0:0|0:0,0:0:0:0:
399,144,57406,1,2,0:0:0:0:
299,357,57768,1,0,0:0:0:0:
205,308,58129,1,2,0:0:0:0:
246,196,58491,1,0,0:0:0:0:
89,222,58852,6,0,P|57:195|42:156,1,83.9999974365235,6|0,0:0|0:0,0:0:0:0:
0,82,59575,2,0,P|80:79|125:145,1,167.999994873047,8|0,0:0|0:0,0:0:0:0:
104,381,60659,1,0,0:0:0:0:
174,319,61021,1,2,0:0:0:0:
260,288,61382,1,0,0:0:0:0:
353,290,61744,2,0,P|407:334|511:317,1,167.999994873047,6|0,0:0|0:0,0:0:0:0:
305,368,62828,1,0,0:0:0:0:
445,229,63190,1,6,0:0:0:0:
480,143,63551,2,0,P|488:109|479:61,1,83.9999974365235,10|0,0:0|0:0,0:0:0:0:
306,124,64274,5,0,0:0:0:0:
394,102,64635,2,0,L|373:189,1,83.9999974365235,6|0,0:0|0:0,0:0:0:0:
351,270,65358,1,2,0:0:0:0:
271,225,65720,1,0,0:0:0:0:
118,263,66081,2,0,P|157:278|197:266,1,83.9999974365235,2|0,0:0|0:0,0:0:0:0:
267,314,66804,2,0,P|255:354|223:378,1,83.9999974365235,2|0,0:0|0:0,0:0:0:0:
26,302,67527,6,0,P|28:218|91:166,1,167.999994873047,6|0,0:0|0:0,0:0:0:0:
180,159,68611,1,0,0:0:0:0:
265,194,68973,1,2,0:0:0:0:
429,365,69334,1,0,0:0:0:0:
367,297,69696,1,2,0:0:0:0:
361,205,70057,1,0,0:0:0:0:
413,130,70418,6,0,P|428:91|424:47,1,70,2|0,0:0|0:0,0:0:0:0:
270,78,71141,2,0,P|322:112|343:41,1,140,10|0,0:0|0:0,0:0:0:0:
183,50,72226,1,0,0:0:0:0:
96,77,72587,1,2,0:0:0:0:
39,148,72949,1,0,0:0:0:0:
33,239,73310,6,0,B|91:275|104:221|172:254,1,140,6|0,0:0|0:0,0:0:0:0:
241,384,74394,1,8,0:0:0:0:
228,340,74575,1,0,0:0:0:0:
244,297,74756,2,0,P|313:276|346:211,1,140,4|0,0:0|0:0,0:0:0:0:
312,134,75840,1,0,0:0:0:0:
255,205,76202,5,2,0:0:0:0:
314,273,76563,1,0,0:0:0:0:
355,291,76744,1,0,0:0:0:0:
400,288,76924,1,2,0:0:0:0:
471,231,77286,1,0,0:0:0:0:
487,141,77647,2,0,P|489:99|469:60,1,70,6|0,0:0|0:0,0:0:0:0:
398,115,78370,2,0,P|395:156|415:195,1,70,2|0,0:0|0:0,0:0:0:0:
307,113,79093,6,0,P|242:87|165:103,1,140,14|0,0:0|0:0,0:0:0:0:
12,181,80177,1,0,0:0:0:0:
90,134,80539,1,2,0:0:0:0:
55,352,80900,1,0,0:0:0:0:
129,293,81262,1,2,0:0:0:0:
147,204,81623,1,0,0:0:0:0:
90,134,81985,6,0,B|55:90|69:35|69:35|5:65,2,167.999994873047,14|0|0,0:0|0:0|0:0,0:0:0:0:
147,204,83792,1,0,0:0:0:0:
201,129,84153,1,2,0:0:0:0:
288,99,84515,1,0,0:0:0:0:
477,216,84876,6,0,P|448:292|365:319,1,167.999994873047,6|0,0:0|0:0,0:0:0:0:
264,363,85961,1,8,0:0:0:0:
289,324,86141,1,0,0:0:0:0:
298,278,86322,2,0,P|262:207|168:203,1,167.999994873047,6|0,0:0|0:0,0:0:0:0:
91,220,87406,1,0,0:0:0:0:
118,131,87768,6,0,L|293:88,2,167.999994873047,14|0|0,0:0|0:0|0:0,0:0:0:0:
29,156,89575,1,0,0:0:0:0:
42,252,89937,1,2,0:0:0:0:
123,307,90298,1,0,0:0:0:0:
298,180,90659,6,0,P|288:247|236:293,1,140,6|0,0:0|0:0,0:0:0:0:
267,99,91809,1,0,0:0:0:0:
352,112,92209,2,0,L|431:139,1,62.9999980773926,10|0,0:0|0:0,0:0:0:0:
202,200,93009,2,0,L|135:228,1,56,10|0,0:0|0:0,0:0:0:0:
388,364,93788,6,0,L|360:305,1,62.9999980773926,10|0,0:0|0:0,0:0:0:0:
319,225,94567,1,2,0:0:0:0:
270,302,94928,1,0,0:0:0:0:
119,384,95289,1,2,0:0:0:0:
169,306,95651,1,0,0:0:0:0:
172,212,96012,1,2,0:0:0:0:
127,130,96374,1,0,0:0:0:0:
46,246,96735,6,0,P|78:275|111:280,1,70,2|0,0:0|0:0,0:0:0:0:
129,244,97277,2,0,P|162:223|230:222,1,105,2|8,0:0|0:0,0:0:0:0:
357,320,98903,1,0,0:0:0:0:
484,168,99626,6,0,P|453:184|418:182,1,70,2|0,0:0|0:0,0:0:0:0:
375,168,100168,2,0,P|378:125|434:86,1,105,2|0,0:0|0:0,0:0:0:0:
512,69,101072,1,10,0:0:0:0:
301,153,102156,1,0,0:0:0:0:
236,43,102518,6,0,P|220:73|218:108,1,70,2|0,0:0|0:0,0:0:0:0:
221,200,103241,2,0,P|202:230|172:246,1,70
63,297,103963,2,0,P|64:262|82:232,1,70,2|0,0:0|0:0,0:0:0:0:
140,163,104686,2,0,P|143:128|127:84,1,70,2|0,0:0|0:0,0:0:0:0:
52,137,105409,5,10,0:0:0:0:
221,200,106132,1,10,0:0:0:0:
426,105,106855,1,2,0:0:0:0:
475,181,107216,1,0,0:0:0:0:
416,251,107578,1,2,0:0:0:0:
465,327,107939,1,0,0:0:0:0:
328,265,108301,6,0,P|294:253|253:261,1,70,2|0,0:0|0:0,0:0:0:0:
218,273,108843,2,0,P|162:279|116:250,1,105,2|0,0:0|0:0,0:0:0:0:
65,183,109747,1,10,0:0:0:0:
205,78,110469,1,2,0:0:0:0:
117,105,110831,1,0,0:0:0:0:
186,162,111192,5,10,0:0:0:0:
219,191,111381,1,0,0:0:0:0:
255,219,111571,1,0,0:0:0:0:
327,298,111951,2,0,P|357:304|397:295,1,62.9999980773926,2|0,0:0|0:0,0:0:0:0:
358,219,112730,2,0,P|354:191|362:158,1,52.5000020027161,2|0,0:0|0:0,0:0:0:0:
466,194,113563,2,0,L|420:194,1,35,2|0,0:0|0:0,0:0:0:0:
256,192,114458,5,12,0:0:0:0:
256,192,114682,12,0,117145,0:0:0:0:
