osu file format v14

[General]
AudioFilename: Bidai.mp3
AudioLeadIn: 0
PreviewTime: 46542
Countdown: 0
SampleSet: Soft
StackLeniency: 0.7
Mode: 0
LetterboxInBreaks: 1
WidescreenStoryboard: 1

[Editor]
DistanceSpacing: 0.7
BeatDivisor: 4
GridSize: 16
TimelineZoom: 1

[Metadata]
Title:Bidaitama Rantarou Brownie 100%
TitleUnicode:美大たま乱太郎 ブラウニー100%
Artist:Takepaipen
ArtistUnicode:竹パイペン
Creator:HICCA
Version:Insane*
Source:Nico Nico Douga
Tags:クッキー☆ UDK姉貴 勇気100% cookie hicari
BeatmapID:1271032
BeatmapSetID:601694

[Difficulty]
HPDrainRate:6
CircleSize:4.3
OverallDifficulty:8
ApproachRate:8.5
SliderMultiplier:1.7
SliderTickRate:1

[Events]
//Background and Video events
0,0,"BG.jpg",0,0
Video,0,"Bidai.avi"
//Break Periods
//Storyboard Layer 0 (Background)
//Storyboard Layer 1 (Fail)
//Storyboard Layer 2 (Pass)
//Storyboard Layer 3 (Foreground)
//Storyboard Sound Samples

[TimingPoints]
441,419.58041958042,4,2,1,60,1,0
441,-66.6666666666667,4,2,1,60,0,0
2748,-200,4,2,1,60,0,0
3797,-400,4,2,1,60,0,0
5475,-25,4,2,1,60,0,0
6734,-100,4,2,1,70,0,0
34007,-133.333333333333,4,2,1,60,0,0
40301,-117.647058823529,4,2,1,60,0,0
40720,-100,4,2,1,60,0,0
47014,-90.9090909090909,4,2,1,60,0,0
47434,-83.3333333333333,4,2,1,70,0,1
60021,-100,4,2,1,70,0,1
60441,-90.9090909090909,4,2,1,70,0,1
60860,-83.3333333333333,4,2,1,80,0,1
77748,-83.3333333333333,4,2,1,50,0,1
78273,-83.3333333333333,4,2,1,80,0,1
78378,-83.3333333333333,4,2,1,50,0,1
78902,-100,4,2,1,80,0,0
78903,-100,4,2,1,5,0,0

[HitObjects]
384,63,441,6,0,L|129:63,1,255,4|0,0:0|0:0,0:0:0:0:
129,63,1280,6,0,L|129:318,1,255,4|0,0:0|0:0,0:0:0:0:
129,318,2119,6,0,L|395:319,1,255,4|0,0:0|0:0,0:0:0:0:
383,318,2748,6,0,L|383:191,1,127.5,4|0,0:0|0:0,0:0:0:0:
383,190,3797,6,0,L|255:190,1,127.5,4|0,0:0|0:0,0:0:0:0:
255,190,5475,6,0,B|255:205|233:231|233:231|214:257|240:276|240:276|266:295|303:243|252:206|233:231|233:231|214:257|240:275|240:275|265:293|284:268|284:268|303:242|251:204|232:230|232:230|214:256|240:275|240:275|265:293|284:268|284:268|303:242|251:204|232:230|232:230|214:256|240:275|240:275|265:293|284:268|284:268|303:242|277:223|251:204|232:230|232:230|214:256|240:275|240:275,2,680,4|0|0,0:0|0:0|0:0,0:0:0:0:
293,152,6734,1,2,0:0:0:0:
340,96,6874,1,2,0:0:0:0:
407,127,7014,1,2,0:0:0:0:
360,178,7154,6,0,P|371:238|348:279,1,85,2|0,0:0|0:0,0:0:0:0:
272,359,7468,1,0,0:0:0:0:
272,359,7573,2,0,L|390:353,1,85,8|0,0:0|0:0,0:0:0:0:
164,238,7993,2,0,L|46:244,2,85,2|2|8,0:0|0:0|0:0,0:0:0:0:
233,302,8622,6,0,P|259:222|206:152,1,170,2|0,0:0|0:0,0:0:0:0:
101,120,9252,1,8,0:0:0:0:
240,33,9461,1,0,0:0:0:0:
309,155,9671,1,2,0:0:0:0:
90,38,9881,1,2,0:0:0:0:
123,33,9986,1,0,0:0:0:0:
156,28,10091,2,0,P|198:37|258:27,1,85,8|0,0:0|0:0,0:0:0:0:
434,98,10510,6,0,L|432:13,1,85,2|0,0:0|0:0,0:0:0:0:
309,155,10930,2,0,L|310:239,1,85,8|0,0:0|0:0,0:0:0:0:
319,334,11246,1,0,0:0:0:0:
319,334,11350,1,2,0:0:0:0:
404,209,11559,1,2,0:0:0:0:
319,334,11769,1,8,0:0:0:0:
205,212,11979,2,0,L|204:128,1,85,2|0,0:0|0:0,0:0:0:0:
319,334,12399,5,0,0:0:0:0:
319,334,12608,2,0,L|317:249,1,85,8|0,0:0|0:0,0:0:0:0:
410,125,13028,1,2,0:0:0:0:
410,125,13133,2,0,P|411:175|390:239,1,85,0|2,0:0|0:0,0:0:0:0:
327,245,13447,2,0,P|369:219|435:205,1,85,8|0,0:0|0:0,0:0:0:0:
319,334,13867,6,0,P|275:309|230:259,1,85,2|0,0:0|0:0,0:0:0:0:
120,349,14287,2,0,P|110:299|119:233,1,85,8|0,0:0|0:0,0:0:0:0:
154,132,14706,1,2,0:0:0:0:
190,289,14916,1,2,0:0:0:0:
259,212,15126,1,8,0:0:0:0:
88,205,15336,2,0,L|3:200,1,85,2|0,0:0|0:0,0:0:0:0:
154,132,15755,5,0,0:0:0:0:
190,289,15965,1,8,0:0:0:0:
3,200,16175,2,0,L|88:205,1,85,2|2,0:0|0:0,0:0:0:0:
109,205,16489,1,2,0:0:0:0:
125,191,16594,1,2,0:0:0:0:
136,173,16699,1,2,0:0:0:0:
136,151,16804,1,10,0:0:0:0:
259,212,17014,1,0,0:0:0:0:
188,63,17224,6,0,L|196:147,1,85,2|0,0:0|0:0,0:0:0:0:
375,116,17643,2,0,L|366:200,1,85,8|0,0:0|0:0,0:0:0:0:
285,137,17958,1,0,0:0:0:0:
285,137,18063,1,2,0:0:0:0:
362,29,18273,1,2,0:0:0:0:
437,203,18482,1,8,0:0:0:0:
274,268,18692,6,0,P|317:274|368:269,1,85,2|0,0:0|0:0,0:0:0:0:
375,116,19112,1,0,0:0:0:0:
196,147,19322,1,8,0:0:0:0:
198,309,19531,6,0,P|208:366|250:349,1,85,2|0,0:0|0:0,0:0:0:0:
435,305,19951,2,0,P|444:344|410:364,2,85,2|2|0,0:0|0:0|0:0,0:0:0:0:
319,201,20580,5,2,0:0:0:0:
341,315,20790,1,0,0:0:0:0:
468,141,21000,1,8,0:0:0:0:
446,255,21210,1,0,0:0:0:0:
319,201,21420,1,2,0:0:0:0:
468,141,21629,2,0,P|428:119|370:109,1,85,2|8,0:0|0:0,0:0:0:0:
214,55,22049,6,0,P|254:33|312:23,1,85,2|0,0:0|0:0,0:0:0:0:
319,201,22468,1,0,0:0:0:0:
198,146,22678,2,0,P|156:135|119:114,1,85,8|0,0:0|0:0,0:0:0:0:
52,39,22993,1,0,0:0:0:0:
52,39,23098,2,0,L|59:145,1,85,2|2,0:0|0:0,0:0:0:0:
183,63,23517,1,8,0:0:0:0:
115,206,23727,1,0,0:0:0:0:
268,63,23937,6,0,L|183:63,1,85,2|0,0:0|0:0,0:0:0:0:
183,181,24252,1,0,0:0:0:0:
200,206,24357,2,0,L|115:206,1,85,8|0,0:0|0:0,0:0:0:0:
231,330,24776,1,2,0:0:0:0:
323,242,24986,1,2,0:0:0:0:
108,294,25196,1,8,0:0:0:0:
200,206,25406,2,0,L|285:206,1,85,2|0,0:0|0:0,0:0:0:0:
231,330,25825,5,0,0:0:0:0:
384,330,26035,1,8,0:0:0:0:
384,177,26245,1,0,0:0:0:0:
231,177,26454,1,2,0:0:0:0:
231,177,26559,2,0,P|273:156|307:121,1,85,0|2,0:0|0:0,0:0:0:0:
368,80,26874,2,0,P|331:100|299:130,1,85,8|0,0:0|0:0,0:0:0:0:
384,262,27294,6,0,L|384:152,1,85,2|0,0:0|0:0,0:0:0:0:
368,80,27608,1,0,0:0:0:0:
368,80,27713,1,8,0:0:0:0:
249,192,27923,1,0,0:0:0:0:
239,14,28133,1,2,0:0:0:0:
360,160,28343,2,0,P|402:154|442:105,2,85,2|8|2,0:0|0:0|0:0,0:0:0:0:
421,280,28972,5,0,0:0:0:0:
421,280,29182,2,0,L|417:392,1,85,0|8,0:0|0:0,0:0:0:0:
249,192,29601,2,0,L|252:276,1,85,2|2,0:0|0:0,0:0:0:0:
316,311,29916,2,0,P|268:313|216:333,1,85,2|0,0:0|0:0,0:0:0:0:
179,341,30231,1,10,0:0:0:0:
21,265,30441,1,0,0:0:0:0:
180,257,30650,6,0,P|185:300|176:349,1,85,2|0,0:0|0:0,0:0:0:0:
21,265,31070,1,8,0:0:0:0:
21,265,31175,1,0,0:0:0:0:
21,265,31280,2,0,P|16:222|25:173,1,85,2|0,0:0|0:0,0:0:0:0:
97,54,31699,1,0,0:0:0:0:
117,228,31909,1,8,0:0:0:0:
246,123,32119,6,0,B|288:131|326:113|326:113|386:142|343:183,2,170,2|0|0,0:0|0:0|0:0,0:0:0:0:
97,54,33168,1,0,0:0:0:0:
117,228,33378,2,0,B|71:221|71:221|8:241,2,85,2|2|2,0:0|0:0|0:0,0:0:0:0:
143,338,34007,5,2,0:0:0:0:
232,277,34217,1,2,0:0:0:0:
303,352,34427,1,2,0:0:0:0:
392,291,34636,2,0,P|357:283|322:257,1,63.7500024318696,2|0,0:0|0:0,0:0:0:0:
470,175,35056,6,0,P|480:209|475:252,2,63.7500024318696,2|8|2,0:0|0:0|0:0,0:0:0:0:
319,115,35685,2,0,P|387:82|460:90,1,127.500004863739,2|0,0:0|0:0,0:0:0:0:
319,115,36315,2,0,P|251:148|178:140,1,127.500004863739,2|0,0:0|0:0,0:0:0:0:
332,15,36944,6,0,L|326:78,1,63.7500024318696,8|2,0:0|0:0,0:0:0:0:
195,83,37364,6,0,L|200:146,1,63.7500024318696,2|0,0:0|0:0,0:0:0:0:
91,112,37783,6,0,L|20:105,1,63.7500024318696,2|0,0:0|0:0,0:0:0:0:
55,224,38203,2,0,L|118:230,1,63.7500024318696,2|0,0:0|0:0,0:0:0:0:
144,93,38622,2,0,L|73:85,1,63.7500024318696,10|0,0:0|0:0,0:0:0:0:
153,218,39042,5,2,0:0:0:0:
134,119,39252,1,2,0:0:0:0:
233,99,39461,1,0,0:0:0:0:
252,198,39671,1,2,0:0:0:0:
91,112,39881,2,0,P|100:158|93:199,1,63.7500024318696
58,342,40301,1,8,0:0:0:0:
88,352,40406,1,2,0:0:0:0:
120,352,40510,1,2,0:0:0:0:
149,337,40615,1,2,0:0:0:0:
174,316,40720,6,0,P|221:303|294:319,1,85,2|0,0:0|0:0,0:0:0:0:
205,209,41140,1,8,0:0:0:0:
226,373,41350,1,0,0:0:0:0:
328,242,41559,2,0,P|368:269|402:335,1,85,2|2,0:0|0:0,0:0:0:0:
226,373,41979,1,8,0:0:0:0:
205,209,42189,1,2,0:0:0:0:
304,126,42399,6,0,L|219:130,1,85,2|0,0:0|0:0,0:0:0:0:
412,237,42818,2,0,L|327:241,1,85,8|0,0:0|0:0,0:0:0:0:
376,102,43238,1,2,0:0:0:0:
462,153,43447,1,2,0:0:0:0:
290,51,43657,2,0,L|374:46,1,85,8|0,0:0|0:0,0:0:0:0:
475,126,43972,1,0,0:0:0:0:
462,153,44077,6,0,P|453:95|424:71,1,85,10|8,0:0|0:0,0:0:0:0:
290,51,44496,1,2,0:0:0:0:
319,183,44706,1,2,0:0:0:0:
103,50,44916,5,8,0:0:0:0:
103,50,45126,2,0,L|211:29,2,85,8|0|0,0:0|0:0|0:0,0:0:0:0:
82,216,45755,5,8,0:0:0:0:
82,216,46175,5,8,0:0:0:0:
82,216,46594,6,0,P|122:173|188:203,1,127.5,2|0,0:0|0:0,0:0:0:0:
181,192,47014,6,0,P|255:229|304:172,1,140.25000428009,2|0,0:0|0:0,0:0:0:0:
294,200,47434,6,0,P|337:171|401:187,1,101.999996887207,6|0,0:0|0:0,0:0:0:0:
412,308,47748,1,0,0:0:0:0:
412,308,47853,2,0,P|369:337|305:321,1,101.999996887207,10|0,0:0|0:0,0:0:0:0:
360,191,48273,1,2,0:0:0:0:
266,276,48482,1,2,0:0:0:0:
404,357,48692,1,8,0:0:0:0:
437,136,48902,6,0,L|436:272,1,101.999996887207,2|0,0:0|0:0,0:0:0:0:
270,133,49322,1,2,0:0:0:0:
270,133,49427,1,0,0:0:0:0:
270,133,49531,2,0,L|388:65,1,101.999996887207,10|0,0:0|0:0,0:0:0:0:
303,264,49951,1,0,0:0:0:0:
160,185,50161,1,0,0:0:0:0:
349,181,50371,1,10,0:0:0:0:
257,346,50580,1,2,0:0:0:0:
235,125,50790,5,2,0:0:0:0:
209,266,51000,1,0,0:0:0:0:
375,322,51210,1,8,0:0:0:0:
349,181,51420,1,2,0:0:0:0:
160,185,51629,1,2,0:0:0:0:
349,181,51839,1,0,0:0:0:0:
349,145,51944,1,0,0:0:0:0:
350,109,52049,1,10,0:0:0:0:
309,270,52259,6,0,P|263:261|185:272,1,101.999996887207,2|0,0:0|0:0,0:0:0:0:
65,331,52678,1,2,0:0:0:0:
65,331,52888,2,0,P|57:281|90:197,1,101.999996887207,10|0,0:0|0:0,0:0:0:0:
140,144,53203,1,0,0:0:0:0:
140,144,53308,2,0,P|148:94|115:10,1,101.999996887207,2|0,0:0|0:0,0:0:0:0:
242,89,53727,1,10,0:0:0:0:
51,95,53937,1,2,0:0:0:0:
68,231,54147,6,0,B|120:232|120:232|193:222,1,101.999996887207,2|0,0:0|0:0,0:0:0:0:
333,60,54566,2,0,B|281:59|281:59|208:69,1,101.999996887207,8|2,0:0|0:0,0:0:0:0:
286,278,54986,1,0,0:0:0:0:
286,278,55196,2,0,B|287:226|287:226|277:152,1,101.999996887207,2|10,0:0|0:0,0:0:0:0:
115,13,55615,2,0,B|114:14|112:58|112:77,1,50.9999984436036,2|0,0:0|0:0,0:0:0:0:
120,114,55825,5,0,0:0:0:0:
169,228,56035,1,0,0:0:0:0:
283,180,56245,1,8,0:0:0:0:
224,87,56454,1,0,0:0:0:0:
250,260,56664,1,0,0:0:0:0:
88,196,56874,1,0,0:0:0:0:
283,180,57084,1,10,0:0:0:0:
172,20,57294,1,2,0:0:0:0:
168,60,57399,1,0,0:0:0:0:
177,99,57503,6,0,L|290:88,1,101.999996887207,2|0,0:0|0:0,0:0:0:0:
466,189,57923,2,0,L|353:178,1,101.999996887207,10|0,0:0|0:0,0:0:0:0:
214,203,58343,1,2,0:0:0:0:
351,95,58552,1,2,0:0:0:0:
303,263,58762,1,8,0:0:0:0:
243,100,58972,1,2,0:0:0:0:
420,244,59182,6,0,P|402:292|409:344,1,101.999996887207,8|0,0:0|0:0,0:0:0:0:
420,244,59601,6,0,P|437:196|431:146,1,101.999996887207,8|0,0:0|0:0,0:0:0:0:
420,244,60021,6,0,L|277:219,1,127.5,2|0,0:0|0:0,0:0:0:0:
211,216,60441,6,0,L|363:189,1,140.25000428009,2|0,0:0|0:0,0:0:0:0:
430,142,60860,6,0,L|292:114,1,101.999996887207,6|0,0:0|0:0,0:0:0:0:
424,42,61175,1,0,0:0:0:0:
424,42,61280,1,10,0:0:0:0:
452,199,61489,1,0,0:0:0:0:
228,122,61699,2,0,L|329:121,2,101.999996887207,2|2|8,0:0|0:0|0:0,0:0:0:0:
321,304,62329,6,0,P|323:253|308:204,1,101.999996887207,2|0,0:0|0:0,0:0:0:0:
132,308,62748,1,2,0:0:0:0:
132,308,62853,1,0,0:0:0:0:
132,308,62958,2,0,P|164:332|194:340,1,50.9999984436036,10|0,0:0|0:0,0:0:0:0:
110,202,63168,2,0,P|64:224|30:262,1,101.999996887207,0|2,0:0|0:0,0:0:0:0:
50,126,63587,1,0,0:0:0:0:
228,122,63797,1,10,0:0:0:0:
50,126,64007,1,2,0:0:0:0:
115,273,64217,5,2,0:0:0:0:
251,200,64427,1,2,0:0:0:0:
151,341,64638,5,8,0:0:0:0:
147,169,64848,1,2,0:0:0:0:
288,268,65058,5,2,0:0:0:0:
78,205,65267,1,0,0:0:0:0:
73,240,65371,1,0,0:0:0:0:
69,275,65477,1,10,0:0:0:0:
214,131,65685,6,0,L|100:125,1,101.999996887207,2|0,0:0|0:0,0:0:0:0:
220,304,66105,2,2,B|219:303|227:359,1,50.9999984436036
398,263,66315,2,0,B|399:262|391:313,1,50.9999984436036,10|0,0:0|0:0,0:0:0:0:
281,166,66524,2,0,L|287:275,1,101.999996887207
180,202,66944,1,0,0:0:0:0:
275,65,67154,1,10,0:0:0:0:
304,85,67259,1,0,0:0:0:0:
336,99,67364,1,0,0:0:0:0:
371,97,67468,1,0,0:0:0:0:
403,81,67573,5,0,0:0:0:0:
455,212,67783,1,2,0:0:0:0:
315,191,67993,1,8,0:0:0:0:
367,322,68203,1,2,0:0:0:0:
455,212,68413,5,0,0:0:0:0:
281,283,68622,1,2,0:0:0:0:
229,152,68832,1,8,0:0:0:0:
403,81,69041,1,2,0:0:0:0:
315,191,69252,5,2,0:0:0:0:
287,41,69461,1,2,0:0:0:0:
105,118,69671,1,8,0:0:0:0:
229,152,69881,1,2,0:0:0:0:
156,49,70091,1,0,0:0:0:0:
173,240,70301,1,2,0:0:0:0:
138,67,70510,5,10,0:0:0:0:
137,275,70720,1,2,0:0:0:0:
137,275,70825,1,0,0:0:0:0:
137,275,70930,2,0,P|118:216|119:153,1,101.999996887207,2|0,0:0|0:0,0:0:0:0:
318,245,71350,2,0,P|314:295|297:343,1,101.999996887207,8|2,0:0|0:0,0:0:0:0:
194,139,71769,2,0,P|197:88|214:40,1,101.999996887207,2|0,0:0|0:0,0:0:0:0:
400,143,72189,5,10,0:0:0:0:
397,178,72294,1,2,0:0:0:0:
395,213,72399,1,2,0:0:0:0:
393,248,72503,1,2,0:0:0:0:
391,283,72608,5,2,0:0:0:0:
299,139,72818,1,0,0:0:0:0:
289,309,73028,1,10,0:0:0:0:
397,178,73238,1,0,0:0:0:0:
229,222,73447,5,2,0:0:0:0:
383,84,73657,1,0,0:0:0:0:
272,19,73867,1,10,0:0:0:0:
357,208,74077,1,0,0:0:0:0:
177,106,74287,6,0,P|245:104|302:89,1,101.999996887207,2|0,0:0|0:0,0:0:0:0:
391,20,74706,1,10,0:0:0:0:
357,208,74916,1,2,0:0:0:0:
357,208,75021,1,0,0:0:0:0:
357,208,75126,1,0,0:0:0:0:
435,124,75336,1,0,0:0:0:0:
278,96,75545,2,0,P|217:98|165:111,1,101.999996887207,8|0,0:0|0:0,0:0:0:0:
90,59,75860,1,0,0:0:0:0:
62,76,75965,6,0,P|43:134|37:187,1,101.999996887207,2|0,0:0|0:0,0:0:0:0:
107,318,76385,1,8,0:0:0:0:
200,153,76594,1,2,0:0:0:0:
165,157,76699,1,0,0:0:0:0:
130,162,76804,1,2,0:0:0:0:
267,300,77014,1,0,0:0:0:0:
302,115,77224,1,8,0:0:0:0:
267,300,77434,1,0,0:0:0:0:
112,266,77643,5,10,0:0:0:0:
68,251,77748,1,0,0:0:0:0:
68,205,77853,1,0,0:0:0:0:
112,191,77958,1,0,0:0:0:0:
138,228,78063,1,0,0:0:0:0:
401,263,78273,5,10,0:0:0:0:
449,246,78378,1,0,0:0:0:0:
449,195,78483,1,0,0:0:0:0:
401,180,78588,1,0,0:0:0:0:
372,221,78693,1,0,0:0:0:0:
256,48,78902,5,0,0:0:0:0:
