osu file format v14

[General]
AudioFilename: audio.mp3
AudioLeadIn: 0
PreviewTime: 100523
Countdown: 0
SampleSet: Drum
StackLeniency: 0.7
Mode: 3
LetterboxInBreaks: 0
SpecialStyle: 0
WidescreenStoryboard: 1

[Editor]
DistanceSpacing: 0.8
BeatDivisor: 4
GridSize: 8
TimelineZoom: 1.1

[Metadata]
Title:Einen Jodler hoer ich gern
TitleUnicode:Einen Jodler hör ich gern
Artist:Takeo Ischi
ArtistUnicode:Takeo Ischi
Creator:Feerum
Version:Irrsinnig
Source:
Tags:german yodelling yodeling jodel Ein Jodler zieht hinaus in die Welt 石井健雄 Ishii Herma Karner Leopold Kubanek Walter Lechner
BeatmapID:1439847
BeatmapSetID:680986

[Difficulty]
HPDrainRate:8
CircleSize:4
OverallDifficulty:8.2
ApproachRate:10
SliderMultiplier:1.4
SliderTickRate:1

[Events]
//Background and Video events
0,0,"BG2.jpg",0,0
//Break Periods
//Storyboard Layer 0 (Background)
//Storyboard Layer 1 (Fail)
//Storyboard Layer 2 (Pass)
//Storyboard Layer 3 (Foreground)
//Storyboard Layer 4 (Overlay)
//Storyboard Sound Samples

[TimingPoints]
35,451.127819548872,4,3,1,65,1,0
36125,-100,4,3,1,65,0,1
49659,-100,4,3,1,65,0,0
50561,-100,4,3,1,65,0,1
64546,-100,4,3,1,65,0,0
101087,-100,4,3,1,65,0,1
114621,-100,4,3,1,65,0,0
115523,-100,4,3,1,65,0,1
129508,-100,4,3,1,65,0,0

[HitObjects]
64,192,35,128,0,486:0:0:0:0:
448,192,35,1,8,0:0:0:0:
192,192,35,1,4,0:0:0:0:
320,192,486,128,0,824:0:0:0:0:
192,192,824,1,0,0:0:0:0:
448,192,937,1,0,0:0:0:0:
64,192,1162,1,0,0:0:0:0:
320,192,1388,1,0,0:0:0:0:
448,192,1839,1,0,0:0:0:60:Cowbell_High.wav
64,192,1839,1,8,0:0:0:0:
448,192,1952,1,0,0:0:0:60:Cowbell_High.wav
448,192,2065,1,0,0:0:0:60:Cowbell_High.wav
192,192,2290,1,0,0:0:0:60:Cowbell_Low.wav
320,192,2290,1,8,0:0:0:0:
192,192,2403,1,0,0:0:0:60:Cowbell_Low.wav
192,192,2516,1,0,0:0:0:60:Cowbell_Low.wav
448,192,2741,1,8,0:0:0:0:
64,192,2741,1,0,0:0:0:60:Cowbell_Low.wav
320,192,3192,128,0,3531:0:0:0:0:
192,192,3192,1,8,0:0:0:0:
64,192,3531,1,0,0:0:0:0:
64,192,3644,128,0,3869:0:0:0:0:
448,192,3644,1,8,0:0:0:0:
448,192,3869,128,0,4095:0:0:0:0:
192,192,4095,128,0,4320:0:0:0:0:
64,192,4095,1,10,0:0:0:0:
320,192,4320,128,0,4546:0:0:0:0:
64,192,4546,128,0,4884:0:0:0:0:
448,192,4546,1,8,0:0:0:0:
320,192,4884,1,0,0:0:0:0:
320,192,4997,128,0,5222:0:0:0:0:
64,192,4997,1,10,0:0:0:0:
192,192,5222,128,0,5448:0:0:0:0:
448,192,5448,128,0,6350:0:0:0:0:
320,192,5448,1,8,0:0:0:0:
64,192,5674,1,0,0:0:0:0:
320,192,5899,1,0,0:0:0:0:
192,192,5899,1,10,0:0:0:0:
64,192,6125,1,0,0:0:0:60:Cowbell_Low.wav
320,192,6238,1,0,0:0:0:60:Cowbell_High.wav
192,192,6350,1,8,0:0:0:0:
64,192,6350,1,0,0:0:0:60:Cowbell_Low.wav
320,192,6576,1,0,0:0:0:60:Cowbell_Low.wav
192,192,6801,1,8,0:0:0:0:
448,192,6801,1,10,0:0:0:0:
64,192,6801,1,4,0:0:0:0:
320,192,7027,1,0,0:0:0:0:
448,192,7253,1,4,0:0:0:0:
320,192,7253,1,8,0:0:0:0:
64,192,7253,1,0,0:0:0:0:
192,192,7478,1,0,0:0:0:0:
448,192,7704,1,10,0:0:0:0:
64,192,7704,1,0,0:0:0:0:
320,192,7929,1,0,0:0:0:0:
192,192,8155,1,8,0:0:0:0:
448,192,8155,1,0,0:0:0:0:
64,192,8380,1,0,0:0:0:0:
320,192,8606,1,0,0:0:0:0:
192,192,8606,1,10,0:0:0:0:
448,192,8831,1,0,0:0:0:0:
64,192,9057,1,0,0:0:0:0:
320,192,9057,1,8,0:0:0:0:
192,192,9283,1,0,0:0:0:60:Cowbell_Low.wav
448,192,9395,1,0,0:0:0:60:Cowbell_High.wav
320,192,9508,1,10,0:0:0:0:
192,192,9508,1,0,0:0:0:60:Cowbell_Low.wav
448,192,9734,1,0,0:0:0:60:Cowbell_Low.wav
64,192,9847,1,0,0:0:0:60:Cowbell_High.wav
320,192,9959,1,8,0:0:0:0:
448,192,9959,1,0,0:0:0:60:Cowbell_Low.wav
192,192,10185,1,0,0:0:0:60:Cowbell_Low.wav
448,192,10410,128,0,10862:0:0:0:0:
64,192,10410,1,10,0:0:0:0:
320,192,10636,1,0,0:0:0:0:
64,192,10862,128,0,11764:0:0:0:0:
192,192,10862,1,8,0:0:0:0:
320,192,11087,1,0,0:0:0:0:
448,192,11313,1,10,0:0:0:0:
192,192,11313,1,0,0:0:0:0:
320,192,11538,1,0,0:0:0:0:
320,192,11764,128,0,12666:0:0:0:0:
448,192,11764,1,8,0:0:0:0:
192,192,11989,1,0,0:0:0:0:
64,192,12215,1,10,0:0:0:0:
448,192,12215,1,0,0:0:0:0:
192,192,12441,1,0,0:0:0:0:
448,192,12666,1,0,0:0:0:0:
192,192,12666,1,8,0:0:0:0:
64,192,12892,1,0,0:0:0:0:
320,192,13117,1,10,0:0:0:0:
192,192,13117,1,0,0:0:0:0:
448,192,13343,1,0,0:0:0:0:
64,192,13456,1,0,0:0:0:0:
320,192,13568,128,0,14019:0:0:0:0:
192,192,13568,1,8,0:0:0:0:
448,192,13794,1,0,0:0:0:0:
192,192,14019,128,0,14471:0:0:0:0:
64,192,14019,1,10,0:0:0:0:
320,192,14245,1,0,0:0:0:0:
448,192,14471,1,8,0:0:0:0:
64,192,14471,1,0,0:0:0:0:
320,192,14696,1,0,0:0:0:0:
192,192,14922,1,10,0:0:0:0:
448,192,14922,1,0,0:0:0:0:
64,192,15147,1,0,0:0:0:0:
320,192,15373,1,0,0:0:0:0:
192,192,15373,1,8,0:0:0:0:
448,192,15598,1,0,0:0:0:0:
320,192,15824,1,10,0:0:0:0:
64,192,15824,1,0,0:0:0:0:
192,192,16050,1,0,0:0:0:0:
448,192,16275,1,0,0:0:0:0:
320,192,16275,1,8,0:0:0:0:
64,192,16501,1,0,0:0:0:0:
320,192,16726,1,10,0:0:0:0:
192,192,16726,128,0,17177:0:0:0:0:
448,192,16952,1,0,0:0:0:0:
64,192,17177,1,8,0:0:0:0:
320,192,17177,128,0,17628:0:0:0:0:
192,192,17403,1,0,0:0:0:0:
64,192,17628,1,0,0:0:0:0:
448,192,17628,1,10,0:0:0:0:
192,192,17854,1,0,0:0:0:0:
64,192,17854,1,0,0:0:0:0:
448,192,18080,128,0,19433:0:0:0:0:
320,192,18080,1,8,0:0:0:0:
64,192,18305,1,0,0:0:0:0:
320,192,18531,1,0,0:0:0:0:
192,192,18531,1,10,0:0:0:0:
64,192,18756,1,0,0:0:0:0:
320,192,18982,1,0,0:0:0:0:
64,192,18982,1,8,0:0:0:0:
192,192,19207,1,0,0:0:0:0:
64,192,19433,1,0,0:0:0:0:
192,192,19433,1,10,0:0:0:0:
320,192,19659,1,0,0:0:0:0:
64,192,19659,1,0,0:0:0:0:
448,192,19884,1,8,0:0:0:0:
192,192,19884,1,0,0:0:0:0:
64,192,20110,1,0,0:0:0:60:Cowbell_Low.wav
448,192,20222,1,0,0:0:0:60:Cowbell_High.wav
320,192,20335,1,0,0:0:0:60:Cowbell_Low.wav
64,192,20335,1,10,0:0:0:0:
320,192,20561,1,0,0:0:0:0:
448,192,20561,1,0,0:0:0:60:Cowbell_Low.wav
192,192,20786,1,0,0:0:0:60:Cowbell_High.wav
64,192,20786,1,8,0:0:0:0:
320,192,21238,128,8,21689:0:0:0:0:
192,192,21238,128,0,21689:0:0:0:0:
448,192,21689,1,8,0:0:0:0:
64,192,21689,1,4,0:0:0:0:
320,192,21914,1,0,0:0:0:0:
192,192,22140,1,10,0:0:0:0:
64,192,22140,1,0,0:0:0:0:
448,192,22365,1,0,0:0:0:0:
192,192,22591,1,0,0:0:0:0:
320,192,22591,1,8,0:0:0:0:
64,192,22816,1,0,0:0:0:0:
448,192,23042,1,0,0:0:0:0:
192,192,23042,1,10,0:0:0:0:
320,192,23268,1,0,0:0:0:0:
448,192,23493,1,0,0:0:0:0:
64,192,23493,1,8,0:0:0:0:
192,192,23719,1,0,0:0:0:60:Cowbell_Low.wav
448,192,23831,1,0,0:0:0:60:Cowbell_High.wav
192,192,23944,1,10,0:0:0:0:
64,192,23944,1,0,0:0:0:60:Cowbell_Low.wav
320,192,24170,1,0,0:0:0:60:Cowbell_Low.wav
64,192,24283,1,0,0:0:0:60:Cowbell_High.wav
320,192,24395,1,0,0:0:0:60:Cowbell_Low.wav
448,192,24395,1,8,0:0:0:0:
64,192,24621,1,0,0:0:0:60:Cowbell_Low.wav
192,192,24847,1,10,0:0:0:0:
320,192,24847,128,0,25298:0:0:0:0:
448,192,25072,1,0,0:0:0:0:
64,192,25298,128,0,26200:0:0:0:0:
192,192,25298,1,8,0:0:0:0:
448,192,25523,1,0,0:0:0:0:
320,192,25749,1,10,0:0:0:0:
192,192,25749,1,0,0:0:0:0:
320,192,25974,1,0,0:0:0:0:
448,192,26200,128,0,27102:0:0:0:0:
192,192,26200,1,8,0:0:0:0:
64,192,26425,1,0,0:0:0:0:
320,192,26651,1,0,0:0:0:0:
192,192,26651,1,10,0:0:0:0:
192,192,26877,1,0,0:0:0:0:
64,192,27102,1,8,0:0:0:0:
320,192,27102,1,0,0:0:0:0:
192,192,27328,1,0,0:0:0:0:
448,192,27553,1,10,0:0:0:0:
64,192,27553,1,0,0:0:0:0:
192,192,27779,1,0,0:0:0:0:
320,192,27892,1,0,0:0:0:0:
64,192,28004,128,0,28456:0:0:0:0:
448,192,28004,1,8,0:0:0:0:
192,192,28230,1,0,0:0:0:0:
448,192,28456,128,0,28907:0:0:0:0:
320,192,28456,1,10,0:0:0:0:
192,192,28681,1,0,0:0:0:0:
320,192,28907,1,0,0:0:0:0:
64,192,28907,1,8,0:0:0:0:
192,192,29132,1,0,0:0:0:0:
448,192,29358,1,10,0:0:0:0:
64,192,29358,1,0,0:0:0:0:
320,192,29583,1,0,0:0:0:0:
448,192,29809,1,0,0:0:0:0:
192,192,29809,1,8,0:0:0:0:
64,192,30034,1,0,0:0:0:0:
320,192,30260,1,10,0:0:0:0:
192,192,30260,1,0,0:0:0:0:
448,192,30486,1,0,0:0:0:0:
64,192,30711,1,8,0:0:0:0:
192,192,30711,1,0,0:0:0:0:
320,192,30937,1,0,0:0:0:0:
64,192,31162,1,10,0:0:0:0:
448,192,31162,128,0,31613:0:0:0:0:
192,192,31388,1,0,0:0:0:0:
320,192,31613,1,8,0:0:0:0:
64,192,31613,128,0,32065:0:0:0:0:
192,192,31839,1,0,0:0:0:0:
448,192,32065,1,10,0:0:0:0:
320,192,32065,1,0,0:0:0:0:
64,192,32290,1,0,0:0:0:0:
320,192,32290,1,0,0:0:0:0:
448,192,32516,1,0,0:0:0:0:
192,192,32516,1,8,0:0:0:0:
320,192,32741,1,0,0:0:0:0:
192,192,32967,1,0,0:0:0:0:
64,192,32967,1,10,0:0:0:0:
448,192,33192,1,0,0:0:0:0:
320,192,33418,1,8,0:0:0:0:
192,192,33418,1,0,0:0:0:0:
64,192,33644,1,0,0:0:0:0:
448,192,33869,1,10,0:0:0:0:
320,192,33869,1,0,0:0:0:0:
192,192,34095,1,0,0:0:0:0:
64,192,34320,1,8,0:0:0:0:
320,192,34320,1,0,0:0:0:0:
320,192,34433,1,0,0:0:0:0:
320,192,34546,1,0,0:0:0:0:
448,192,34771,1,10,0:0:0:0:
192,192,34771,1,0,0:0:0:0:
192,192,34884,1,0,0:0:0:0:
192,192,34997,1,0,0:0:0:0:
64,192,35222,1,8,0:0:0:0:
448,192,35222,1,0,0:0:0:0:
448,192,35335,1,0,0:0:0:0:
448,192,35448,1,0,0:0:0:0:
64,192,35674,128,0,36125:0:0:0:0:
320,192,35674,128,10,36125:0:0:0:0:
448,192,36125,1,12,0:0:0:0:
192,192,36125,1,0,0:0:0:0:
192,192,36238,1,0,0:0:0:0:
192,192,36350,1,0,0:0:0:0:
192,192,36463,1,0,0:0:0:0:
64,192,36576,1,10,0:0:0:0:
448,192,36576,1,0,0:0:0:0:
448,192,36689,1,0,0:0:0:0:
448,192,36801,1,0,0:0:0:0:
448,192,36914,1,0,0:0:0:0:
320,192,37027,1,8,0:0:0:0:
64,192,37027,1,0,0:0:0:0:
64,192,37140,1,0,0:0:0:0:
64,192,37253,1,0,0:0:0:0:
64,192,37365,1,0,0:0:0:0:
192,192,37478,128,0,37929:0:0:0:0:
448,192,37478,1,10,0:0:0:0:
320,192,37704,1,0,0:0:0:0:
448,192,37929,1,0,0:0:0:0:
64,192,37929,1,8,0:0:0:0:
448,192,38042,1,0,0:0:0:0:
64,192,38155,1,0,0:0:0:0:
64,192,38268,1,0,0:0:0:0:
320,192,38380,1,0,0:0:0:0:
192,192,38380,1,10,0:0:0:0:
320,192,38493,1,0,0:0:0:0:
192,192,38606,1,0,0:0:0:0:
192,192,38719,1,0,0:0:0:0:
448,192,38831,1,0,0:0:0:0:
64,192,38831,1,8,0:0:0:0:
448,192,38944,1,0,0:0:0:0:
192,192,39057,1,0,0:0:0:0:
192,192,39170,1,0,0:0:0:0:
320,192,39283,128,0,39508:0:0:0:0:
448,192,39283,1,10,0:0:0:0:
64,192,39508,1,0,0:0:0:0:
192,192,39734,1,0,0:0:0:0:
448,192,39734,1,8,0:0:0:0:
192,192,39847,1,0,0:0:0:0:
192,192,39959,1,0,0:0:0:0:
192,192,40072,1,0,0:0:0:0:
320,192,40185,1,0,0:0:0:0:
64,192,40185,1,10,0:0:0:0:
320,192,40298,1,0,0:0:0:0:
320,192,40410,1,0,0:0:0:0:
320,192,40523,1,0,0:0:0:0:
64,192,40636,1,0,0:0:0:0:
448,192,40636,1,8,0:0:0:0:
64,192,40749,1,0,0:0:0:0:
64,192,40862,1,0,0:0:0:0:
64,192,40974,1,0,0:0:0:0:
448,192,41087,128,0,41538:0:0:0:0:
192,192,41087,1,10,0:0:0:0:
320,192,41313,1,0,0:0:0:0:
192,192,41538,1,0,0:0:0:0:
64,192,41538,1,8,0:0:0:0:
192,192,41651,1,0,0:0:0:0:
320,192,41764,1,0,0:0:0:0:
320,192,41877,1,0,0:0:0:0:
64,192,41989,1,0,0:0:0:0:
448,192,41989,1,10,0:0:0:0:
64,192,42102,1,0,0:0:0:0:
448,192,42215,1,0,0:0:0:0:
448,192,42328,1,0,0:0:0:0:
192,192,42441,1,0,0:0:0:0:
64,192,42441,1,8,0:0:0:0:
192,192,42553,1,0,0:0:0:0:
320,192,42666,1,0,0:0:0:0:
320,192,42779,1,0,0:0:0:0:
64,192,42892,128,0,43117:0:0:0:0:
448,192,42892,1,10,0:0:0:0:
192,192,43117,1,0,0:0:0:0:
320,192,43343,1,0,0:0:0:0:
64,192,43343,1,8,0:0:0:0:
320,192,43456,1,0,0:0:0:0:
320,192,43568,1,0,0:0:0:0:
320,192,43681,1,0,0:0:0:0:
64,192,43794,1,0,0:0:0:0:
448,192,43794,1,10,0:0:0:0:
64,192,43907,1,0,0:0:0:0:
64,192,44019,1,0,0:0:0:0:
64,192,44132,1,0,0:0:0:0:
448,192,44245,1,0,0:0:0:0:
192,192,44245,1,8,0:0:0:0:
448,192,44358,1,0,0:0:0:0:
448,192,44471,1,0,0:0:0:0:
448,192,44583,1,0,0:0:0:0:
320,192,44696,128,0,45147:0:0:0:0:
64,192,44696,1,10,0:0:0:0:
192,192,44922,1,0,0:0:0:0:
448,192,45147,1,0,0:0:0:0:
64,192,45147,1,8,0:0:0:0:
448,192,45260,1,0,0:0:0:0:
192,192,45373,1,0,0:0:0:0:
192,192,45486,1,0,0:0:0:0:
320,192,45598,1,0,0:0:0:0:
64,192,45598,1,10,0:0:0:0:
320,192,45711,1,0,0:0:0:0:
64,192,45824,1,0,0:0:0:0:
64,192,45937,1,0,0:0:0:0:
320,192,46050,1,0,0:0:0:0:
448,192,46050,1,8,0:0:0:0:
320,192,46162,1,0,0:0:0:0:
192,192,46275,1,0,0:0:0:0:
192,192,46388,1,0,0:0:0:0:
448,192,46501,1,10,0:0:0:0:
64,192,46501,128,0,46726:0:0:0:0:
320,192,46726,1,0,0:0:0:0:
192,192,46952,1,0,0:0:0:0:
448,192,46952,1,8,0:0:0:0:
192,192,47065,1,0,0:0:0:0:
192,192,47177,1,0,0:0:0:0:
192,192,47290,1,0,0:0:0:0:
320,192,47403,1,0,0:0:0:0:
64,192,47403,1,10,0:0:0:0:
320,192,47516,1,0,0:0:0:0:
320,192,47628,1,0,0:0:0:0:
320,192,47741,1,0,0:0:0:0:
64,192,47854,1,0,0:0:0:0:
448,192,47854,1,8,0:0:0:0:
64,192,47967,1,0,0:0:0:0:
64,192,48080,1,0,0:0:0:0:
64,192,48192,1,0,0:0:0:0:
320,192,48305,128,0,48531:0:0:0:0:
448,192,48305,1,10,0:0:0:0:
192,192,48531,1,0,0:0:0:0:
192,192,48644,1,0,0:0:0:0:
192,192,48756,128,0,48982:0:0:0:0:
448,192,48756,1,8,0:0:0:0:
448,192,48982,128,0,49207:0:0:0:0:
64,192,49207,128,0,49433:0:0:0:0:
192,192,49207,1,10,0:0:0:0:
320,192,49433,128,0,49659:0:0:0:0:
448,192,49659,1,0,0:0:0:0:
64,192,49659,1,8,0:0:0:0:
320,192,50110,128,10,50561:0:0:0:0:
192,192,50110,128,0,50561:0:0:0:0:
64,192,50448,1,0,0:0:0:0:
64,192,50561,1,0,0:0:0:0:
448,192,50561,1,12,0:0:0:0:
192,192,50786,1,0,0:0:0:0:
192,192,50899,1,0,0:0:0:0:
192,192,51012,1,0,0:0:0:0:
320,192,51012,1,10,0:0:0:0:
64,192,51238,128,0,51463:0:0:0:0:
448,192,51463,128,0,51914:0:0:0:0:
320,192,51463,1,8,0:0:0:0:
192,192,51689,1,0,0:0:0:0:
64,192,51914,1,0,0:0:0:0:
320,192,51914,1,10,0:0:0:0:
192,192,52140,1,0,0:0:0:0:
448,192,52253,1,0,0:0:0:0:
64,192,52365,1,8,0:0:0:0:
448,192,52365,1,0,0:0:0:0:
320,192,52591,1,0,0:0:0:0:
320,192,52704,1,0,0:0:0:0:
320,192,52816,1,0,0:0:0:0:
192,192,52816,1,10,0:0:0:0:
64,192,53042,128,0,53268:0:0:0:0:
448,192,53268,128,0,53493:0:0:0:0:
192,192,53268,1,8,0:0:0:0:
320,192,53493,1,0,0:0:0:0:
64,192,53719,1,0,0:0:0:0:
448,192,53719,1,10,0:0:0:0:
320,192,53944,1,0,0:0:0:0:
192,192,54057,1,0,0:0:0:0:
448,192,54170,128,8,54395:0:0:0:0:
192,192,54170,1,0,0:0:0:0:
64,192,54395,128,0,54621:0:0:0:0:
320,192,54621,128,0,54847:0:0:0:0:
448,192,54621,1,10,0:0:0:0:
192,192,54847,128,0,55072:0:0:0:0:
448,192,55072,128,0,55298:0:0:0:0:
64,192,55072,1,8,0:0:0:0:
64,192,55410,1,0,0:0:0:0:
64,192,55523,128,0,55749:0:0:0:0:
448,192,55523,1,10,0:0:0:0:
320,192,55749,128,0,55974:0:0:0:0:
192,192,55974,128,0,56200:0:0:0:0:
64,192,55974,1,8,0:0:0:0:
448,192,56200,128,0,56425:0:0:0:0:
64,192,56425,128,0,56651:0:0:0:0:
192,192,56425,1,10,0:0:0:0:
320,192,56764,1,0,0:0:0:0:
320,192,56877,128,0,57102:0:0:0:0:
64,192,56877,1,8,0:0:0:0:
192,192,57102,1,0,0:0:0:0:
448,192,57328,128,10,57779:0:0:0:0:
64,192,57328,128,0,57779:0:0:0:0:
192,192,57666,1,0,0:0:0:0:
192,192,57779,1,0,0:0:0:0:
320,192,57779,1,12,0:0:0:0:
448,192,58004,1,0,0:0:0:0:
448,192,58117,1,0,0:0:0:0:
448,192,58230,1,0,0:0:0:0:
64,192,58230,1,10,0:0:0:0:
192,192,58456,128,0,58681:0:0:0:0:
320,192,58681,128,0,59132:0:0:0:0:
448,192,58681,1,8,0:0:0:0:
64,192,58907,1,0,0:0:0:0:
192,192,59132,1,0,0:0:0:0:
448,192,59132,1,10,0:0:0:0:
64,192,59358,1,0,0:0:0:0:
320,192,59471,1,0,0:0:0:0:
320,192,59583,1,0,0:0:0:0:
192,192,59583,1,8,0:0:0:0:
64,192,59809,1,0,0:0:0:0:
64,192,59922,1,0,0:0:0:0:
64,192,60034,1,0,0:0:0:0:
448,192,60034,1,10,0:0:0:0:
192,192,60260,128,0,60486:0:0:0:0:
448,192,60486,128,0,60711:0:0:0:0:
64,192,60486,1,8,0:0:0:0:
320,192,60711,1,0,0:0:0:0:
192,192,60937,1,0,0:0:0:0:
448,192,60937,1,10,0:0:0:0:
64,192,61162,1,0,0:0:0:0:
320,192,61275,1,0,0:0:0:0:
192,192,61388,128,8,61613:0:0:0:0:
320,192,61388,1,0,0:0:0:0:
448,192,61613,128,0,61839:0:0:0:0:
64,192,61839,128,0,62065:0:0:0:0:
192,192,61839,1,10,0:0:0:0:
320,192,62065,128,0,62290:0:0:0:0:
192,192,62290,128,0,62516:0:0:0:0:
64,192,62290,1,8,0:0:0:0:
320,192,62628,1,0,0:0:0:0:
320,192,62741,128,0,62967:0:0:0:0:
448,192,62741,1,10,0:0:0:0:
64,192,62967,128,0,63192:0:0:0:0:
448,192,63192,128,0,63418:0:0:0:0:
192,192,63192,1,8,0:0:0:0:
192,192,63418,128,0,64546:0:0:0:0:
320,192,63418,1,0,0:0:0:0:
64,192,63531,1,0,0:0:0:0:
320,192,63644,1,2,0:0:0:0:
448,192,63644,1,8,0:0:0:0:
448,192,63869,1,0,0:0:0:0:
64,192,64095,1,8,0:0:0:0:
320,192,64095,1,0,0:0:0:0:
448,192,64207,1,0,0:0:0:0:
320,192,64320,1,0,0:0:0:0:
64,192,64546,1,2,0:0:0:0:
448,192,64546,1,8,0:0:0:0:
320,192,64997,128,0,65448:0:0:0:0:
192,192,64997,1,8,0:0:0:0:
448,192,64997,1,4,0:0:0:0:
64,192,65448,128,0,65786:0:0:0:0:
448,192,65786,1,0,0:0:0:0:
192,192,65899,1,0,0:0:0:0:
320,192,66125,1,0,0:0:0:0:
64,192,66350,1,0,0:0:0:0:
192,192,66801,1,0,0:0:0:60:Cowbell_High.wav
448,192,66801,1,8,0:0:0:0:
192,192,66914,1,0,0:0:0:60:Cowbell_High.wav
192,192,67027,1,0,0:0:0:60:Cowbell_High.wav
320,192,67253,1,0,0:0:0:60:Cowbell_Low.wav
64,192,67253,1,8,0:0:0:0:
320,192,67365,1,0,0:0:0:60:Cowbell_Low.wav
320,192,67478,1,0,0:0:0:60:Cowbell_Low.wav
192,192,67704,1,0,0:0:0:60:Cowbell_Low.wav
448,192,67704,1,8,0:0:0:0:
64,192,68155,128,0,68493:0:0:0:0:
448,192,68155,1,8,0:0:0:0:
320,192,68493,1,0,0:0:0:0:
320,192,68606,128,0,68831:0:0:0:0:
192,192,68606,1,8,0:0:0:0:
192,192,68831,128,0,69057:0:0:0:0:
448,192,69057,128,0,69283:0:0:0:0:
64,192,69057,1,10,0:0:0:0:
64,192,69283,128,0,69508:0:0:0:0:
320,192,69508,128,0,69847:0:0:0:0:
448,192,69508,1,8,0:0:0:0:
192,192,69847,1,0,0:0:0:0:
192,192,69959,128,0,70185:0:0:0:0:
448,192,69959,1,10,0:0:0:0:
448,192,70185,128,0,70410:0:0:0:0:
64,192,70410,128,0,71313:0:0:0:0:
320,192,70410,1,8,0:0:0:0:
192,192,70636,1,0,0:0:0:0:
448,192,70862,1,0,0:0:0:0:
320,192,70862,1,10,0:0:0:0:
192,192,71087,1,0,0:0:0:60:Cowbell_Low.wav
448,192,71200,1,0,0:0:0:60:Cowbell_High.wav
320,192,71313,1,8,0:0:0:0:
192,192,71313,1,0,0:0:0:60:Cowbell_Low.wav
448,192,71538,1,0,0:0:0:60:Cowbell_Low.wav
64,192,71764,1,10,0:0:0:0:
192,192,71764,1,4,0:0:0:0:
320,192,71764,1,0,0:0:0:0:
192,192,71989,1,0,0:0:0:0:
448,192,72215,1,8,0:0:0:0:
320,192,72215,1,0,0:0:0:0:
64,192,72215,1,4,0:0:0:0:
192,192,72441,1,0,0:0:0:0:
448,192,72666,1,0,0:0:0:0:
320,192,72666,1,10,0:0:0:0:
64,192,72892,1,0,0:0:0:0:
192,192,73117,1,8,0:0:0:0:
320,192,73117,1,0,0:0:0:0:
448,192,73343,1,0,0:0:0:0:
320,192,73568,1,0,0:0:0:0:
64,192,73568,1,10,0:0:0:0:
192,192,73794,1,0,0:0:0:0:
448,192,74019,1,8,0:0:0:0:
64,192,74019,1,0,0:0:0:0:
320,192,74245,1,0,0:0:0:60:Cowbell_Low.wav
192,192,74358,1,0,0:0:0:60:Cowbell_High.wav
448,192,74471,1,10,0:0:0:0:
320,192,74471,1,0,0:0:0:60:Cowbell_Low.wav
192,192,74696,1,0,0:0:0:60:Cowbell_Low.wav
320,192,74809,1,0,0:0:0:60:Cowbell_High.wav
64,192,74922,1,8,0:0:0:0:
192,192,74922,1,0,0:0:0:60:Cowbell_Low.wav
320,192,75147,1,0,0:0:0:60:Cowbell_Low.wav
448,192,75373,128,0,75824:0:0:0:0:
64,192,75373,1,10,0:0:0:0:
320,192,75598,1,0,0:0:0:0:
192,192,75824,128,0,76726:0:0:0:0:
64,192,75824,1,8,0:0:0:0:
320,192,76050,1,0,0:0:0:0:
448,192,76275,1,10,0:0:0:0:
64,192,76275,1,0,0:0:0:0:
320,192,76501,1,0,0:0:0:0:
64,192,76726,128,0,77628:0:0:0:0:
448,192,76726,1,8,0:0:0:0:
320,192,76952,1,0,0:0:0:0:
448,192,77177,1,0,0:0:0:0:
192,192,77177,1,10,0:0:0:0:
320,192,77403,1,0,0:0:0:0:
448,192,77628,1,0,0:0:0:0:
320,192,77628,1,8,0:0:0:0:
192,192,77854,1,0,0:0:0:0:
64,192,78080,1,10,0:0:0:0:
320,192,78080,1,0,0:0:0:0:
192,192,78305,1,0,0:0:0:0:
448,192,78418,1,0,0:0:0:0:
320,192,78531,1,8,0:0:0:0:
64,192,78531,128,0,78982:0:0:0:0:
448,192,78756,1,0,0:0:0:0:
192,192,78982,1,10,0:0:0:0:
320,192,78982,128,0,79433:0:0:0:0:
64,192,79207,1,0,0:0:0:0:
192,192,79433,1,0,0:0:0:0:
448,192,79433,1,8,0:0:0:0:
320,192,79659,1,0,0:0:0:0:
64,192,79884,1,10,0:0:0:0:
192,192,79884,1,0,0:0:0:0:
448,192,80110,1,0,0:0:0:0:
320,192,80335,1,8,0:0:0:0:
192,192,80335,1,0,0:0:0:0:
64,192,80561,1,0,0:0:0:0:
448,192,80786,1,10,0:0:0:0:
192,192,80786,1,0,0:0:0:0:
320,192,81012,1,0,0:0:0:0:
64,192,81238,1,8,0:0:0:0:
448,192,81238,1,0,0:0:0:0:
192,192,81463,1,0,0:0:0:0:
320,192,81689,1,10,0:0:0:0:
64,192,81689,128,0,82140:0:0:0:0:
448,192,81914,1,0,0:0:0:0:
192,192,82140,1,8,0:0:0:0:
320,192,82140,128,0,82591:0:0:0:0:
64,192,82365,1,0,0:0:0:0:
448,192,82591,1,10,0:0:0:0:
192,192,82591,1,0,0:0:0:0:
320,192,82816,1,0,0:0:0:0:
448,192,82816,1,0,0:0:0:0:
64,192,83042,128,0,84395:0:0:0:0:
192,192,83042,1,8,0:0:0:0:
448,192,83268,1,0,0:0:0:0:
192,192,83493,1,0,0:0:0:0:
320,192,83493,1,10,0:0:0:0:
192,192,83719,1,0,0:0:0:0:
320,192,83944,1,0,0:0:0:0:
448,192,83944,1,8,0:0:0:0:
320,192,84170,1,0,0:0:0:0:
448,192,84395,1,0,0:0:0:0:
192,192,84395,1,10,0:0:0:0:
64,192,84621,1,0,0:0:0:0:
320,192,84621,1,0,0:0:0:0:
320,192,84847,1,0,0:0:0:0:
192,192,84847,1,8,0:0:0:0:
448,192,85072,1,0,0:0:0:60:Cowbell_Low.wav
64,192,85185,1,0,0:0:0:60:Cowbell_High.wav
320,192,85298,1,0,0:0:0:60:Cowbell_Low.wav
448,192,85298,1,10,0:0:0:0:
192,192,85523,1,0,0:0:0:0:
320,192,85523,1,0,0:0:0:60:Cowbell_Low.wav
64,192,85749,1,8,0:0:0:0:
192,192,85749,1,0,0:0:0:60:Cowbell_High.wav
448,192,86200,128,0,86651:0:0:0:0:
320,192,86200,128,8,86651:0:0:0:0:
192,192,86651,1,4,0:0:0:0:
64,192,86651,1,8,0:0:0:0:
320,192,86877,1,0,0:0:0:0:
448,192,87102,1,10,0:0:0:0:
64,192,87102,1,0,0:0:0:0:
192,192,87328,1,0,0:0:0:0:
320,192,87553,1,8,0:0:0:0:
448,192,87553,1,0,0:0:0:0:
64,192,87779,1,0,0:0:0:0:
320,192,88004,1,0,0:0:0:0:
192,192,88004,1,10,0:0:0:0:
448,192,88230,1,0,0:0:0:0:
64,192,88456,1,8,0:0:0:0:
320,192,88456,1,0,0:0:0:0:
192,192,88681,1,0,0:0:0:60:Cowbell_Low.wav
448,192,88794,1,0,0:0:0:60:Cowbell_High.wav
320,192,88907,1,10,0:0:0:0:
192,192,88907,1,0,0:0:0:60:Cowbell_Low.wav
448,192,89132,1,0,0:0:0:60:Cowbell_Low.wav
64,192,89245,1,0,0:0:0:60:Cowbell_High.wav
448,192,89358,1,0,0:0:0:60:Cowbell_Low.wav
192,192,89358,1,8,0:0:0:0:
320,192,89583,1,0,0:0:0:60:Cowbell_Low.wav
448,192,89809,128,0,90260:0:0:0:0:
64,192,89809,1,10,0:0:0:0:
192,192,90034,1,0,0:0:0:0:
64,192,90260,128,0,91162:0:0:0:0:
320,192,90260,1,8,0:0:0:0:
192,192,90486,1,0,0:0:0:0:
448,192,90711,1,10,0:0:0:0:
320,192,90711,1,0,0:0:0:0:
192,192,90937,1,0,0:0:0:0:
320,192,91162,128,0,92065:0:0:0:0:
448,192,91162,1,8,0:0:0:0:
192,192,91388,1,0,0:0:0:0:
64,192,91613,1,0,0:0:0:0:
448,192,91613,1,10,0:0:0:0:
192,192,91839,1,0,0:0:0:0:
448,192,92065,1,0,0:0:0:0:
192,192,92065,1,8,0:0:0:0:
64,192,92290,1,0,0:0:0:0:
192,192,92516,1,10,0:0:0:0:
320,192,92516,1,0,0:0:0:0:
448,192,92741,1,0,0:0:0:0:
64,192,92854,1,0,0:0:0:0:
320,192,92967,128,8,93418:0:0:0:0:
192,192,92967,1,0,0:0:0:0:
448,192,93192,1,0,0:0:0:0:
64,192,93418,128,0,93869:0:0:0:0:
192,192,93418,1,10,0:0:0:0:
320,192,93644,1,0,0:0:0:0:
448,192,93869,1,8,0:0:0:0:
192,192,93869,1,0,0:0:0:0:
320,192,94095,1,0,0:0:0:0:
64,192,94320,1,10,0:0:0:0:
448,192,94320,1,0,0:0:0:0:
192,192,94546,1,0,0:0:0:0:
320,192,94771,1,0,0:0:0:0:
448,192,94771,1,8,0:0:0:0:
64,192,94997,1,0,0:0:0:0:
192,192,95222,1,0,0:0:0:0:
320,192,95222,1,10,0:0:0:0:
448,192,95448,1,0,0:0:0:0:
64,192,95674,1,8,0:0:0:0:
320,192,95674,1,0,0:0:0:0:
192,192,95899,1,0,0:0:0:0:
448,192,96125,1,10,0:0:0:0:
64,192,96125,128,0,96576:0:0:0:0:
320,192,96350,1,0,0:0:0:0:
192,192,96576,1,8,0:0:0:0:
448,192,96576,128,0,97027:0:0:0:0:
64,192,96801,1,0,0:0:0:0:
320,192,97027,1,10,0:0:0:0:
192,192,97027,1,0,0:0:0:0:
448,192,97253,1,0,0:0:0:0:
192,192,97253,1,0,0:0:0:0:
64,192,97478,1,0,0:0:0:0:
320,192,97478,1,8,0:0:0:0:
192,192,97704,1,0,0:0:0:0:
448,192,97929,1,0,0:0:0:0:
64,192,97929,1,10,0:0:0:0:
320,192,98155,1,0,0:0:0:0:
192,192,98380,1,0,0:0:0:0:
448,192,98380,1,8,0:0:0:0:
64,192,98606,1,0,0:0:0:0:
320,192,98831,1,0,0:0:0:0:
64,192,98831,1,10,0:0:0:0:
448,192,99057,1,0,0:0:0:0:
320,192,99057,1,0,0:0:0:0:
192,192,99283,1,0,0:0:0:0:
448,192,99283,1,8,0:0:0:0:
192,192,99395,1,0,0:0:0:0:
192,192,99508,1,0,0:0:0:0:
448,192,99734,1,0,0:0:0:0:
64,192,99734,1,10,0:0:0:0:
448,192,99847,1,0,0:0:0:0:
448,192,99959,1,0,0:0:0:0:
64,192,100185,1,0,0:0:0:0:
320,192,100185,1,8,0:0:0:0:
64,192,100298,1,0,0:0:0:0:
64,192,100410,1,0,0:0:0:0:
192,192,100636,128,10,101087:0:0:0:0:
320,192,100636,128,0,101087:0:0:0:0:
448,192,101087,1,0,0:0:0:0:
64,192,101087,1,12,0:0:0:0:
448,192,101200,1,0,0:0:0:0:
448,192,101313,1,0,0:0:0:0:
448,192,101425,1,0,0:0:0:0:
192,192,101538,1,0,0:0:0:0:
320,192,101538,1,10,0:0:0:0:
192,192,101651,1,0,0:0:0:0:
192,192,101764,1,0,0:0:0:0:
192,192,101877,1,0,0:0:0:0:
320,192,101989,1,0,0:0:0:0:
64,192,101989,1,8,0:0:0:0:
320,192,102102,1,0,0:0:0:0:
320,192,102215,1,0,0:0:0:0:
320,192,102328,1,0,0:0:0:0:
192,192,102441,128,0,102892:0:0:0:0:
448,192,102441,1,10,0:0:0:0:
320,192,102666,1,0,0:0:0:0:
64,192,102892,1,0,0:0:0:0:
448,192,102892,1,8,0:0:0:0:
64,192,103004,1,0,0:0:0:0:
320,192,103117,1,0,0:0:0:0:
320,192,103230,1,0,0:0:0:0:
192,192,103343,1,0,0:0:0:0:
64,192,103343,1,10,0:0:0:0:
192,192,103456,1,0,0:0:0:0:
448,192,103568,1,0,0:0:0:0:
448,192,103681,1,0,0:0:0:0:
64,192,103794,1,0,0:0:0:0:
320,192,103794,1,8,0:0:0:0:
64,192,103907,1,0,0:0:0:0:
320,192,104019,1,0,0:0:0:0:
320,192,104132,1,0,0:0:0:0:
192,192,104245,128,0,104471:0:0:0:0:
64,192,104245,1,10,0:0:0:0:
448,192,104471,1,0,0:0:0:0:
320,192,104696,1,0,0:0:0:0:
64,192,104696,1,8,0:0:0:0:
320,192,104809,1,0,0:0:0:0:
320,192,104922,1,0,0:0:0:0:
320,192,105034,1,0,0:0:0:0:
64,192,105147,1,0,0:0:0:0:
448,192,105147,1,10,0:0:0:0:
64,192,105260,1,0,0:0:0:0:
64,192,105373,1,0,0:0:0:0:
64,192,105486,1,0,0:0:0:0:
448,192,105598,1,0,0:0:0:0:
192,192,105598,1,8,0:0:0:0:
448,192,105711,1,0,0:0:0:0:
448,192,105824,1,0,0:0:0:0:
448,192,105937,1,0,0:0:0:0:
192,192,106050,128,0,106501:0:0:0:0:
64,192,106050,1,10,0:0:0:0:
320,192,106275,1,0,0:0:0:0:
448,192,106501,1,0,0:0:0:0:
64,192,106501,1,8,0:0:0:0:
448,192,106613,1,0,0:0:0:0:
192,192,106726,1,0,0:0:0:0:
192,192,106839,1,0,0:0:0:0:
320,192,106952,1,0,0:0:0:0:
64,192,106952,1,10,0:0:0:0:
320,192,107065,1,0,0:0:0:0:
64,192,107177,1,0,0:0:0:0:
64,192,107290,1,0,0:0:0:0:
448,192,107403,1,0,0:0:0:0:
320,192,107403,1,8,0:0:0:0:
448,192,107516,1,0,0:0:0:0:
192,192,107628,1,0,0:0:0:0:
192,192,107741,1,0,0:0:0:0:
448,192,107854,128,0,108080:0:0:0:0:
64,192,107854,1,10,0:0:0:0:
320,192,108080,1,0,0:0:0:0:
64,192,108305,1,0,0:0:0:0:
448,192,108305,1,8,0:0:0:0:
64,192,108418,1,0,0:0:0:0:
64,192,108531,1,0,0:0:0:0:
64,192,108644,1,0,0:0:0:0:
320,192,108756,1,0,0:0:0:0:
192,192,108756,1,10,0:0:0:0:
320,192,108869,1,0,0:0:0:0:
320,192,108982,1,0,0:0:0:0:
320,192,109095,1,0,0:0:0:0:
448,192,109207,1,8,0:0:0:0:
192,192,109207,1,0,0:0:0:0:
192,192,109320,1,0,0:0:0:0:
192,192,109433,1,0,0:0:0:0:
192,192,109546,1,0,0:0:0:0:
320,192,109659,128,0,110110:0:0:0:0:
64,192,109659,1,10,0:0:0:0:
192,192,109884,1,0,0:0:0:0:
448,192,110110,1,8,0:0:0:0:
192,192,110110,1,0,0:0:0:0:
192,192,110222,1,0,0:0:0:0:
320,192,110335,1,0,0:0:0:0:
320,192,110448,1,0,0:0:0:0:
64,192,110561,1,0,0:0:0:0:
448,192,110561,1,10,0:0:0:0:
64,192,110674,1,0,0:0:0:0:
448,192,110786,1,0,0:0:0:0:
448,192,110899,1,0,0:0:0:0:
192,192,111012,1,0,0:0:0:0:
64,192,111012,1,8,0:0:0:0:
192,192,111125,1,0,0:0:0:0:
320,192,111238,1,0,0:0:0:0:
320,192,111350,1,0,0:0:0:0:
64,192,111463,128,0,111689:0:0:0:0:
192,192,111463,1,10,0:0:0:0:
320,192,111689,1,0,0:0:0:0:
192,192,111914,1,0,0:0:0:0:
448,192,111914,1,8,0:0:0:0:
192,192,112027,1,0,0:0:0:0:
192,192,112140,1,0,0:0:0:0:
192,192,112253,1,0,0:0:0:0:
320,192,112365,1,0,0:0:0:0:
64,192,112365,1,10,0:0:0:0:
320,192,112478,1,0,0:0:0:0:
320,192,112591,1,0,0:0:0:0:
320,192,112704,1,0,0:0:0:0:
64,192,112816,1,0,0:0:0:0:
448,192,112816,1,8,0:0:0:0:
64,192,112929,1,0,0:0:0:0:
64,192,113042,1,0,0:0:0:0:
64,192,113155,1,0,0:0:0:0:
192,192,113268,128,0,113493:0:0:0:0:
320,192,113268,1,10,0:0:0:0:
448,192,113493,1,0,0:0:0:0:
448,192,113606,1,0,0:0:0:0:
448,192,113719,128,0,113944:0:0:0:0:
64,192,113719,1,8,0:0:0:0:
64,192,113944,128,0,114170:0:0:0:0:
320,192,114170,128,0,114395:0:0:0:0:
192,192,114170,1,10,0:0:0:0:
192,192,114395,128,0,114621:0:0:0:0:
448,192,114621,1,8,0:0:0:0:
64,192,114621,1,0,0:0:0:0:
448,192,115072,128,0,115523:0:0:0:0:
64,192,115072,128,10,115523:0:0:0:0:
192,192,115410,1,0,0:0:0:0:
192,192,115523,1,0,0:0:0:0:
320,192,115523,1,12,0:0:0:0:
320,192,115749,1,0,0:0:0:0:
320,192,115862,1,0,0:0:0:0:
320,192,115974,1,0,0:0:0:0:
64,192,115974,1,10,0:0:0:0:
192,192,116200,128,0,116425:0:0:0:0:
448,192,116425,128,0,116877:0:0:0:0:
320,192,116425,1,8,0:0:0:0:
64,192,116651,1,0,0:0:0:0:
192,192,116877,1,0,0:0:0:0:
320,192,116877,1,10,0:0:0:0:
64,192,117102,1,0,0:0:0:0:
320,192,117215,1,0,0:0:0:0:
320,192,117328,1,0,0:0:0:0:
192,192,117328,1,8,0:0:0:0:
192,192,117553,1,0,0:0:0:0:
192,192,117666,1,0,0:0:0:0:
192,192,117779,1,0,0:0:0:0:
448,192,117779,1,10,0:0:0:0:
64,192,118004,128,0,118230:0:0:0:0:
320,192,118230,128,0,118456:0:0:0:0:
192,192,118230,1,8,0:0:0:0:
448,192,118456,1,0,0:0:0:0:
64,192,118681,1,0,0:0:0:0:
320,192,118681,1,10,0:0:0:0:
448,192,118907,1,0,0:0:0:0:
192,192,119019,1,0,0:0:0:0:
192,192,119132,1,0,0:0:0:0:
320,192,119132,128,8,119358:0:0:0:0:
64,192,119358,128,0,119583:0:0:0:0:
448,192,119583,128,0,119809:0:0:0:0:
320,192,119583,1,10,0:0:0:0:
192,192,119809,128,0,120034:0:0:0:0:
320,192,120034,128,0,120260:0:0:0:0:
64,192,120034,1,8,0:0:0:0:
64,192,120373,1,0,0:0:0:0:
64,192,120486,128,0,120711:0:0:0:0:
320,192,120486,1,10,0:0:0:0:
448,192,120711,128,0,120937:0:0:0:0:
192,192,120937,128,0,121162:0:0:0:0:
64,192,120937,1,8,0:0:0:0:
320,192,121162,128,0,121388:0:0:0:0:
64,192,121388,128,0,121613:0:0:0:0:
192,192,121388,1,10,0:0:0:0:
448,192,121726,1,0,0:0:0:0:
448,192,121839,128,0,122065:0:0:0:0:
192,192,121839,1,8,0:0:0:0:
64,192,122065,1,0,0:0:0:0:
192,192,122290,128,0,122741:0:0:0:0:
320,192,122290,128,10,122741:0:0:0:0:
448,192,122628,1,0,0:0:0:0:
448,192,122741,1,0,0:0:0:0:
64,192,122741,1,12,0:0:0:0:
192,192,122967,1,0,0:0:0:0:
192,192,123080,1,0,0:0:0:0:
192,192,123192,1,0,0:0:0:0:
320,192,123192,1,10,0:0:0:0:
64,192,123418,128,0,123644:0:0:0:0:
448,192,123644,128,0,124095:0:0:0:0:
192,192,123644,1,8,0:0:0:0:
320,192,123869,1,0,0:0:0:0:
64,192,124095,1,10,0:0:0:0:
192,192,124095,1,0,0:0:0:0:
320,192,124320,1,0,0:0:0:0:
64,192,124433,1,0,0:0:0:0:
64,192,124546,1,0,0:0:0:0:
448,192,124546,1,8,0:0:0:0:
320,192,124771,1,0,0:0:0:0:
320,192,124884,1,0,0:0:0:0:
320,192,124997,1,0,0:0:0:0:
192,192,124997,1,10,0:0:0:0:
448,192,125222,128,0,125448:0:0:0:0:
64,192,125448,128,0,125674:0:0:0:0:
320,192,125448,1,8,0:0:0:0:
192,192,125674,1,0,0:0:0:0:
448,192,125899,1,10,0:0:0:0:
320,192,125899,1,0,0:0:0:0:
192,192,126125,1,0,0:0:0:0:
448,192,126238,1,0,0:0:0:0:
448,192,126350,1,0,0:0:0:0:
64,192,126350,128,8,126576:0:0:0:0:
320,192,126576,128,0,126801:0:0:0:0:
192,192,126801,128,0,127027:0:0:0:0:
64,192,126801,1,10,0:0:0:0:
448,192,127027,128,0,127253:0:0:0:0:
64,192,127253,128,0,127478:0:0:0:0:
320,192,127253,1,8,0:0:0:0:
320,192,127591,1,0,0:0:0:0:
320,192,127704,128,0,127929:0:0:0:0:
64,192,127704,1,10,0:0:0:0:
192,192,127929,128,0,128155:0:0:0:0:
448,192,128155,128,0,128380:0:0:0:0:
320,192,128155,1,8,0:0:0:0:
64,192,128380,128,0,129508:0:0:0:0:
192,192,128380,1,0,0:0:0:0:
448,192,128493,1,0,0:0:0:0:
320,192,128606,1,2,0:0:0:0:
192,192,128606,1,8,0:0:0:0:
320,192,128831,1,0,0:0:0:0:
192,192,129057,1,8,0:0:0:0:
448,192,129057,1,0,0:0:0:0:
320,192,129170,1,0,0:0:0:0:
448,192,129283,1,0,0:0:0:0:
192,192,129508,1,4,0:0:0:0:
320,192,129508,1,10,0:0:0:0:
