osu file format v14

[General]
AudioFilename: audio.mp3
AudioLeadIn: 0
PreviewTime: 100523
Countdown: 0
SampleSet: Drum
StackLeniency: 0.7
Mode: 3
LetterboxInBreaks: 0
SpecialStyle: 0
WidescreenStoryboard: 0

[Editor]
DistanceSpacing: 0.8
BeatDivisor: 4
GridSize: 8
TimelineZoom: 1

[Metadata]
Title:Einen Jodler hoer ich gern
TitleUnicode:Einen Jodler hör ich gern
Artist:Takeo Ischi
ArtistUnicode:Takeo Ischi
Creator:Feerum
Version:Einfach
Source:
Tags:german yodelling yodeling jodel Ein Jodler zieht hinaus in die Welt 石井健雄 Ishii Herma Karner Leopold Kubanek Walter Lechner
BeatmapID:1439799
BeatmapSetID:680986

[Difficulty]
HPDrainRate:6.5
CircleSize:4
OverallDifficulty:6
ApproachRate:10
SliderMultiplier:1.4
SliderTickRate:1

[Events]
//Background and Video events
0,0,"BG2.jpg",0,0
//Break Periods
//Storyboard Layer 0 (Background)
//Storyboard Layer 1 (Fail)
//Storyboard Layer 2 (Pass)
//Storyboard Layer 3 (Foreground)
//Storyboard Layer 4 (Overlay)
//Storyboard Sound Samples

[TimingPoints]
35,451.127819548872,4,3,1,65,1,0
36125,-100,4,3,1,65,0,1
49659,-100,4,3,1,65,0,0
50561,-100,4,3,1,65,0,1
64546,-100,4,3,1,65,0,0
101087,-100,4,3,1,65,0,1
114621,-100,4,3,1,65,0,0
115523,-100,4,3,1,65,0,1
129508,-100,4,3,1,65,0,0

[HitObjects]
448,192,35,128,12,486:0:0:0:0:
64,192,486,128,0,937:0:0:0:0:
320,192,937,1,0,0:0:0:0:
448,192,1388,1,0,0:0:0:0:
64,192,1839,1,8,0:0:0:0:
192,192,2290,1,8,0:0:0:0:
448,192,2741,1,8,0:0:0:0:
320,192,3192,128,8,3644:0:0:0:0:
64,192,3644,128,8,4095:0:0:0:0:
448,192,4095,128,10,4546:0:0:0:0:
192,192,4546,128,8,4997:0:0:0:0:
320,192,4997,128,10,5448:0:0:0:0:
64,192,5448,128,8,6350:0:0:0:0:
448,192,6350,1,8,0:0:0:0:
192,192,6801,1,10,0:0:0:0:
320,192,7253,1,12,0:0:0:0:
448,192,7704,1,10,0:0:0:0:
64,192,8155,1,8,0:0:0:0:
448,192,9057,1,8,0:0:0:0:
192,192,9508,1,10,0:0:0:0:
320,192,9959,1,8,0:0:0:0:
64,192,10862,1,8,0:0:0:0:
320,192,11313,1,10,0:0:0:0:
448,192,11764,1,8,0:0:0:0:
64,192,12666,1,8,0:0:0:0:
320,192,13117,1,10,0:0:0:0:
448,192,13568,128,8,14019:0:0:0:0:
64,192,14019,128,10,14471:0:0:0:0:
320,192,14471,1,8,0:0:0:0:
448,192,14922,1,10,0:0:0:0:
64,192,15373,1,8,0:0:0:0:
448,192,16275,1,8,0:0:0:0:
192,192,16726,1,10,0:0:0:0:
320,192,17177,1,8,0:0:0:0:
448,192,18080,1,8,0:0:0:0:
64,192,18531,1,10,0:0:0:0:
320,192,18982,1,8,0:0:0:0:
320,192,19659,1,0,0:0:0:0:
64,192,19884,1,8,0:0:0:0:
448,192,20335,1,10,0:0:0:0:
192,192,20786,1,8,0:0:0:0:
448,192,21238,128,8,21689:0:0:0:0:
64,192,21689,1,12,0:0:0:0:
320,192,22140,1,10,0:0:0:0:
448,192,22591,1,8,0:0:0:0:
192,192,23493,1,8,0:0:0:0:
320,192,23944,1,10,0:0:0:0:
64,192,24395,1,8,0:0:0:0:
448,192,25298,1,8,0:0:0:0:
192,192,25749,1,10,0:0:0:0:
320,192,26200,1,8,0:0:0:0:
64,192,27102,1,8,0:0:0:0:
320,192,27553,1,10,0:0:0:0:
192,192,28004,128,8,28456:0:0:0:0:
320,192,28456,128,10,28907:0:0:0:0:
448,192,28907,1,8,0:0:0:0:
192,192,29358,1,10,0:0:0:0:
64,192,29809,1,8,0:0:0:0:
192,192,30711,1,8,0:0:0:0:
320,192,31162,1,10,0:0:0:0:
448,192,31613,1,8,0:0:0:0:
192,192,32516,1,8,0:0:0:0:
320,192,32967,1,10,0:0:0:0:
64,192,33418,1,8,0:0:0:0:
448,192,33869,1,10,0:0:0:0:
192,192,34320,128,8,34771:0:0:0:0:
320,192,34771,128,10,35222:0:0:0:0:
448,192,35222,128,8,35674:0:0:0:0:
192,192,35674,128,10,36125:0:0:0:0:
64,192,36125,5,12,0:0:0:0:
320,192,36576,1,10,0:0:0:0:
192,192,37027,1,8,0:0:0:0:
448,192,37478,1,10,0:0:0:0:
64,192,37929,128,8,38380:0:0:0:0:
320,192,38380,128,10,38831:0:0:0:0:
192,192,38831,128,8,39283:0:0:0:0:
448,192,39283,128,10,39734:0:0:0:0:
320,192,39734,1,8,0:0:0:0:
64,192,40185,1,10,0:0:0:0:
448,192,40636,1,8,0:0:0:0:
192,192,41087,1,10,0:0:0:0:
320,192,41538,128,8,41989:0:0:0:0:
64,192,41989,128,10,42441:0:0:0:0:
448,192,42441,128,8,42892:0:0:0:0:
192,192,42892,128,10,43343:0:0:0:0:
320,192,43343,1,8,0:0:0:0:
192,192,43794,1,10,0:0:0:0:
448,192,44245,1,8,0:0:0:0:
64,192,44696,1,10,0:0:0:0:
320,192,45147,128,8,45598:0:0:0:0:
192,192,45598,128,10,46050:0:0:0:0:
448,192,46050,128,8,46501:0:0:0:0:
64,192,46501,128,10,46952:0:0:0:0:
448,192,46952,1,8,0:0:0:0:
64,192,47403,1,10,0:0:0:0:
320,192,47854,1,8,0:0:0:0:
192,192,48305,1,10,0:0:0:0:
448,192,48756,128,8,49207:0:0:0:0:
320,192,49207,128,10,49659:0:0:0:0:
64,192,49659,1,8,0:0:0:0:
192,192,50110,128,10,50561:0:0:0:0:
448,192,50561,1,12,0:0:0:0:
320,192,51012,1,10,0:0:0:0:
64,192,51463,1,8,0:0:0:0:
448,192,51914,128,10,52365:0:0:0:0:
192,192,52365,1,8,0:0:0:0:
320,192,52816,1,10,0:0:0:0:
64,192,53268,1,8,0:0:0:0:
192,192,53719,128,10,54170:0:0:0:0:
448,192,54170,1,8,0:0:0:0:
192,192,54621,1,10,0:0:0:0:
320,192,55072,1,8,0:0:0:0:
64,192,55523,1,10,0:0:0:0:
192,192,55974,1,8,0:0:0:0:
320,192,56425,1,10,0:0:0:0:
448,192,56877,1,8,0:0:0:0:
64,192,57328,128,10,57779:0:0:0:0:
320,192,57779,1,12,0:0:0:0:
192,192,58230,1,10,0:0:0:0:
448,192,58681,1,8,0:0:0:0:
320,192,59132,128,10,59583:0:0:0:0:
64,192,59583,1,8,0:0:0:0:
192,192,60034,1,10,0:0:0:0:
448,192,60486,1,8,0:0:0:0:
64,192,60937,128,10,61388:0:0:0:0:
320,192,61388,1,8,0:0:0:0:
192,192,61839,1,10,0:0:0:0:
448,192,62290,1,8,0:0:0:0:
64,192,62741,1,10,0:0:0:0:
320,192,63192,128,8,64546:0:0:0:0:
192,192,64546,1,10,0:0:0:0:
448,192,64997,128,12,65448:0:0:0:0:
64,192,65448,128,0,65899:0:0:0:0:
320,192,65899,1,0,0:0:0:0:
192,192,66350,1,0,0:0:0:0:
448,192,66801,1,8,0:0:0:0:
320,192,67253,1,8,0:0:0:0:
64,192,67704,1,8,0:0:0:0:
192,192,68155,128,8,68606:0:0:0:0:
448,192,68606,128,8,69057:0:0:0:0:
320,192,69057,128,10,69508:0:0:0:0:
64,192,69508,128,8,69959:0:0:0:0:
192,192,69959,128,10,70410:0:0:0:0:
448,192,70410,128,8,71313:0:0:0:0:
320,192,71313,1,8,0:0:0:0:
64,192,71764,1,10,0:0:0:0:
320,192,72215,1,12,0:0:0:0:
192,192,72666,1,10,0:0:0:0:
448,192,73117,1,8,0:0:0:0:
64,192,74019,1,8,0:0:0:0:
320,192,74471,1,10,0:0:0:0:
192,192,74922,1,8,0:0:0:0:
448,192,75824,1,8,0:0:0:0:
192,192,76275,1,10,0:0:0:0:
320,192,76726,1,8,0:0:0:0:
64,192,77628,1,8,0:0:0:0:
320,192,78080,1,10,0:0:0:0:
192,192,78531,128,8,78982:0:0:0:0:
448,192,78982,128,10,79433:0:0:0:0:
64,192,79433,1,8,0:0:0:0:
320,192,79884,1,10,0:0:0:0:
192,192,80335,1,8,0:0:0:0:
320,192,81238,1,8,0:0:0:0:
64,192,81689,1,10,0:0:0:0:
448,192,82140,1,8,0:0:0:0:
192,192,83042,1,8,0:0:0:0:
320,192,83493,1,10,0:0:0:0:
64,192,83944,1,8,0:0:0:0:
64,192,84621,1,0,0:0:0:0:
448,192,84847,1,8,0:0:0:0:
192,192,85298,1,10,0:0:0:0:
320,192,85749,1,8,0:0:0:0:
64,192,86200,128,8,86651:0:0:0:0:
448,192,86651,1,12,0:0:0:0:
320,192,87102,1,10,0:0:0:0:
64,192,87553,1,8,0:0:0:0:
192,192,88456,1,8,0:0:0:0:
448,192,88907,1,10,0:0:0:0:
64,192,89358,1,8,0:0:0:0:
320,192,90260,1,8,0:0:0:0:
192,192,90711,1,10,0:0:0:0:
448,192,91162,1,8,0:0:0:0:
64,192,92065,1,8,0:0:0:0:
320,192,92516,1,10,0:0:0:0:
192,192,92967,128,8,93418:0:0:0:0:
448,192,93418,128,10,93869:0:0:0:0:
64,192,93869,1,8,0:0:0:0:
192,192,94320,1,10,0:0:0:0:
448,192,94771,1,8,0:0:0:0:
320,192,95674,1,8,0:0:0:0:
192,192,96125,1,10,0:0:0:0:
448,192,96576,1,8,0:0:0:0:
64,192,97478,1,8,0:0:0:0:
320,192,97929,1,10,0:0:0:0:
192,192,98380,1,8,0:0:0:0:
448,192,99057,1,0,0:0:0:0:
64,192,99283,128,8,99734:0:0:0:0:
320,192,99734,128,10,100185:0:0:0:0:
448,192,100185,128,8,100636:0:0:0:0:
192,192,100636,128,10,101087:0:0:0:0:
320,192,101087,1,12,0:0:0:0:
448,192,101538,1,10,0:0:0:0:
64,192,101989,1,8,0:0:0:0:
192,192,102441,1,10,0:0:0:0:
320,192,102892,128,8,103343:0:0:0:0:
448,192,103343,128,10,103794:0:0:0:0:
64,192,103794,128,8,104245:0:0:0:0:
192,192,104245,128,10,104696:0:0:0:0:
320,192,104696,1,8,0:0:0:0:
64,192,105147,1,10,0:0:0:0:
448,192,105598,1,8,0:0:0:0:
192,192,106050,1,10,0:0:0:0:
320,192,106501,128,8,106952:0:0:0:0:
64,192,106952,128,10,107403:0:0:0:0:
448,192,107403,128,8,107854:0:0:0:0:
192,192,107854,128,10,108305:0:0:0:0:
64,192,108305,1,8,0:0:0:0:
448,192,108756,1,10,0:0:0:0:
192,192,109207,1,8,0:0:0:0:
320,192,109659,1,10,0:0:0:0:
64,192,110110,128,8,110561:0:0:0:0:
448,192,110561,128,10,111012:0:0:0:0:
192,192,111012,128,8,111463:0:0:0:0:
320,192,111463,128,10,111914:0:0:0:0:
192,192,111914,1,8,0:0:0:0:
448,192,112365,1,10,0:0:0:0:
64,192,112816,1,8,0:0:0:0:
320,192,113268,1,10,0:0:0:0:
192,192,113719,128,8,114170:0:0:0:0:
448,192,114170,128,10,114621:0:0:0:0:
64,192,114621,1,8,0:0:0:0:
320,192,115072,128,10,115523:0:0:0:0:
192,192,115523,1,12,0:0:0:0:
448,192,115974,1,10,0:0:0:0:
64,192,116425,1,8,0:0:0:0:
192,192,116877,128,10,117328:0:0:0:0:
320,192,117328,1,8,0:0:0:0:
64,192,117779,1,10,0:0:0:0:
448,192,118230,1,8,0:0:0:0:
320,192,118681,128,10,119132:0:0:0:0:
192,192,119132,1,8,0:0:0:0:
64,192,119583,1,10,0:0:0:0:
320,192,120034,1,8,0:0:0:0:
192,192,120486,1,10,0:0:0:0:
448,192,120937,1,8,0:0:0:0:
320,192,121388,1,10,0:0:0:0:
192,192,121839,1,8,0:0:0:0:
64,192,122290,128,10,122741:0:0:0:0:
448,192,122741,1,12,0:0:0:0:
192,192,123192,1,10,0:0:0:0:
320,192,123644,1,8,0:0:0:0:
448,192,124095,128,10,124546:0:0:0:0:
192,192,124546,1,8,0:0:0:0:
320,192,124997,1,10,0:0:0:0:
192,192,125448,1,8,0:0:0:0:
64,192,125899,128,10,126350:0:0:0:0:
320,192,126350,1,8,0:0:0:0:
192,192,126801,1,10,0:0:0:0:
448,192,127253,1,8,0:0:0:0:
64,192,127704,1,10,0:0:0:0:
320,192,128155,128,8,129508:0:0:0:0:
192,192,129508,1,14,0:0:0:0:
