osu file format v14

[General]
AudioFilename: ikazuchi.mp3
AudioLeadIn: 0
PreviewTime: 108300
Countdown: 1
SampleSet: Normal
StackLeniency: 0.7
Mode: 0
LetterboxInBreaks: 1
WidescreenStoryboard: 0

[Editor]
DistanceSpacing: 1
BeatDivisor: 4
GridSize: 4
TimelineZoom: 3.599998

[Metadata]
Title:IKAZUCHI
TitleUnicode:怒槌
Artist:Takenobu Mitsuyoshi
ArtistUnicode:光吉 猛修
Creator:BluOxy
Version:MASTER
Source:CHUNITHM
Tags:SEELISCH TACT SEGA
BeatmapID:1042623
BeatmapSetID:489136

[Difficulty]
HPDrainRate:7
CircleSize:4
OverallDifficulty:8
ApproachRate:9.3
SliderMultiplier:1.6
SliderTickRate:1

[Events]
//Background and Video events
0,0,"pixiv-fantasia-art-demon-mechi.jpg",0,0
//Break Periods
//Storyboard Layer 0 (Background)
//Storyboard Layer 1 (Fail)
//Storyboard Layer 2 (Pass)
//Storyboard Layer 3 (Foreground)
//Storyboard Layer 4 (Overlay)
//Storyboard Sound Samples

[TimingPoints]
300,300,4,1,1,50,1,0
300,-100,4,1,5,50,0,0
3900,-100,4,1,4,50,0,0
4200,-100,4,1,1,50,0,0
4350,-100,4,1,4,50,0,0
4650,-100,4,1,1,50,0,0
4800,-100,4,1,4,50,0,0
5100,-100,4,1,2,50,0,0
7200,-100,4,1,3,50,0,0
7500,-100,4,1,2,50,0,0
8700,-66.6666666666667,4,1,2,50,0,0
9000,-100,4,1,2,50,0,0
9300,-100,4,1,0,50,0,0
9600,-100,4,1,2,50,0,0
9900,-100,4,1,2,60,0,0
29100,-100,4,1,1,60,0,0
29700,-200,4,1,1,60,0,0
31500,-100,4,1,1,60,0,0
32100,-200,4,1,1,60,0,0
33900,-100,4,1,1,60,0,0
34500,-200,4,1,1,60,0,0
36300,-100,4,1,1,60,0,0
36900,-200,4,1,1,60,0,0
38700,-100,4,1,2,60,0,0
49500,-100,4,1,2,60,0,0
68700,-200,4,1,6,40,0,0
84900,-100,4,1,6,40,0,0
85500,-200,4,1,6,40,0,0
86100,-100,4,1,6,40,0,0
86700,-200,4,1,6,40,0,0
87300,-100,4,1,6,40,0,0
87900,-200,4,2,0,30,0,0
88500,-200,4,2,0,20,0,0
89100,-100,4,1,2,60,0,0
96300,-100,4,1,7,60,0,0
97500,-100,4,2,0,60,0,0
98700,-100,4,1,5,60,0,0
105900,-66.6666666666667,4,1,7,60,0,0
106125,-100,4,1,7,60,0,0
106200,-100,4,1,7,60,0,0
106500,-100,4,1,7,60,0,0
107100,-66.6666666666667,4,1,7,60,0,0
107325,-100,4,1,7,60,0,0
107400,-66.6666666666667,4,1,7,60,0,0
107700,-100,4,1,5,60,0,0
108300,-100,4,1,5,60,0,0
111300,-83.3333333333333,4,1,5,60,0,0
111900,-100,4,1,5,60,0,0
116700,-100,4,1,7,60,0,0
117600,-66.6666666666667,4,1,7,60,0,0
117900,-90.9090909090909,4,1,5,70,0,1
122100,-90.9090909090909,4,1,2,70,0,1
122700,-100,4,1,2,60,0,0
123300,300,4,1,5,70,1,1
123300,-90.9090909090909,4,1,5,70,0,1
125100,-76.9230769230769,4,1,5,70,0,1
125700,-50,4,1,5,70,0,1
126900,-100,4,1,2,70,0,1
127050,-100,4,1,5,70,0,1
127500,-100,4,1,2,70,0,1
127650,-100,4,1,5,70,0,1
128100,-100,4,1,2,60,0,0
137100,-76.9230769230769,4,1,2,60,0,0
137700,-50,4,1,2,60,0,0
138300,300,4,1,2,60,1,1
138300,-50,4,1,7,60,0,1
141900,-50,4,1,7,60,0,0
142125,-100,4,1,7,60,0,0
142425,-100,4,1,0,60,0,0
142650,-50,4,1,7,60,0,0
142875,-100,4,1,7,60,0,0
143175,-100,4,1,0,60,0,0
143400,-50,4,1,7,60,0,0
143625,-200,4,1,7,60,0,0
145425,-200,4,1,7,5,0,0
145500,-100,4,1,2,60,0,0

[Colours]
Combo1 : 236,83,0
Combo2 : 208,208,0

[HitObjects]
80,96,300,6,0,P|84:136|92:180,1,80,10|0,0:0|0:0,0:0:0:0:
182,220,600,1,0,0:0:0:0:
106,274,750,1,10,0:0:0:0:
106,274,825,1,2,0:0:0:0:
106,274,900,2,0,L|58:266,2,40,2|2|10,0:0|0:0|0:0,0:0:0:0:
188,321,1200,2,0,P|226:312|269:306,1,80,2|2,0:0|0:0,0:0:0:0:
386,337,1500,6,0,P|390:297|398:253,1,80,10|0,0:0|0:0,0:0:0:0:
381,370,1800,1,0,0:0:0:0:
467,206,1950,1,10,0:0:0:0:
467,206,2025,1,2,0:0:0:0:
467,206,2100,2,0,L|515:198,2,40,2|2|10,0:0|0:0|0:0,0:0:0:0:
312,91,2400,1,2,0:0:0:0:
403,9,2550,2,0,L|397:63,1,40,2|2,0:0|0:0,0:0:0:0:
302,172,2700,6,0,P|265:167|219:161,1,80,10|0,0:0|0:0,0:0:0:0:
384,186,3000,1,0,0:0:0:0:
139,195,3150,1,10,0:0:0:0:
135,177,3225,1,2,0:0:0:0:
130,158,3300,2,0,L|120:108,1,40,2|2,0:0|0:0,0:0:0:0:
25,19,3450,2,0,B|64:54|64:54|33:160,1,160,8|0,0:0|0:0,0:0:0:0:
52,260,3900,6,0,P|43:225|36:178,1,80,8|8,0:0|0:0,0:0:0:0:
77,343,4200,1,8,0:0:0:0:
277,218,4350,2,0,P|282:183|284:131,1,80,8|8,0:0|0:0,0:0:0:0:
264,306,4650,1,8,0:0:0:0:
282,36,4800,1,8,0:0:0:0:
305,44,5100,6,0,P|309:86|314:128,1,80
225,95,5400,1,8,0:0:0:0:
397,71,5550,1,0,0:0:0:0:
168,193,5700,1,0,0:0:0:0:
168,193,5775,1,0,0:0:0:0:
168,193,5850,2,0,L|162:246,1,40
86,288,6000,2,0,L|89:327,1,40,8|0,0:0|0:0,0:0:0:0:
79,133,6150,2,0,L|69:203,1,40,8|0,0:0|0:0,0:0:0:0:
4,81,6300,5,8,0:0:0:0:
24,58,6375,1,8,0:0:0:0:
51,44,6450,1,8,0:0:0:0:
81,39,6525,1,0,0:0:0:0:
110,46,6600,1,8,0:0:0:0:
122,276,6750,1,8,0:0:0:0:
8,273,6900,2,0,P|45:279|94:290,1,80,8|0,0:0|0:0,0:0:0:0:
143,153,7200,2,0,P|180:147|226:136,1,80,2|0,0:0|0:0,0:0:0:0:
318,193,7500,6,0,P|314:234|311:283,1,80
234,310,7800,1,8,0:0:0:0:
400,234,7950,1,0,0:0:0:0:
257,127,8100,1,0,0:0:0:0:
257,127,8175,1,0,0:0:0:0:
257,127,8250,2,0,L|249:81,1,40
339,49,8400,2,0,L|346:9,1,40,2|0,0:0|0:0,0:0:0:0:
418,158,8550,2,0,L|409:114,1,40,2|0,0:0|0:0,0:0:0:0:
466,286,8700,6,0,L|460:328,6,30.0000011444092,2|2|2|2|2|2|2,0:0|0:0|0:0|0:0|0:0|0:0|0:0,0:0:0:0:
380,384,9000,1,2,0:0:0:0:
376,364,9075,1,2,0:0:0:0:
372,344,9150,1,2,0:0:0:0:
302,223,9300,5,2,0:0:0:0:
297,243,9375,1,2,0:0:0:0:
293,262,9450,2,2,L|285:301,1,40
217,365,9600,1,2,0:0:0:0:
193,332,9675,1,0,0:0:0:0:
157,312,9750,1,2,0:0:0:0:
117,309,9825,1,0,0:0:0:0:
80,323,9900,6,0,B|101:287|101:287|98:244,1,80,4|0,0:0|0:0,0:0:0:0:
20,113,10200,2,0,B|-1:149|-1:149|2:192,1,80,8|0,0:0|0:0,0:0:0:0:
151,76,10500,1,0,0:0:0:0:
151,76,10575,1,0,0:0:0:0:
151,76,10650,2,0,L|95:64,1,40
230,46,10800,2,0,L|268:3,1,40,8|0,0:0|0:0,0:0:0:0:
215,130,10950,2,0,L|232:184,1,40,8|0,0:0|0:0,0:0:0:0:
289,307,11100,6,0,P|293:265|301:225,1,80,8|0,0:0|0:0,0:0:0:0:
206,331,11400,1,8,0:0:0:0:
367,352,11550,1,8,0:0:0:0:
432,165,11700,2,0,P|427:130|422:96,1,40,8|0,0:0|0:0,0:0:0:0:
435,189,11850,1,0,0:0:0:0:
359,68,12000,2,0,B|371:0|371:0|379:14,1,80,8|0,0:0|0:0,0:0:0:0:
492,249,12300,6,0,P|457:270|396:268,1,80,8|8,0:3|0:3,0:0:0:0:
344,148,12600,2,0,L|351:102,2,40,8|0|0,0:0|0:0|0:0,0:0:0:0:
260,197,12900,1,8,0:2:0:0:
260,197,12975,1,8,0:2:0:0:
260,197,13050,2,8,L|266:243,1,40,8|8,0:2|0:2,0:2:0:0:
244,113,13200,1,8,0:0:0:0:
183,274,13350,6,0,L|176:320,2,40,8|8|8,0:2|0:2|0:2,0:0:0:0:
272,318,13650,1,0,0:0:0:0:
106,378,13800,1,8,0:2:0:0:
100,358,13875,1,8,0:2:0:0:
87,342,13950,1,8,0:2:0:0:
71,329,14025,1,8,0:2:0:0:
48,323,14100,5,8,0:0:0:0:
83,304,14175,1,8,0:0:0:0:
98,267,14250,1,8,0:0:0:0:
10,246,14400,1,8,0:0:0:0:
176,324,14550,1,8,0:0:0:0:
71,188,14700,6,0,P|74:146|92:111,1,80,4|0,0:0|0:0,0:0:0:0:
290,185,15000,2,0,P|286:226|268:261,1,80,8|0,0:0|0:0,0:0:0:0:
164,180,15300,1,0,0:0:0:0:
164,180,15375,1,0,0:0:0:0:
164,180,15450,2,0,L|213:193,1,40
338,142,15600,2,0,L|301:177,1,40,8|0,0:0|0:0,0:0:0:0:
290,319,15750,2,0,L|277:269,1,40,8|0,0:0|0:0,0:0:0:0:
396,296,15900,5,8,0:0:0:0:
379,374,16050,1,0,0:0:0:0:
384,214,16200,5,8,0:0:0:0:
396,296,16350,1,8,0:0:0:0:
296,148,16500,5,8,0:0:0:0:
492,185,16650,1,0,0:0:0:0:
296,148,16800,2,0,B|264:118|264:118|301:106,1,80,8|0,0:2|0:0,0:0:0:0:
489,28,17100,6,0,P|511:67|507:113,1,80,8|8,0:3|0:3,0:0:0:0:
335,152,17400,2,0,L|293:147,2,40,8|0|0,0:0|0:0|0:0,0:0:0:0:
433,247,17700,1,8,0:2:0:0:
433,247,17775,1,8,0:2:0:0:
433,247,17850,2,8,L|382:253,1,40,8|0,0:2|0:0,0:2:0:0:
510,238,18000,1,8,0:2:0:0:
358,355,18150,6,0,L|316:366,2,40,8|8|8,0:2|0:2|0:2,0:0:0:0:
465,169,18450,1,8,0:0:0:0:
482,312,18600,1,8,0:0:0:0:
485,331,18675,1,8,0:0:0:0:
487,350,18750,1,8,0:0:0:0:
354,259,18900,5,8,0:2:0:0:
334,262,18975,1,8,0:2:0:0:
314,259,19050,1,8,0:2:0:0:
295,252,19125,1,8,0:2:0:0:
266,280,19200,5,8,0:0:0:0:
229,263,19275,1,8,0:0:0:0:
189,267,19350,1,8,0:0:0:0:
156,289,19425,1,8,0:0:0:0:
138,325,19500,6,0,L|118:275,3,40,8|0|8|0,0:3|0:0|0:3|0:0,0:0:0:0:
46,263,19800,1,8,0:0:0:0:
52,244,19875,1,0,0:0:0:0:
58,225,19950,2,0,L|71:176,1,40
12,119,20100,5,0,0:0:0:0:
47,100,20175,1,0,0:0:0:0:
86,97,20250,1,0,0:0:0:0:
123,111,20325,1,0,0:0:0:0:
150,81,20400,5,8,0:0:0:0:
187,95,20475,1,0,0:0:0:0:
226,92,20550,1,8,0:0:0:0:
262,75,20625,1,0,0:0:0:0:
287,43,20700,6,0,L|302:93,3,40,8|0|0|0,0:0|0:0|0:0|0:0,0:0:0:0:
387,103,21000,1,8,0:0:0:0:
381,122,21075,1,0,0:0:0:0:
375,141,21150,2,0,L|362:190,1,40,8|0,0:0|0:0,0:0:0:0:
448,246,21300,5,8,0:0:0:0:
413,223,21375,1,0,0:0:0:0:
374,217,21450,1,0,0:0:0:0:
336,229,21525,1,0,0:0:0:0:
307,257,21600,1,8,0:0:0:0:
293,294,21675,1,0,0:0:0:0:
263,320,21750,1,0,0:0:0:0:
225,332,21825,1,0,0:0:0:0:
185,324,21900,6,0,P|178:283|170:237,1,80,8|8,3:0|0:3,0:0:0:0:
48,74,22200,2,0,P|54:44|61:6,2,40,8|0|0,0:0|0:0|0:0,0:0:0:0:
147,131,22500,1,8,0:2:0:0:
147,131,22575,1,8,0:2:0:0:
147,131,22650,2,8,P|150:150|154:170,1,40,8|8,0:2|0:2,0:2:0:0:
130,47,22800,1,8,0:0:0:0:
245,219,22950,6,0,P|241:238|237:258,2,40,8|8|8,0:2|0:2|0:2,0:0:0:0:
153,290,23250,1,8,0:2:0:0:
351,241,23400,1,8,0:2:0:0:
339,224,23475,1,8,0:2:0:0:
335,204,23550,1,8,0:2:0:0:
335,184,23625,1,8,0:2:0:0:
344,166,23700,5,8,0:0:0:0:
306,150,23775,1,8,0:0:0:0:
281,118,23850,1,8,0:0:0:0:
363,79,24000,1,8,0:0:0:0:
253,212,24150,1,8,0:0:0:0:
427,301,24300,6,0,L|413:353,3,40,8|0|8|0,0:0|0:0|0:3|0:0,0:0:0:0:
438,128,24600,1,8,0:0:0:0:
442,147,24675,1,0,0:0:0:0:
447,166,24750,2,0,L|458:215,1,40
468,42,24900,5,0,0:0:0:0:
442,70,24975,1,0,0:0:0:0:
405,84,25050,1,0,0:0:0:0:
365,81,25125,1,0,0:0:0:0:
337,110,25200,5,8,0:0:0:0:
317,75,25275,1,0,0:0:0:0:
283,56,25350,1,8,0:0:0:0:
244,53,25425,1,0,0:0:0:0:
212,65,25500,6,0,L|201:17,3,40,8|0|0|0,0:0|0:0|0:0|0:0,0:0:0:0:
115,180,25800,1,8,0:0:0:0:
119,160,25875,1,0,0:0:0:0:
124,140,25950,2,0,L|135:88,1,40,8|0,0:0|0:0,0:0:0:0:
44,232,26100,5,8,0:0:0:0:
82,221,26175,1,0,0:0:0:0:
121,229,26250,1,0,0:0:0:0:
152,253,26325,1,0,0:0:0:0:
167,289,26400,1,8,0:0:0:0:
198,325,26475,1,0,0:0:0:0:
247,351,26550,1,0,0:0:0:0:
311,351,26625,1,0,0:0:0:0:
379,323,26700,6,0,P|386:275|394:234,1,80,8|8,0:3|0:3,0:0:0:0:
512,60,27000,2,0,P|506:30|499:-8,2,40,8|0|0,0:0|0:0|0:0,0:0:0:0:
418,126,27300,1,8,0:2:0:0:
418,126,27375,1,8,0:2:0:0:
418,126,27450,2,8,P|415:145|411:165,1,40,8|0,0:2|0:0,0:2:0:0:
429,42,27600,1,8,0:2:0:0:
317,217,27750,6,0,P|321:236|325:256,2,40,8|8|8,0:2|0:2|0:2,0:0:0:0:
407,279,28050,1,8,0:2:0:0:
242,165,28200,1,8,0:0:0:0:
222,161,28275,1,8,0:0:0:0:
202,158,28350,1,8,0:0:0:0:
355,113,28500,5,2,0:0:0:0:
359,88,28575,1,2,0:0:0:0:
388,105,28650,1,2,0:0:0:0:
393,81,28725,1,2,0:0:0:0:
420,98,28800,1,2,0:0:0:0:
425,74,28875,1,2,0:0:0:0:
454,91,28950,1,2,0:0:0:0:
459,67,29025,1,2,0:0:0:0:
488,84,29100,5,4,0:0:0:0:
270,19,29250,2,0,B|276:70|276:70|247:112|247:112|260:181,1,160,4|0,0:0|0:0,0:0:0:0:
170,59,29700,5,0,0:0:0:0:
353,135,30000,1,0,0:0:0:0:
218,246,30300,2,0,B|172:253|172:253|142:241|142:241|99:249|99:249,1,120,8|0,0:0|0:0,0:0:0:0:
101,248,30900,2,0,L|87:193,1,40
286,310,31200,2,0,L|300:254,1,40
212,133,31500,5,4,0:0:0:0:
158,371,31650,2,0,B|163:316|163:316|196:286|196:286|203:226,1,160,4|0,0:0|0:0,0:0:0:0:
295,103,32100,5,0,0:0:0:0:
123,156,32400,1,0,0:0:0:0:
380,57,32700,2,0,L|403:184,1,120,8|0,0:0|0:0,0:0:0:0:
502,225,33300,2,0,L|516:170,1,40
317,287,33600,2,0,L|303:231,1,40
422,337,33900,5,4,0:0:0:0:
51,236,34050,2,0,B|106:244|106:244|151:222|151:222|210:231,1,160,4|0,0:0|0:0,0:0:0:0:
80,154,34500,1,0,0:0:0:0:
178,311,34800,1,0,0:0:0:0:
292,203,35100,6,0,B|287:161|287:161|304:129|304:129|298:88,1,120,8|0,0:0|0:0,0:0:0:0:
297,87,35700,2,0,L|253:76,1,40
317,287,36000,2,0,L|272:298,1,40
178,196,36300,5,4,0:0:0:0:
426,167,36450,2,0,B|371:161|371:161|325:186|325:186|270:178,1,160,4|0,0:0|0:0,0:0:0:0:
102,150,36900,5,0,0:0:0:0:
198,282,37200,1,0,0:0:0:0:
65,59,37500,2,0,L|199:67,1,120,8|0,0:0|0:0,0:0:0:0:
281,16,38100,2,0,L|325:4,1,40
369,108,38400,2,0,L|413:119,1,40
498,41,38700,5,12,0:3:0:0:
283,123,38850,1,8,0:3:0:0:
283,123,38925,1,0,0:0:0:0:
283,123,39000,2,0,L|298:204,1,80,8|0,0:0|0:0,0:0:0:0:
373,293,39300,1,8,0:2:0:0:
389,265,39375,1,8,0:2:0:0:
415,246,39450,1,8,0:2:0:0:
446,240,39525,1,8,0:2:0:0:
479,248,39600,2,0,L|465:342,1,80,8|8,0:0|0:0,0:0:0:0:
294,365,39900,5,8,0:0:0:0:
190,298,40050,2,8,L|148:304,2,40
271,223,40350,1,8,0:0:0:0:
177,158,40500,1,2,0:0:0:0:
146,167,40575,1,0,0:0:0:0:
115,161,40650,1,2,0:0:0:0:
86,146,40725,1,0,0:0:0:0:
62,123,40800,1,2,0:0:0:0:
31,114,40875,1,0,0:0:0:0:
0,116,40950,1,2,0:0:0:0:
25,197,41100,5,8,0:3:0:0:
148,78,41250,1,8,0:2:0:0:
148,78,41325,1,8,0:2:0:0:
148,78,41400,2,0,P|143:37|130:-12,1,80,8|0,0:0|0:0,0:0:0:0:
261,175,41700,1,8,0:2:0:0:
292,167,41775,1,8,0:2:0:0:
323,172,41850,1,8,0:2:0:0:
349,189,41925,1,8,0:2:0:0:
365,216,42000,1,8,0:0:0:0:
201,280,42150,6,0,P|202:260|205:240,2,40,8|8|8,0:2|0:2|0:2,0:0:0:0:
116,317,42450,1,8,0:2:0:0:
294,249,42600,1,8,0:0:0:0:
294,249,42675,1,8,0:0:0:0:
294,249,42750,1,8,0:0:0:0:
139,112,42900,1,8,0:2:0:0:
170,118,42975,1,8,0:2:0:0:
202,112,43050,1,8,0:2:0:0:
228,93,43125,1,8,0:2:0:0:
243,66,43200,1,8,0:0:0:0:
268,47,43275,1,0,0:0:0:0:
298,38,43350,1,8,0:0:0:0:
329,39,43425,1,0,0:0:0:0:
358,52,43500,6,0,P|348:90|343:130,1,80,4|8,0:0|0:2,0:0:0:0:
480,89,43800,2,0,P|489:127|494:167,1,80,8|0,0:0|0:0,0:0:0:0:
332,221,44100,1,8,0:2:0:0:
332,221,44175,1,8,0:2:0:0:
332,221,44250,1,8,0:2:0:0:
332,221,44325,1,8,0:2:0:0:
332,221,44400,2,0,P|326:240|324:260,1,40,8|0,0:0|0:0,0:0:0:0:
503,250,44550,2,0,P|507:269|510:288,1,40,8|0,0:0|0:0,0:0:0:0:
386,362,44700,6,0,P|396:324|401:284,1,80,8|8,0:3|0:3,0:0:0:0:
224,323,45000,2,0,P|215:285|210:245,1,80,8|0,0:0|0:0,0:0:0:0:
412,193,45300,1,8,0:2:0:0:
412,193,45375,1,8,0:2:0:0:
412,193,45450,1,8,0:2:0:0:
412,193,45525,1,8,0:2:0:0:
412,193,45600,2,0,P|417:173|419:153,1,40,8|0,0:2|0:0,0:0:0:0:
201,162,45750,2,0,P|196:142|193:123,1,40,8|0,0:2|0:0,0:0:0:0:
276,18,45900,6,0,P|286:56|291:96,1,80,8|8,0:3|0:3,0:0:0:0:
107,67,46200,2,0,P|98:105|93:145,1,80,8|0,0:0|0:0,0:0:0:0:
303,185,46500,2,0,P|313:223|318:263,1,80,8|0,0:3|0:0,0:0:0:0:
80,236,46800,2,0,P|71:274|66:314,1,80,8|0,0:0|0:0,0:0:0:0:
211,351,47100,5,8,0:3:0:0:
209,339,47175,1,0,0:0:0:0:
207,327,47250,1,8,0:3:0:0:
205,315,47325,1,0,0:0:0:0:
203,303,47400,1,8,0:2:0:0:
201,291,47475,1,0,0:0:0:0:
199,279,47550,1,8,0:2:0:0:
197,267,47625,1,0,0:0:0:0:
285,281,47700,5,8,0:3:0:0:
291,249,47775,1,0,0:0:0:0:
297,217,47850,1,8,0:3:0:0:
303,185,47925,1,0,0:0:0:0:
309,153,48000,1,8,0:2:0:0:
316,121,48075,1,0,0:0:0:0:
322,89,48150,1,8,0:2:0:0:
329,57,48225,1,0,0:0:0:0:
333,25,48300,5,8,0:2:0:0:
426,95,48450,1,8,0:2:0:0:
144,131,48600,5,8,0:2:0:0:
213,39,48750,1,8,0:2:0:0:
253,320,48900,5,8,0:2:0:0:
160,247,49050,1,8,0:2:0:0:
440,211,49200,5,8,0:2:0:0:
370,305,49350,1,8,0:2:0:0:
225,146,49500,5,4,0:0:0:0:
358,198,49650,1,8,0:3:0:0:
358,198,49725,1,0,0:0:0:0:
358,198,49800,2,0,P|365:155|376:111,1,80,8|0,0:0|0:0,0:0:0:0:
149,236,50100,1,8,0:2:0:0:
149,236,50175,1,8,0:2:0:0:
149,236,50250,2,8,P|145:216|138:192,1,40,8|8,0:2|0:2,0:2:0:0:
334,324,50400,2,0,L|337:304|340:284,1,40,8|0,0:0|0:0,0:0:0:0:
173,351,50550,2,0,P|169:331|166:311,1,40,8|0,0:0|0:0,0:0:0:0:
262,382,50700,5,8,0:0:0:0:
249,183,50850,2,0,L|242:128,1,40,8|8,0:3|0:3,0:0:0:0:
252,209,51000,1,8,0:0:0:0:
157,124,51150,1,8,0:0:0:0:
318,86,51300,1,8,0:0:0:0:
63,93,51450,1,8,0:2:0:0:
63,93,51525,1,8,0:2:0:0:
63,93,51600,2,0,B|72:25|72:25|82:38,1,80,8|0,0:0|0:0,0:0:0:0:
300,273,51900,6,0,P|261:287|220:283,1,80,8|8,0:3|0:3,0:0:0:0:
53,163,52200,2,0,L|43:121,2,40,8|0|8,0:0|0:0|0:2,0:0:0:0:
142,205,52500,1,8,0:2:0:0:
142,205,52575,1,8,0:2:0:0:
142,205,52650,2,0,L|133:260,1,40,8|0,0:2|0:0,0:0:0:0:
151,128,52800,1,8,0:2:0:0:
223,283,52950,6,0,L|233:325,2,40,8|8|8,0:2|0:2|0:2,0:0:0:0:
152,361,53250,1,8,0:2:0:0:
323,322,53400,1,8,0:2:0:0:
322,302,53475,1,8,0:2:0:0:
326,282,53550,1,8,0:2:0:0:
336,264,53625,1,8,0:2:0:0:
352,252,53700,5,8,0:0:0:0:
314,237,53775,1,8,0:0:0:0:
286,207,53850,1,8,0:0:0:0:
359,163,54000,1,8,0:0:0:0:
223,283,54150,1,8,0:0:0:0:
410,330,54300,5,4,0:0:0:0:
449,142,54450,1,8,0:3:0:0:
449,142,54525,1,0,0:0:0:0:
449,142,54600,2,0,P|451:184|440:224,1,80,8|8,0:0|0:2,0:0:0:0:
269,116,54900,1,8,0:2:0:0:
269,116,54975,1,8,0:2:0:0:
268,116,55050,2,0,P|269:138|273:158,1,40,8|0,0:2|0:0,0:0:0:0:
463,28,55200,2,0,P|463:48|460:70,1,40,8|0,0:0|0:0,0:0:0:0:
255,0,55350,2,0,P|256:22|260:42,1,40,8|0,0:0|0:0,0:0:0:0:
351,206,55500,5,8,0:0:0:0:
361,118,55650,1,8,0:3:0:0:
384,292,55800,5,8,0:0:0:0:
351,206,55950,1,8,0:0:0:0:
294,320,56100,5,8,0:0:0:0:
473,337,56250,1,8,0:2:0:0:
473,337,56325,1,8,0:2:0:0:
473,337,56400,2,0,B|506:314|506:314|469:302,1,80,8|0,0:0|0:0,0:0:0:0:
218,288,56700,6,0,P|212:333|232:375,1,80,8|8,0:3|0:3,0:0:0:0:
440,216,57000,2,0,L|482:221,2,40,8|0|0,0:0|0:0|0:0,0:0:0:0:
317,166,57300,1,8,0:2:0:0:
317,166,57375,1,8,0:2:0:0:
317,166,57450,2,0,L|365:160,1,40,8|0,0:2|0:0,0:0:0:0:
231,172,57600,1,8,0:2:0:0:
435,95,57750,6,0,L|475:85,2,40,8|8|8,0:2|0:2|0:2,0:0:0:0:
285,243,58050,1,8,0:2:0:0:
271,84,58200,1,8,0:2:0:0:
269,64,58275,1,8,0:2:0:0:
267,44,58350,1,8,0:2:0:0:
154,149,58500,5,8,0:0:0:0:
146,188,58575,1,8,0:0:0:0:
165,222,58650,1,8,0:0:0:0:
231,172,58800,1,8,0:0:0:0:
15,215,58950,1,8,0:0:0:0:
167,306,59100,6,0,L|208:314,3,40,8|0|8|0,0:3|0:0|0:3|0:0,0:0:0:0:
270,373,59400,1,8,0:0:0:0:
289,370,59475,1,0,0:0:0:0:
308,367,59550,2,0,L|347:361,1,40
437,343,59700,5,8,0:3:0:0:
432,302,59775,1,8,0:3:0:0:
450,266,59850,1,8,0:3:0:0:
480,239,59925,1,0,0:0:0:0:
456,206,60000,5,8,0:0:0:0:
486,179,60075,1,0,0:0:0:0:
504,143,60150,1,8,0:0:0:0:
499,102,60225,1,0,0:0:0:0:
473,71,60300,6,0,L|430:79,3,40,0|0|0|0,0:3|0:0|0:3|0:0,0:0:0:0:
361,136,60600,1,8,0:0:0:0:
342,133,60675,1,0,0:0:0:0:
323,130,60750,2,0,L|283:124,1,40
193,178,60900,5,8,0:3:0:0:
162,151,60975,1,8,0:3:0:0:
122,147,61050,1,8,0:3:0:0:
87,165,61125,1,0,0:0:0:0:
68,199,61200,1,8,0:0:0:0:
72,239,61275,1,0,0:0:0:0:
95,270,61350,1,8,0:2:0:0:
133,282,61425,1,0,0:0:0:0:
171,276,61500,6,0,L|254:266,1,80,8|8,0:3|0:3,0:0:0:0:
432,320,61800,2,0,L|479:328,2,40,8|0|0,0:0|0:0|0:0,0:0:0:0:
373,247,62100,1,8,0:2:0:0:
373,247,62175,1,8,0:2:0:0:
373,247,62250,2,0,L|309:256,1,40,8|0,0:2|0:0,0:0:0:0:
454,238,62400,1,8,0:2:0:0:
274,182,62550,6,0,L|234:175,2,40,8|8|8,0:2|0:2|0:2,0:0:0:0:
166,245,62850,1,8,0:2:0:0:
252,78,63000,1,8,0:2:0:0:
234,88,63075,1,8,0:2:0:0:
214,94,63150,1,8,0:2:0:0:
194,93,63225,1,8,0:2:0:0:
174,85,63300,5,8,0:0:0:0:
163,123,63375,1,8,0:0:0:0:
135,152,63450,1,8,0:0:0:0:
88,76,63600,1,8,0:0:0:0:
234,175,63750,1,8,0:0:0:0:
79,228,63900,6,0,L|40:220,3,40,8|0|8|0,0:3|0:0|0:3|0:0,0:0:0:0:
212,301,64200,1,8,0:0:0:0:
192,304,64275,1,0,0:0:0:0:
172,307,64350,2,0,L|127:315,1,40
311,374,64500,5,8,0:3:0:0:
287,341,64575,1,8,0:3:0:0:
281,301,64650,1,8,0:3:0:0:
299,265,64725,1,8,0:3:0:0:
281,229,64800,5,8,0:0:0:0:
320,229,64875,1,0,0:0:0:0:
354,209,64950,1,8,0:0:0:0:
379,178,65025,1,0,0:0:0:0:
390,139,65100,6,0,L|435:148,3,40,8|0|8|0,0:3|0:0|0:3|0:0,0:0:0:0:
236,115,65400,1,8,0:0:0:0:
255,111,65475,1,0,0:0:0:0:
274,107,65550,2,0,L|319:98,1,40,8|0,0:0|0:0,0:0:0:0:
155,76,65700,5,8,0:0:0:0:
180,106,65775,1,0,0:0:0:0:
189,145,65850,1,8,0:2:0:0:
183,183,65925,1,8,0:2:0:0:
162,216,66000,1,8,0:2:0:0:
118,236,66075,1,0,0:0:0:0:
62,232,66150,1,0,0:0:0:0:
14,188,66225,1,0,0:0:0:0:
11,116,66300,6,0,P|19:74|29:38,1,80,8|8,0:3|0:3,0:0:0:0:
228,27,66600,2,0,L|273:19,2,40,8|0|0,0:0|0:0|0:0,0:0:0:0:
106,134,66900,1,8,0:2:0:0:
106,134,66975,1,8,0:2:0:0:
106,134,67050,2,0,L|156:142,1,40,8|0,0:2|0:0,0:0:0:0:
11,116,67200,1,8,0:2:0:0:
194,285,67350,6,0,L|232:302,2,40,8|8|8,0:2|0:2|0:2,0:0:0:0:
105,325,67650,1,8,0:2:0:0:
318,224,67800,1,8,0:2:0:0:
317,243,67875,1,8,0:2:0:0:
315,262,67950,1,8,0:2:0:0:
241,119,68100,6,0,L|249:164,1,40,8|8,0:0|0:0,0:0:0:0:
403,186,68250,1,8,0:0:0:0:
231,114,68400,6,0,L|239:159,1,40,8|0,0:0|0:0,0:0:0:0:
416,190,68550,1,8,0:0:0:0:
380,30,68700,6,0,L|372:117,1,80,4|0,0:3|0:0,0:0:0:0:
156,208,69150,2,0,L|146:129,2,80,0|0|0,0:0|0:0|0:0,0:0:0:0:
233,277,69900,5,2,0:0:0:0:
92,294,70050,2,0,L|108:340,1,40,0|0,0:0|0:0,0:0:0:0:
245,193,70350,2,0,L|255:145,1,40,0|0,0:0|0:0,0:0:0:0:
77,53,70650,2,0,L|82:100,1,40
53,176,70875,1,0,0:0:0:0:
53,176,70950,1,0,0:0:0:0:
53,176,71025,1,0,0:0:0:0:
53,176,71100,6,0,B|91:162|91:162|135:168,1,80,8|0,0:0|0:0,0:0:0:0:
262,87,71550,2,0,B|224:101|224:101|180:95,1,80,0|0,0:0|0:0,0:0:0:0:
329,173,72000,1,0,0:0:0:0:
331,164,72075,1,0,0:0:0:0:
333,155,72150,1,0,0:0:0:0:
336,145,72225,1,0,0:0:0:0:
339,135,72300,6,0,L|361:46,1,80,2|0,0:0|0:0,0:0:0:0:
427,191,72750,2,0,L|442:135,2,40,0|0|0,0:0|0:0|0:0,0:0:0:0:
457,74,73200,1,0,0:0:0:0:
506,263,73350,1,0,0:0:0:0:
506,263,73425,1,0,0:0:0:0:
506,263,73500,5,2,0:0:0:0:
348,263,73650,1,0,0:0:0:0:
427,246,73800,1,8,0:0:0:0:
288,316,73950,1,8,0:0:0:0:
363,342,74100,2,0,B|364:308|364:308|356:283|356:283|359:255|359:255|343:228,1,120,8|0,0:0|0:0,0:0:0:0:
142,213,74700,6,0,B|141:179|141:179|149:154|149:154|146:126|146:126|161:99,1,120,2|0,0:0|0:0,0:0:0:0:
215,39,75300,1,0,0:0:0:0:
136,24,75450,1,0,0:0:0:0:
136,24,75525,1,0,0:0:0:0:
136,24,75600,2,0,L|86:35,1,40
367,149,75900,6,0,B|361:101|361:101,1,40,8|2,0:0|0:2,0:0:0:0:
284,92,76200,2,0,L|299:45,1,40,2|0,0:2|0:0,0:0:0:0:
433,73,76500,2,0,L|403:38,1,40,2|0,0:2|0:0,0:0:0:0:
257,197,76800,1,2,0:2:0:0:
266,198,76875,1,0,0:0:0:0:
276,200,76950,1,0,0:0:0:0:
285,201,77025,1,0,0:0:0:0:
294,203,77100,6,0,L|284:259,1,40,2|2,0:2|0:2,0:0:0:0:
469,221,77400,2,0,L|442:182,1,40,2|0,0:2|0:0,0:0:0:0:
374,239,77700,2,0,L|381:289,1,40,2|0,0:2|0:0,0:0:0:0:
367,149,78000,1,0,0:0:0:0:
397,366,78150,5,0,0:0:0:0:
397,366,78225,1,0,0:0:0:0:
397,366,78300,2,0,B|344:308|266:325|266:325|293:301|293:301|229:311|197:285,1,280
133,217,79500,6,0,B|116:318|116:318|102:299,1,120,4|0,0:3|0:0,0:0:0:0:
64,142,80100,2,0,L|56:182,1,40,8|0,0:0|0:0,0:0:0:0:
56,182,80400,1,8,0:0:0:0:
217,206,80700,5,8,0:0:0:0:
150,98,80850,2,0,L|142:148,1,40,8|8,0:0|0:0,0:0:0:0:
296,171,81150,1,0,0:0:0:0:
296,171,81225,1,0,0:0:0:0:
296,171,81300,2,0,L|307:88,1,80,8|0,0:0|0:0,0:0:0:0:
466,226,81750,5,8,0:3:0:0:
466,226,81825,1,8,0:3:0:0:
466,226,81900,2,0,L|414:244,1,40,8|8,0:3|0:0,0:0:0:0:
313,293,82200,2,0,L|364:299,1,40,8|0,0:0|0:0,0:0:0:0:
233,354,82500,1,8,0:0:0:0:
98,279,82650,1,0,0:0:0:0:
177,296,82800,1,8,0:0:0:0:
24,309,82950,5,0,0:0:0:0:
24,309,83025,1,0,0:0:0:0:
24,309,83100,2,0,L|13:256,1,40,8|8,0:0|0:0,0:0:0:0:
196,215,83400,2,0,L|207:162,1,40,8|0,0:0|0:0,0:0:0:0:
48,193,83700,2,0,L|37:140,1,40,8|0,0:0|0:0,0:0:0:0:
164,100,84000,2,0,L|175:47,1,40,8|8,0:0|3:0,0:0:0:0:
79,10,84225,5,8,3:0:0:0:
79,10,84300,2,0,L|89:90,1,80,8|8,3:0|0:0,0:0:0:0:
248,316,84900,6,0,B|270:335|270:335|290:267|290:267|268:244|268:244|289:171|289:171|312:194,1,240,4|0,0:0|0:0,0:0:0:0:
430,247,85500,6,0,B|417:285|417:285|389:258,1,80,8|8,0:0|0:0,0:0:0:0:
61,59,86100,6,0,B|89:35|89:35|121:101|71:137|103:200|103:200|128:177,1,240,4|0,0:0|0:0,0:0:0:0:
247,51,86700,6,0,B|219:24|219:24|206:62,1,80,8|8,0:0|0:0,0:0:0:0:
349,116,87300,6,0,B|332:147|362:168|362:168|372:204|407:182|407:182|445:194|449:154|449:154|470:126|441:101,1,240,4|0,0:0|0:0,0:0:0:0:
376,37,87900,5,2,0:0:0:0:
383,18,88050,1,0,0:0:0:0:
270,128,88200,1,0,0:0:0:0:
250,130,88350,1,0,0:0:0:0:
402,184,88500,1,2,0:0:0:0:
408,191,88650,1,0,0:0:0:0:
415,198,88800,1,0,0:0:0:0:
420,205,88950,1,0,0:0:0:0:
300,265,89100,6,0,B|257:223|257:223|146:240,1,160,4|8,0:0|0:0,0:0:0:0:
272,152,89550,1,0,0:0:0:0:
158,238,89700,2,0,P|152:195|142:152,1,80,8|8,0:3|0:3,0:0:0:0:
380,291,90000,2,0,P|388:248|401:203,1,80,8|0,0:0|0:0,0:0:0:0:
304,53,90300,6,0,B|282:181|282:181|270:143,1,160,8|8,0:3|0:0,0:0:0:0:
196,71,90750,1,8,0:2:0:0:
196,71,90825,1,8,0:2:0:0:
196,71,90900,2,0,B|186:8|186:8|177:22,1,80,8|8,0:3|0:3,0:0:0:0:
102,130,91200,2,0,L|93:174,2,40,8|8|8,0:0|0:2|0:2,0:0:0:0:
155,209,91500,6,0,B|113:205|113:205|81:226,1,80,8|8,0:3|0:3,0:0:0:0:
23,282,91800,1,8,0:0:0:0:
23,282,91875,1,0,0:0:0:0:
23,282,91950,1,8,0:2:0:0:
105,380,92100,2,0,B|146:383|146:383|178:362,1,80,8|8,0:3|0:3,0:0:0:0:
237,307,92400,1,8,0:0:0:0:
237,307,92475,1,8,0:2:0:0:
237,307,92550,1,8,0:2:0:0:
309,340,92700,6,0,B|321:351|337:376|337:376|372:319|438:324,1,160,8|8,0:3|0:0,0:0:0:0:
344,268,93150,1,8,0:2:0:0:
432,323,93300,2,0,P|438:279|446:243,1,80,8|8,0:3|0:3,0:0:0:0:
469,161,93600,1,8,0:0:0:0:
469,161,93675,1,8,0:2:0:0:
195,233,93825,5,8,0:2:0:0:
195,233,93900,2,0,P|186:150|169:59,1,160,4|8,0:0|0:0,0:0:0:0:
327,194,94350,1,8,0:2:0:0:
172,74,94500,2,0,L|96:96,1,80,8|8,0:3|0:3,0:0:0:0:
18,122,94800,1,8,0:0:0:0:
195,233,95100,6,0,L|276:254,1,80,0|0,0:3|0:3,0:0:0:0:
361,276,95400,1,8,0:0:0:0:
376,263,95475,1,8,0:2:0:0:
395,257,95550,1,8,0:2:0:0:
415,257,95625,1,8,0:2:0:0:
433,264,95700,5,8,0:3:0:0:
452,228,95775,1,8,0:2:0:0:
485,206,95850,1,8,0:3:0:0:
512,284,96000,1,8,0:0:0:0:
389,173,96150,1,0,0:0:0:0:
469,48,96300,5,8,0:0:0:0:
472,67,96375,1,0,0:0:0:0:
475,86,96450,1,8,0:0:0:0:
308,109,96600,5,8,0:0:0:0:
305,128,96675,1,0,0:0:0:0:
302,147,96750,1,8,0:0:0:0:
485,206,96900,5,8,0:0:0:0:
491,244,96975,1,0,0:0:0:0:
497,282,97050,1,8,0:0:0:0:
284,260,97200,5,8,0:0:0:0:
278,298,97275,1,0,0:0:0:0:
272,336,97350,1,8,0:0:0:0:
357,351,97500,6,0,L|364:302,1,40
378,232,97650,1,0,0:0:0:0:
164,298,97800,6,0,L|157:249,1,40
143,179,97950,1,0,0:0:0:0:
378,232,98100,6,0,L|385:183,1,40
399,113,98250,1,0,0:0:0:0:
143,179,98400,6,0,L|136:130,1,40
122,60,98550,1,0,0:0:0:0:
286,101,98700,5,2,0:3:0:0:
286,101,98775,1,0,0:0:0:0:
286,101,98850,2,0,L|276:165,1,40
267,220,99000,2,0,B|213:213|213:213|169:245|169:245|110:237,1,160,2|2,0:3|0:3,0:0:0:0:
98,234,99375,1,0,0:0:0:0:
75,227,99450,2,0,L|85:291,1,40
267,330,99600,1,2,0:3:0:0:
248,335,99675,1,0,0:0:0:0:
229,340,99751,2,0,L|235:300,1,40
65,144,99900,5,2,0:3:0:0:
65,144,99975,1,0,0:0:0:0:
65,144,100050,2,0,L|54:93,1,40
114,47,100200,2,0,B|168:40|168:40|212:72|212:72|271:64,1,160,2|2,0:3|0:3,0:0:0:0:
292,76,100575,1,0,0:0:0:0:
308,48,100650,1,0,0:0:0:0:
333,28,100725,1,0,0:0:0:0:
363,19,100800,2,0,L|371:64,1,40,2|0,0:3|0:0,0:0:0:0:
387,175,100950,2,0,L|379:135,1,40
283,229,101100,5,2,0:3:0:0:
283,229,101175,1,0,0:0:0:0:
283,229,101250,2,0,L|338:219,1,40
489,261,101400,2,0,B|410:254|438:335|352:326,1,160,2|2,0:3|0:3,0:0:0:0:
333,331,101775,1,0,0:0:0:0:
313,334,101850,2,0,L|261:344,1,40
33,273,102000,1,2,0:3:0:0:
52,269,102075,1,0,0:0:0:0:
71,266,102150,2,0,L|110:258,1,40
199,196,102300,5,2,0:3:0:0:
199,196,102375,1,0,0:0:0:0:
199,196,102450,2,0,L|192:249,1,40
34,113,102600,2,0,B|110:119|93:41|171:46,1,160,2|2,0:3|0:3,0:0:0:0:
190,42,102975,1,0,0:0:0:0:
210,42,103050,1,0,0:0:0:0:
229,45,103125,1,0,0:0:0:0:
247,52,103200,2,0,L|240:101,1,40,2|0,0:3|0:0,0:0:0:0:
280,206,103350,2,0,L|287:157,1,40
341,26,103500,5,2,0:3:0:0:
341,26,103575,1,0,0:0:0:0:
341,26,103650,2,0,L|334:79,1,40
379,144,103800,2,0,B|445:131|445:131|466:187|466:187|437:203,1,160,2|2,0:3|0:3,0:0:0:0:
419,212,104175,1,0,0:0:0:0:
400,220,104250,2,0,L|407:273,1,40
269,338,104400,1,2,0:3:0:0:
288,346,104475,1,0,0:0:0:0:
306,354,104550,2,0,L|311:314,1,40
240,121,104700,5,2,0:3:0:0:
240,121,104775,1,0,0:0:0:0:
240,121,104850,2,0,L|234:81,1,40
171,24,105000,2,0,B|105:11|105:11|84:67|84:67|112:83,1,160,2|2,0:3|0:3,0:0:0:0:
130,93,105375,1,0,0:0:0:0:
149,101,105450,2,0,L|142:154,1,40
22,165,105600,2,0,L|61:172,1,40,2|0,0:3|0:0,0:0:0:0:
209,233,105750,2,0,L|170:240,1,40
110,341,105900,6,0,B|98:248|98:248|79:287,1,120.000004577637,8|0,0:0|0:0,0:0:0:0:
27,379,106125,2,0,L|20:330,1,40,8|0,0:0|0:0,0:0:0:0:
306,251,106500,5,8,0:0:0:0:
302,269,106575,1,8,0:0:0:0:
300,288,106650,2,0,L|282:234,1,40,8|0,0:0|0:0,0:0:0:0:
353,164,106800,2,0,L|408:175,1,40,8|0,0:0|0:0,0:0:0:0:
434,279,106950,2,0,L|395:320,1,40,8|0,0:0|0:0,0:0:0:0:
30,135,107100,6,0,B|78:123|78:123|99:132|99:132|148:119,1,120.000004577637,8|8,0:0|0:0,0:0:0:0:
229,48,107325,2,0,L|223:90,1,40,8|0,0:0|0:0,0:0:0:0:
353,164,107700,5,2,3:0:0:0:
384,140,107775,1,0,0:0:0:0:
422,135,107850,1,0,0:0:0:0:
460,149,107925,1,0,0:0:0:0:
484,180,108000,1,2,3:0:0:0:
492,226,108075,1,0,0:0:0:0:
468,275,108150,1,2,3:0:0:0:
407,295,108225,1,0,0:0:0:0:
342,261,108300,5,0,0:0:0:0:
342,261,108375,1,0,0:0:0:0:
342,261,108450,2,0,L|286:270,1,40
17,323,108600,2,0,B|108:313|75:377|167:368,1,160,2|2,0:3|0:3,0:0:0:0:
195,361,108975,1,0,0:0:0:0:
222,344,109050,2,0,L|216:388,1,40
101,242,109200,1,2,0:3:0:0:
127,260,109275,1,0,0:0:0:0:
152,278,109350,2,0,L|146:238,1,40
238,198,109500,5,2,0:3:0:0:
228,159,109575,1,0,0:0:0:0:
247,124,109650,1,0,0:0:0:0:
283,107,109725,1,0,0:0:0:0:
322,114,109800,1,2,0:3:0:0:
347,144,109875,1,0,0:0:0:0:
386,151,109950,1,0,0:0:0:0:
422,135,110025,1,0,0:0:0:0:
449,105,110100,5,2,0:3:0:0:
452,85,110175,1,0,0:0:0:0:
456,65,110250,2,0,L|464:10,1,40
359,223,110400,1,2,0:3:0:0:
356,203,110475,1,0,0:0:0:0:
352,183,110550,2,0,L|344:128,1,40
487,270,110700,6,0,L|441:263,1,40,2|0,0:3|0:0,0:0:0:0:
372,342,110850,1,0,0:0:0:0:
342,314,110925,1,0,0:0:0:0:
303,303,111000,1,2,0:3:0:0:
264,313,111075,1,0,0:0:0:0:
238,343,111150,1,0,0:0:0:0:
199,354,111225,1,0,0:0:0:0:
160,341,111300,6,0,L|149:282,1,47.9999985351563,2|0,0:3|0:0,0:0:0:0:
63,258,111450,1,0,0:0:0:0:
99,226,111525,1,0,0:0:0:0:
105,178,111600,1,2,0:3:0:0:
77,138,111675,1,0,0:0:0:0:
31,121,111750,1,0,0:0:0:0:
2,82,111825,1,0,0:0:0:0:
5,42,111900,5,2,0:3:0:0:
5,42,111975,1,0,0:0:0:0:
5,42,112050,2,0,L|51:32,1,40
125,8,112200,2,0,B|132:71|132:71|164:93|164:93|235:70,1,160,0|2,0:0|0:3,0:0:0:0:
248,88,112575,1,0,0:0:0:0:
228,113,112650,1,0,0:0:0:0:
223,144,112725,1,0,0:0:0:0:
232,174,112800,2,0,L|223:219,1,40,2|0,0:3|0:0,0:0:0:0:
307,311,112950,2,0,L|314:271,1,40,2|0,0:3|0:0,0:0:0:0:
410,156,113100,5,2,0:3:0:0:
410,156,113175,1,0,0:0:0:0:
410,156,113250,2,0,L|402:195,1,40
448,261,113400,2,0,L|408:278,3,40,2|0|0|0,0:3|0:0|0:0|0:0,0:0:0:0:
374,352,113699,1,2,0:3:0:0:
358,341,113774,1,0,0:0:0:0:
341,330,113850,2,0,L|306:310,1,40
224,335,114000,1,2,0:3:0:0:
223,315,114075,1,0,0:0:0:0:
222,295,114151,2,0,L|217:255,1,40
144,218,114300,5,2,0:3:0:0:
144,218,114375,1,0,0:0:0:0:
144,218,114450,2,0,L|152:179,1,40
55,124,114600,2,0,L|47:85,3,40,2|0|0|0,0:3|0:0|0:0|0:0,0:0:0:0:
180,36,114900,1,2,0:3:0:0:
204,56,114975,1,0,0:0:0:0:
234,64,115050,1,0,0:0:0:0:
265,57,115125,1,0,0:0:0:0:
290,37,115200,1,2,0:3:0:0:
320,28,115275,1,0,0:0:0:0:
351,33,115350,1,0,0:0:0:0:
377,50,115425,1,0,0:0:0:0:
391,78,115500,5,2,0:3:0:0:
409,85,115575,1,0,0:0:0:0:
427,92,115650,2,0,L|477:106,1,40
512,262,115800,1,2,0:3:0:0:
492,256,115875,1,0,0:0:0:0:
472,250,115950,2,0,L|422:236,1,40
240,134,116100,5,2,0:3:0:0:
271,144,116175,1,0,0:0:0:0:
302,153,116250,2,0,L|340:163,1,40
401,319,116400,1,2,0:3:0:0:
370,309,116475,1,0,0:0:0:0:
339,300,116550,2,0,L|289:286,1,40
200,344,116700,5,8,0:0:0:0:
154,187,116850,1,8,0:0:0:0:
48,288,117000,1,8,0:0:0:0:
48,288,117075,1,8,0:0:0:0:
48,288,117150,2,0,L|102:279,1,40,8|0,0:0|0:0,0:0:0:0:
175,266,117300,1,0,0:0:0:0:
262,129,117450,2,0,L|208:120,1,40,8|8,0:0|0:0,0:0:0:0:
136,101,117600,6,8,L|127:67,6,30.0000011444092
324,31,117900,5,2,0:3:0:0:
356,60,117975,1,0,0:0:0:0:
395,70,118050,1,0,0:0:0:0:
434,59,118125,1,0,0:0:0:0:
474,69,118200,1,2,0:3:0:0:
503,97,118275,1,0,0:0:0:0:
510,137,118350,1,0,0:0:0:0:
497,175,118425,1,0,0:0:0:0:
465,202,118500,5,2,0:3:0:0:
424,211,118575,1,0,0:0:0:0:
385,196,118650,1,0,0:0:0:0:
363,160,118725,1,0,0:0:0:0:
325,143,118800,1,2,0:3:0:0:
283,152,118875,1,0,0:0:0:0:
252,180,118950,1,0,0:0:0:0:
241,219,119025,1,0,0:0:0:0:
249,259,119100,5,2,0:3:0:0:
270,264,119175,1,0,0:0:0:0:
290,270,119250,2,0,L|345:284,1,44.0000013427735
439,384,119400,1,2,0:3:0:0:
418,379,119475,1,0,0:0:0:0:
398,373,119550,2,0,L|343:359,1,44.0000013427735
226,384,119700,5,2,0:3:0:0:
200,359,119775,1,0,0:0:0:0:
165,351,119850,1,0,0:0:0:0:
132,364,119925,1,0,0:0:0:0:
97,356,120000,1,2,0:3:0:0:
71,331,120075,1,0,0:0:0:0:
62,296,120150,1,0,0:0:0:0:
73,262,120225,1,0,0:0:0:0:
101,240,120300,5,2,0:3:0:0:
144,231,120375,1,0,0:0:0:0:
184,248,120450,1,0,0:0:0:0:
227,240,120525,1,0,0:0:0:0:
256,207,120600,1,2,0:3:0:0:
261,163,120675,1,0,0:0:0:0:
240,124,120750,1,0,0:0:0:0:
198,109,120825,1,0,0:0:0:0:
156,123,120900,5,2,0:3:0:0:
126,155,120975,1,0,0:0:0:0:
83,167,121050,1,0,0:0:0:0:
40,155,121125,1,0,0:0:0:0:
11,121,121200,1,2,0:3:0:0:
6,77,121275,1,0,0:0:0:0:
30,40,121350,1,0,0:0:0:0:
69,20,121425,1,0,0:0:0:0:
112,27,121500,6,0,L|256:48,1,132.00000402832,2|0,0:3|0:0,0:0:0:0:
280,22,121800,2,0,P|280:69|290:113,1,88.000002685547,2|0,0:3|0:0,0:0:0:0:
371,184,122100,1,8,0:2:0:0:
371,184,122175,1,8,0:2:0:0:
371,184,122250,2,0,L|382:98,1,44.0000013427735,8|0,0:2|0:0,0:0:0:0:
499,57,122400,2,0,P|489:99|469:139,1,88.000002685547,8|0,0:2|0:0,0:0:0:0:
350,266,122700,5,8,0:2:0:0:
335,251,122775,1,8,0:2:0:0:
316,241,122850,1,8,0:2:0:0:
296,238,122925,1,8,0:2:0:0:
281,224,123000,5,8,0:0:0:0:
267,252,123075,1,8,0:0:0:0:
239,268,123150,1,8,0:0:0:0:
207,269,123225,1,8,0:0:0:0:
176,252,123300,5,2,0:3:0:0:
182,295,123375,1,0,0:0:0:0:
160,333,123450,1,0,0:0:0:0:
122,356,123525,1,0,0:0:0:0:
78,355,123600,1,2,0:3:0:0:
43,328,123675,1,0,0:0:0:0:
30,285,123750,1,0,0:0:0:0:
40,242,123825,1,0,0:0:0:0:
73,213,123900,5,2,0:3:0:0:
116,206,123975,1,0,0:0:0:0:
150,178,124050,1,0,0:0:0:0:
163,136,124125,1,0,0:0:0:0:
151,93,124200,1,2,0:3:0:0:
119,62,124275,1,0,0:0:0:0:
75,58,124350,1,0,0:0:0:0:
35,77,124425,1,0,0:0:0:0:
13,115,124500,5,2,0:3:0:0:
16,136,124575,1,0,0:0:0:0:
19,157,124650,2,0,L|26:206,1,44.0000013427735
147,241,124800,1,2,0:3:0:0:
153,210,124875,1,0,0:0:0:0:
156,179,124950,2,0,L|163:130,1,44.0000013427735
257,32,125100,5,2,0:3:0:0:
262,78,125175,1,0,0:0:0:0:
268,124,125250,2,0,L|277:192,1,51.999997619629
383,312,125400,1,2,0:3:0:0:
393,255,125475,1,0,0:0:0:0:
399,198,125550,2,0,L|408:129,1,51.999997619629
495,342,125700,5,2,0:3:0:0:
495,342,125775,1,0,0:0:0:0:
495,342,125850,2,0,P|488:298|478:257,1,80
275,247,126000,1,2,0:3:0:0:
275,247,126075,1,0,0:0:0:0:
275,247,126150,2,0,P|263:285|246:329,1,80
48,186,126300,5,2,0:3:0:0:
48,186,126375,1,0,0:0:0:0:
48,186,126450,2,0,P|51:140|60:99,1,80
238,83,126600,1,2,0:3:0:0:
238,83,126675,1,0,0:0:0:0:
238,83,126750,2,0,P|247:122|261:161,1,80
479,53,126900,6,0,L|465:13,1,40,10|8,0:0|0:0,0:0:0:0:
380,103,127050,1,0,0:0:0:0:
413,126,127125,1,0,0:0:0:0:
427,163,127200,1,2,0:3:0:0:
419,202,127275,1,0,0:0:0:0:
395,234,127350,1,0,0:0:0:0:
388,273,127425,1,0,0:0:0:0:
401,310,127500,6,0,L|466:315,1,40,8|8,0:0|0:0,0:0:0:0:
299,352,127650,1,0,0:0:0:0:
266,329,127725,1,0,0:0:0:0:
226,323,127800,1,0,0:0:0:0:
188,337,127875,1,0,0:0:0:0:
163,369,127950,1,0,0:0:0:0:
125,384,128025,1,0,0:0:0:0:
83,372,128100,6,0,B|91:309|46:328|57:258,1,120,8|0,0:3|0:0,0:0:0:0:
122,215,128400,2,0,L|107:131,1,80,8|8,0:0|0:2,0:0:0:0:
97,56,128700,1,8,0:2:0:0:
97,56,128775,1,8,0:2:0:0:
97,56,128850,1,8,0:2:0:0:
248,6,129000,1,8,0:2:0:0:
252,25,129075,1,8,0:2:0:0:
256,44,129150,1,8,0:2:0:0:
260,63,129225,1,8,0:2:0:0:
263,79,129300,6,0,B|302:88|302:88|318:115|318:115|365:124|365:124,1,120,8|0,0:3|0:0,0:0:0:0:
444,112,129600,2,0,P|435:151|434:194,1,80,8|8,0:0|0:2,0:0:0:0:
433,271,129900,1,8,0:2:0:0:
433,271,129975,1,8,0:2:0:0:
433,271,130050,1,8,0:2:0:0:
297,351,130200,1,8,0:2:0:0:
282,322,130275,1,8,0:2:0:0:
255,304,130350,1,8,0:2:0:0:
223,301,130425,1,8,0:2:0:0:
196,318,130500,6,0,B|188:248|150:278|141:215,1,120,8|0,0:3|0:0,0:0:0:0:
171,141,130800,2,0,L|91:122,1,80,8|8,0:0|0:2,0:0:0:0:
14,105,131100,1,8,0:2:0:0:
14,105,131175,1,8,0:2:0:0:
14,105,131250,1,8,0:2:0:0:
36,26,131400,1,8,0:2:0:0:
55,31,131475,1,8,0:2:0:0:
74,36,131550,1,8,0:2:0:0:
93,41,131625,1,8,0:2:0:0:
110,46,131700,6,0,B|160:59|160:59|180:48|180:48|235:61,1,120,8|0,0:3|0:0,0:0:0:0:
302,79,132000,2,0,P|303:118|309:158,1,80,8|8,0:0|0:2,0:0:0:0:
466,202,132300,1,8,0:2:0:0:
466,202,132375,1,8,0:2:0:0:
466,202,132450,1,8,0:2:0:0:
466,202,132525,1,8,0:2:0:0:
466,202,132600,2,0,P|464:228|457:266,1,40,8|0,0:2|0:0,0:0:0:0:
319,239,132750,2,0,P|321:265|328:303,1,40,8|0,0:2|0:0,0:0:0:0:
450,320,132900,5,8,0:3:0:0:
339,359,133050,1,8,0:3:0:0:
319,356,133125,1,8,0:3:0:0:
299,353,133200,2,0,L|213:338,1,80,8|8,0:0|0:2,0:0:0:0:
392,243,133500,5,8,0:3:0:0:
229,160,133650,1,8,0:3:0:0:
249,157,133725,1,8,0:3:0:0:
265,154,133800,1,8,0:0:0:0:
310,40,133950,1,8,0:2:0:0:
442,66,134100,5,8,0:3:0:0:
365,214,134250,1,8,0:3:0:0:
361,195,134325,1,8,0:3:0:0:
357,176,134400,1,8,0:0:0:0:
475,255,134550,1,8,0:2:0:0:
281,266,134700,5,8,0:3:0:0:
261,263,134775,1,8,0:3:0:0:
241,259,134850,1,8,0:3:0:0:
377,328,135000,2,0,L|382:288,1,40,8|0,0:0|0:0,0:0:0:0:
456,140,135150,2,0,L|464:185,1,40,8|0,0:2|0:0,0:0:0:0:
335,96,135300,5,8,0:3:0:0:
307,125,135375,1,0,0:0:0:0:
269,137,135450,1,8,0:3:0:0:
229,127,135525,1,0,0:0:0:0:
203,97,135600,1,8,0:0:0:0:
197,56,135675,1,0,0:0:0:0:
170,26,135750,1,8,0:2:0:0:
130,18,135825,1,0,0:0:0:0:
93,32,135900,5,8,0:3:0:0:
72,67,135975,1,0,0:0:0:0:
79,105,136050,1,8,0:3:0:0:
104,136,136125,1,0,0:0:0:0:
141,150,136200,1,8,0:0:0:0:
168,179,136275,1,0,0:0:0:0:
177,217,136350,1,8,0:2:0:0:
163,254,136425,1,0,0:0:0:0:
134,282,136500,5,8,0:3:0:0:
114,277,136575,1,0,0:0:0:0:
94,272,136650,2,0,L|33:257,1,40,8|0,0:3|0:0,0:0:0:0:
204,343,136800,5,8,0:0:0:0:
230,350,136875,1,0,0:0:0:0:
256,357,136950,2,0,L|317:372,1,40,8|0,0:2|0:0,0:0:0:0:
199,205,137100,5,0,0:3:0:0:
163,197,137175,1,0,0:0:0:0:
127,189,137250,2,0,L|48:170,1,51.999997619629,8|0,0:3|0:0,0:0:0:0:
269,266,137400,5,8,0:0:0:0:
311,276,137475,1,0,0:0:0:0:
353,285,137550,2,0,L|429:303,1,51.999997619629,8|0,0:2|0:0,0:0:0:0:
266,123,137700,6,0,L|262:89,12,20,8|0|0|0|0|0|0|0|0|0|0|0|0,0:3|0:0|0:0|0:0|0:0|0:0|0:0|0:0|0:0|0:0|0:0|0:0|0:0,0:0:0:0:
337,181,138000,6,0,L|328:226,6,40,8|0|0|0|0|0|0,0:0|0:0|0:0|0:0|0:0|0:0|0:0,0:0:0:0:
403,69,138300,6,0,P|411:106|417:147,1,80,8|8,0:0|0:0,0:0:0:0:
247,204,138450,2,0,P|239:238|233:282,1,80,8|8,0:0|0:0,0:0:0:0:
419,342,138600,1,8,0:0:0:0:
419,342,138750,1,8,0:0:0:0:
419,342,138825,1,8,0:0:0:0:
419,342,138900,6,0,P|429:301|433:261,1,80,8|8,0:0|0:0,0:0:0:0:
247,204,139050,2,0,P|239:166|236:124,1,80,8|8,0:0|0:0,0:0:0:0:
446,75,139200,1,8,0:0:0:0:
446,75,139350,1,8,0:0:0:0:
446,75,139425,1,8,0:0:0:0:
446,75,139500,6,0,P|405:64|357:59,1,80,8|8,0:0|0:0,0:0:0:0:
325,188,139650,2,0,P|284:199|236:204,1,80,8|8,0:0|0:0,0:0:0:0:
61,126,139800,6,8,B|52:70|52:70|79:27,1,106.666666666667
174,0,140000,1,8,0:0:0:0:
171,170,140100,2,8,B|179:226|179:226|153:269,1,106.666666666667
60,302,140300,1,8,0:0:0:0:
60,302,140400,5,8,0:0:0:0:
99,294,140475,1,0,0:0:0:0:
137,306,140550,1,0,0:0:0:0:
164,335,140625,1,0,0:0:0:0:
201,348,140700,1,0,0:0:0:0:
240,341,140775,1,0,0:0:0:0:
273,318,140850,5,8,0:0:0:0:
288,281,140925,1,0,0:0:0:0:
281,241,141000,1,0,0:0:0:0:
252,212,141075,1,0,0:0:0:0:
212,205,141150,1,0,0:0:0:0:
173,217,141225,1,0,0:0:0:0:
134,208,141300,5,8,0:0:0:0:
103,182,141375,1,0,0:0:0:0:
93,143,141450,1,0,0:0:0:0:
101,103,141525,1,0,0:0:0:0:
130,76,141600,1,0,0:0:0:0:
169,68,141675,1,0,0:0:0:0:
206,80,141750,1,0,0:0:0:0:
245,72,141825,1,0,0:0:0:0:
274,45,141900,6,0,L|440:66,1,160,8|0,0:0|0:0,0:0:0:0:
493,12,142125,6,0,P|475:69|474:129,1,120,8|0,0:0|0:0,0:0:0:0:
488,206,142425,2,0,P|486:246|477:285,1,80,8|8,0:0|0:0,0:0:0:0:
398,321,142650,6,0,L|232:300,1,160,8|0,0:0|0:0,0:0:0:0:
179,354,142875,6,0,P|197:297|198:237,1,120,8|0,0:0|0:0,0:0:0:0:
182,158,143175,2,0,P|183:118|194:80,1,80,8|8,0:0|0:0,0:0:0:0:
274,45,143400,6,0,L|440:66,1,160,8|0,0:0|0:0,0:0:0:0:
493,12,143625,6,0,B|454:71|479:149|479:149|505:211|478:287|478:287|426:257|426:257|365:320|460:357,1,480
459,356,145500,5,4,0:0:0:0:
