osu file format v14

[General]
AudioFilename: ikazuchi.mp3
AudioLeadIn: 0
PreviewTime: 108300
Countdown: 1
SampleSet: Normal
StackLeniency: 0.7
Mode: 0
LetterboxInBreaks: 1
WidescreenStoryboard: 1

[Editor]
DistanceSpacing: 1.2
BeatDivisor: 4
GridSize: 4
TimelineZoom: 3.599998

[Metadata]
Title:IKAZUCHI
TitleUnicode:怒槌
Artist:Takenobu Mitsuyoshi
ArtistUnicode:光吉 猛修
Creator:BluOxy
Version:BASIC
Source:CHUNITHM
Tags:SEELISCH TACT SEGA
BeatmapID:1047145
BeatmapSetID:489136

[Difficulty]
HPDrainRate:3
CircleSize:3
OverallDifficulty:3
ApproachRate:3
SliderMultiplier:0.7
SliderTickRate:1

[Events]
//Background and Video events
0,0,"pixiv-fantasia-art-demon-mechi.jpg",0,0
//Break Periods
//Storyboard Layer 0 (Background)
//Storyboard Layer 1 (Fail)
//Storyboard Layer 2 (Pass)
//Storyboard Layer 3 (Foreground)
//Storyboard Sound Samples

[TimingPoints]
300,300,4,1,1,50,1,0
300,-100,4,1,5,50,0,0
3900,-100,4,1,4,50,0,0
4200,-100,4,1,1,50,0,0
4350,-100,4,1,4,50,0,0
4650,-100,4,1,1,50,0,0
4800,-100,4,1,4,50,0,0
5100,-100,4,1,2,50,0,0
7200,-100,4,1,3,50,0,0
7500,-100,4,1,2,50,0,0
8700,-100,4,1,2,50,0,0
9000,-100,4,1,2,50,0,0
9300,-100,4,1,0,50,0,0
9600,-100,4,1,2,50,0,0
9900,-100,4,1,2,60,0,0
29100,-100,4,1,1,60,0,0
29700,-100,4,1,1,60,0,0
31500,-100,4,1,1,60,0,0
32100,-100,4,1,1,60,0,0
33900,-100,4,1,1,60,0,0
34500,-100,4,1,1,60,0,0
36300,-100,4,1,1,60,0,0
36900,-100,4,1,1,60,0,0
38700,-100,4,1,2,60,0,0
49500,-100,4,1,2,60,0,0
68700,-100,4,1,6,40,0,0
84900,-100,4,1,6,40,0,0
85500,-100,4,1,6,40,0,0
86100,-100,4,1,6,40,0,0
86700,-100,4,1,6,40,0,0
87300,-100,4,1,6,40,0,0
87900,-100,4,2,0,30,0,0
88500,-100,4,2,0,20,0,0
89100,-100,4,1,2,60,0,0
96300,-100,4,1,7,60,0,0
97500,-100,4,2,0,60,0,0
98700,-100,4,1,5,60,0,0
105900,-100,4,1,7,60,0,0
106125,-100,4,1,7,60,0,0
106200,-100,4,1,7,60,0,0
106500,-100,4,1,7,60,0,0
107100,-100,4,1,7,60,0,0
107325,-100,4,1,7,60,0,0
107400,-100,4,1,7,60,0,0
107700,-100,4,1,5,60,0,0
108300,-100,4,1,5,60,0,0
111300,-100,4,1,5,60,0,0
111900,-100,4,1,5,60,0,0
116700,-100,4,1,7,60,0,0
117600,-100,4,1,7,60,0,0
117900,-100,4,1,5,70,0,1
122100,-100,4,1,2,70,0,1
122700,-100,4,1,2,60,0,0
123300,300,4,1,5,70,1,1
123300,-100,4,1,5,70,0,1
125100,-100,4,1,5,70,0,1
125700,-100,4,1,5,70,0,1
126900,-100,4,1,2,70,0,1
127050,-100,4,1,5,70,0,1
127500,-100,4,1,2,70,0,1
127650,-100,4,1,5,70,0,1
128100,-100,4,1,2,60,0,0
137100,-100,4,1,2,60,0,0
137700,-100,4,1,2,60,0,0
138300,300,4,1,2,60,1,1
138300,-100,4,1,7,60,0,1
141900,-100,4,1,7,60,0,0
142125,-100,4,1,7,60,0,0
142425,-100,4,1,0,60,0,0
142650,-100,4,1,7,60,0,0
142875,-100,4,1,7,60,0,0
143175,-100,4,1,0,60,0,0
143400,-100,4,1,7,60,0,0
143625,-100,4,1,7,60,0,0
145500,-100,4,1,2,60,0,0

[Colours]
Combo1 : 236,83,0
Combo2 : 208,208,0

[HitObjects]
129,81,300,5,0,0:0:0:0:
249,45,750,2,0,L|237:113,1,70
209,236,1500,1,0,0:0:0:0:
330,269,1950,2,0,L|318:201,1,70
367,84,2700,5,0,0:0:0:0:
488,118,3150,2,0,L|500:186,1,70
459,306,3900,6,0,L|384:291,1,70
398,255,4350,2,0,L|323:270,1,70
218,328,5100,6,0,P|204:217|163:128,1,210
98,74,6300,1,0,0:0:0:0:
80,156,6600,2,0,L|69:204,2,35
15,102,7200,1,0,0:0:0:0:
98,74,7500,6,0,P|160:98|306:106,1,210
419,59,8700,2,0,B|420:79|420:79|428:93|428:93|428:107|428:107|435:125,1,70
497,182,9300,2,0,B|496:202|496:202|488:216|488:216|488:230|488:230|481:248,1,70
451,327,9900,6,0,P|332:253|182:238,2,280
480,248,12600,1,0,0:0:0:0:
465,165,12900,2,0,L|451:89,1,70
391,38,13500,1,0,0:0:0:0:
372,119,13800,1,0,0:0:0:0:
312,59,14100,2,0,L|304:19,2,35
290,140,14700,6,0,P|300:276|203:378,2,280
227,82,17400,1,0,0:0:0:0:
144,65,17700,2,0,L|54:46,1,70
0,87,18300,1,0,0:0:0:0:
68,134,18600,1,0,0:0:0:0:
51,216,18900,2,0,B|44:231|44:231|45:246|45:246|38:262|38:262|39:283,1,70
113,323,19500,6,0,B|264:252|230:366|385:289,2,280
38,361,22200,1,0,0:0:0:0:
46,277,22500,2,0,L|58:201,1,70
61,124,23100,1,0,0:0:0:0:
131,170,23400,2,0,L|145:203,2,35
141,86,24000,1,0,0:0:0:0:
206,138,24300,6,0,B|251:305|328:167|373:343,2,280
218,54,27000,1,0,0:0:0:0:
286,103,27300,2,0,L|370:117,1,70
423,163,27900,1,0,0:0:0:0:
436,80,28200,1,0,0:0:0:0:
505,127,28500,6,0,B|495:192|495:192|498:200|498:200|487:273,1,140
480,306,29250,1,0,0:0:0:0:
362,352,29700,2,0,P|299:326|223:323,2,140
399,278,31200,1,0,0:0:0:0:
348,211,31500,6,0,L|301:222,1,35
191,246,32100,2,0,B|200:181|200:181|197:173|197:173|207:108,2,140
144,315,33600,1,0,0:0:0:0:
104,240,33900,6,0,L|73:218,1,35
4,115,34500,2,0,P|67:141|143:144,2,140
39,39,36000,1,0,0:0:0:0:
118,65,36300,6,0,L|156:58,1,35
274,26,36900,2,0,B|264:91|264:91|267:99|267:99|256:172,2,140
355,47,38400,1,0,0:0:0:0:
438,36,38700,6,0,L|479:29,2,35
409,115,39300,2,0,L|374:120,2,35
463,179,39900,2,0,L|504:172,2,35
429,256,40500,1,0,0:0:0:0:
480,322,40800,1,0,0:0:0:0:
397,336,41100,6,0,L|406:373,2,35
345,269,41700,2,0,L|336:234,2,35
318,348,42300,2,0,L|327:385,2,35
262,284,42900,1,0,0:0:0:0:
236,364,43200,1,0,0:0:0:0:
179,302,43500,6,0,P|140:288|107:279,1,70
56,217,44100,2,0,P|89:207|122:195,1,70
178,132,44700,2,0,P|139:118|106:109,1,70
61,42,45300,2,0,P|94:32|127:20,1,70
209,2,45900,6,0,P|224:38|232:72,1,70
310,95,46500,2,0,P|294:131|287:165,1,70
266,242,47100,2,0,P|334:260|386:307,2,140
187,272,48600,1,0,0:0:0:0:
249,327,48900,1,0,0:0:0:0:
169,355,49200,1,0,0:0:0:0:
105,299,49500,6,0,P|97:160|29:31,2,280
169,355,52200,1,0,0:0:0:0:
249,327,52500,2,0,L|329:338,1,70
388,382,53100,1,0,0:0:0:0:
467,355,53400,2,0,L|505:360,2,35
400,303,54000,1,0,0:0:0:0:
406,219,54300,6,0,P|266:204|137:149,2,280
483,186,57000,1,0,0:0:0:0:
494,102,57300,2,0,L|504:25,1,70
423,5,57900,1,0,0:0:0:0:
403,86,58200,2,0,L|416:126,2,35
340,29,58800,1,0,0:0:0:0:
324,111,59100,6,0,B|388:298|256:193|322:376,2,280
257,59,61800,1,0,0:0:0:0:
174,45,62100,2,0,L|96:32,1,70
27,67,62700,1,0,0:0:0:0:
10,149,63000,2,0,L|1:186,2,35
91,127,63600,1,0,0:0:0:0:
78,208,63900,6,0,B|252:168|169:284|343:245,2,280
16,264,66600,1,0,0:0:0:0:
52,339,66900,2,0,L|46:377,2,35
116,284,67500,1,0,0:0:0:0:
177,226,67800,2,0,L|183:187,2,35
216,300,68400,1,0,0:0:0:0:
258,372,68700,6,0,P|317:352|379:358,2,105
216,300,69900,2,0,P|157:320|95:314,2,105
281,247,71100,2,0,P|340:227|402:233,2,105
232,178,72300,2,0,P|173:198|111:192,2,105
301,130,73500,6,0,P|360:110|422:116,1,105
442,123,74100,2,0,L|431:202,1,70
358,233,74700,2,0,L|369:343,2,105
300,171,75900,2,0,L|310:66,2,105
227,212,77100,2,0,L|238:322,2,105
164,155,78300,6,0,L|184:1,2,140
9,222,80100,1,0,0:0:0:0:
140,326,80700,1,0,0:0:0:0:
79,169,81300,1,0,0:0:0:0:
51,334,81900,5,0,0:0:0:0:
159,205,82500,1,0,0:0:0:0:
28,99,83100,1,0,0:0:0:0:
87,256,83700,1,0,0:0:0:0:
113,90,84300,1,0,0:0:0:0:
244,194,84900,6,0,B|215:243|222:306|222:306|254:294,1,140
302,139,86100,2,0,B|274:89|216:63|216:63|210:97,1,140
318,217,87300,2,0,B|374:217|425:180|425:180|399:158,1,140
84,257,89100,6,0,P|175:264|231:296,1,140
281,340,90000,1,0,0:0:0:0:
294,257,90300,1,0,0:0:0:0:
358,311,90600,2,0,L|371:353,2,35
376,228,91200,1,0,0:0:0:0:
438,284,91500,6,0,L|475:292,2,35
459,202,92100,1,0,0:0:0:0:
396,145,92400,1,0,0:0:0:0:
475,119,92700,2,0,L|496:38,1,70
409,34,93300,2,0,L|416:0,2,35
340,81,93900,6,0,L|181:54,1,140
106,196,95100,2,0,L|244:219,1,140
370,330,96300,2,0,L|409:336,2,35
290,356,96900,2,0,L|265:386,2,35
309,274,97500,5,0,0:0:0:0:
388,248,97800,1,0,0:0:0:0:
404,165,98100,1,0,0:0:0:0:
344,106,98400,1,0,0:0:0:0:
264,132,98700,6,0,L|251:91,2,35
203,190,99300,2,0,L|132:205,1,70
53,227,99900,5,0,0:0:0:0:
114,285,100200,2,0,L|185:300,1,70
261,270,100800,1,0,0:0:0:0:
320,329,101100,6,0,L|315:370,2,35
345,249,101700,2,0,P|371:224|396:197,1,70
424,120,102300,1,0,0:0:0:0:
342,139,102600,1,0,0:0:0:0:
364,57,102900,2,0,L|390:25,2,35
282,79,103500,6,0,L|237:65,2,35
342,139,104100,2,0,P|316:164|291:191,1,70
261,270,104700,1,0,0:0:0:0:
200,212,105000,2,0,L|129:197,1,70
53,227,105600,1,0,0:0:0:0:
61,143,105900,6,0,P|59:113|53:86,1,52.5
150,48,106500,1,0,0:0:0:0:
177,127,106800,1,0,0:0:0:0:
233,65,107100,2,0,P|234:35|241:8,1,52.5
343,0,107700,1,0,0:0:0:0:
369,79,108000,1,0,0:0:0:0:
428,19,108300,5,0,0:0:0:0:
455,98,108600,2,0,L|439:172,1,70
467,245,109200,1,0,0:0:0:0:
384,227,109500,2,0,B|269:204|303:286|182:258,1,210
101,242,110700,6,0,L|117:316,1,70
36,338,111300,2,0,L|21:269,1,70
40,187,111900,1,0,0:0:0:0:
200,117,113100,6,0,B|207:22|426:143|440:48,2,280
194,201,115800,1,0,0:0:0:0:
270,166,116100,1,0,0:0:0:0:
265,249,116400,1,0,0:0:0:0:
342,215,116700,6,0,P|378:218|415:221,1,70
482,266,117300,1,0,0:0:0:0:
407,305,117600,1,0,0:0:0:0:
476,352,117900,6,0,P|340:312|190:311,1,280
123,338,119400,1,0,0:0:0:0:
54,289,119700,2,0,L|69:208,1,70
47,138,120300,6,0,P|188:147|320:99,2,280
66,220,123000,1,0,0:0:0:0:
37,299,123300,6,0,B|188:264|143:377|308:337,1,280
358,275,124800,1,0,0:0:0:0:
387,353,125100,1,0,0:0:0:0:
443,290,125400,1,0,0:0:0:0:
412,211,125700,6,0,L|425:133,1,70
340,126,126300,2,0,L|351:56,1,70
267,50,126900,6,0,L|187:71,1,70
131,18,127500,2,0,L|51:39,1,70
30,112,128100,6,0,P|38:148|45:188,1,70
50,265,128700,2,0,P|49:288|47:311,2,35
118,217,129300,2,0,P|124:180|133:141,1,70
153,68,129900,2,0,P|158:44|166:23,2,35
229,104,130500,2,0,P|237:140|244:180,1,70
249,257,131100,2,0,P|248:280|246:303,2,35
318,210,131700,2,0,P|324:173|333:134,1,70
352,60,132300,2,0,P|357:36|365:15,2,35
428,94,132900,6,0,P|436:130|443:170,1,70
508,214,133500,2,0,P|500:248|494:282,1,70
412,299,134100,2,0,P|376:307|336:314,1,70
292,379,134700,2,0,P|257:371|223:365,1,70
140,382,135300,6,0,P|128:314|101:232,2,140
223,365,136800,1,0,0:0:0:0:
250,283,137100,1,0,0:0:0:0:
332,264,137400,1,0,0:0:0:0:
401,311,137700,2,0,P|407:271|418:235,1,70
447,164,138300,6,0,P|394:165|340:148,1,105
312,122,138900,2,0,P|259:122|211:141,1,105
184,173,139500,1,0,0:0:0:0:
131,107,139800,2,0,B|109:94|109:94|86:97|86:97|66:84|66:84|44:86|44:86|25:72|25:72|50:69,1,140
256,192,140475,12,0,141600,0:0:0:0:
131,107,141900,6,0,L|195:117,1,52.5
296,207,142650,2,0,L|231:217,1,52.5
118,292,143400,2,0,L|182:302,1,52.5
256,192,143700,12,0,145500,0:0:0:0:
