osu file format v14

[General]
AudioFilename: audio.mp3
AudioLeadIn: 0
PreviewTime: 200
Countdown: 0
SampleSet: Soft
StackLeniency: 0.3
Mode: 0
LetterboxInBreaks: 0
SkinPreference:Default
WidescreenStoryboard: 1

[Editor]
Bookmarks: 200,9800,29000,48050
DistanceSpacing: 1.5
BeatDivisor: 8
GridSize: 8
TimelineZoom: 2.3

[Metadata]
Title:Underground
TitleUnicode:Underground
Artist:Takeharu Ishimoto
ArtistUnicode:石元丈晴
Creator:Phynta
Version:Hush the Noise (Hard)
Source:すばらしきこのせかい
Tags:twewy the world ends with you subarashiki kono sekai it's its a wonderful world nulie nurly ost original sound track soundtrack vgm videogame video game music square enix bgm background english pop fatfan kolek
BeatmapID:4465818
BeatmapSetID:2124754

[Difficulty]
HPDrainRate:3.5
CircleSize:4.5
OverallDifficulty:6
ApproachRate:7
SliderMultiplier:2
SliderTickRate:1

[Events]
//Background and Video events
0,0,"shiki.jpg",0,0
//Break Periods
//Storyboard Layer 0 (Background)
//Storyboard Layer 1 (Fail)
//Storyboard Layer 2 (Pass)
//Storyboard Layer 3 (Foreground)
//Storyboard Layer 4 (Overlay)
//Storyboard Sound Samples

[TimingPoints]
200,600,4,2,0,70,1,0
9800,-86.9565217391304,4,2,0,70,0,0

[Colours]
Combo1 : 238,214,117
Combo2 : 250,82,33
Combo3 : 250,179,107
Combo4 : 234,87,98

[HitObjects]
27,338,200,6,0,L|136:350,1,100,2|0,1:3|3:2,0:2:0:0:
188,304,650,1,2,3:2:0:0:
188,304,800,2,0,L|181:246,1,50,8|0,0:2|0:2,0:2:0:0:
119,211,1100,2,0,P|106:172|124:109,1,100,2|2,3:3|0:2,0:2:0:0:
183,76,1550,1,2,0:2:0:0:
183,76,1700,1,0,1:2:0:0:
42,22,2000,6,0,L|48:72,1,50,10|2,0:2|1:3,0:0:0:0:
14,138,2300,2,0,L|20:188,1,50,2|10,0:3|0:2,0:0:0:0:
73,239,2600,6,0,P|124:254|169:232,1,100,2|2,1:3|3:2,0:2:0:0:
206,174,3050,1,0,3:2:0:0:
206,174,3200,2,0,P|226:160|256:159,1,50,8|2,0:2|0:2,0:2:0:0:
310,204,3500,2,0,L|302:296,1,75,2|0,3:3|3:2,0:2:0:0:
300,316,3800,5,10,0:2:0:0:
300,316,3950,1,10,0:2:0:0:
436,377,4250,1,10,0:2:0:0:
507,245,4550,1,10,0:2:0:0:
507,245,4700,2,0,L|502:195,1,50,10|10,0:2|0:2,0:0:0:0:
442,149,5000,6,0,B|459:106|459:106|455:52,1,100,2|0,1:3|3:2,0:2:0:0:
395,6,5450,1,2,3:2:0:0:
395,6,5600,2,0,L|344:11,1,50,8|0,0:2|0:2,0:2:0:0:
305,75,5900,2,0,L|201:64,1,100,2|2,3:3|0:2,0:2:0:0:
152,11,6350,1,2,0:2:0:0:
152,11,6500,1,0,1:2:0:0:
98,151,6800,6,0,L|149:135,1,50,8|2,0:2|1:3,0:0:0:0:
218,152,7100,2,0,L|257:188,1,50,2|10,0:3|0:2,0:0:0:0:
277,257,7400,6,0,P|267:310|268:361,1,100,2|2,1:2|3:2,0:2:0:0:
345,346,7850,1,0,3:2:0:0:
345,346,8000,2,0,P|350:319|349:294,1,50,10|2,0:2|0:2,0:2:0:0:
415,259,8300,2,0,P|407:221|408:185,1,75,0|0,3:2|3:2,0:2:0:0:
419,148,8600,5,10,0:2:0:0:
419,148,8750,1,10,0:2:0:0:
499,21,9050,1,10,0:2:0:0:
350,16,9350,1,10,0:2:0:0:
350,16,9500,2,0,P|338:52|338:69,1,50,10|10,0:2|0:2,0:0:0:0:
330,149,9800,6,0,B|280:179|280:179|227:159,1,115.000002193451,2|2,1:2|3:2,0:2:0:0:
199,81,10250,1,0,3:2:0:0:
199,81,10400,2,0,P|188:54|168:35,1,57.5000010967255,10|2,0:2|0:2,0:2:0:0:
86,22,10700,1,2,3:3:0:0:
86,22,10850,2,0,P|45:27|1:109,1,115.000002193451,10|2,0:2|0:2,0:2:0:0:
2,168,11300,2,0,P|12:194|33:214,1,57.5000010967255,2|2,1:2|0:2,0:2:0:0:
113,245,11600,1,10,0:2:0:0:
180,191,11750,1,2,1:3:0:0:
314,84,12050,1,10,0:2:0:0:
373,147,12200,6,0,B|398:175|398:175|404:253,1,115.000002193451,2|2,1:3|3:2,0:0:0:0:
483,297,12650,1,2,3:2:0:0:
483,297,12800,2,0,B|480:328|480:328|462:345,1,57.5000010967255,8|2,3:2|0:2,0:0:0:0:
379,357,13100,1,2,1:3:0:0:
379,357,13250,2,0,B|352:339|352:339|346:314,1,57.5000010967255,10|2,0:2|0:3,0:0:0:0:
403,252,13550,1,2,0:2:0:0:
403,252,13700,1,2,1:2:0:0:
242,202,14000,5,10,0:2:0:0:
242,202,14150,2,0,P|229:228|230:258,1,57.5000010967255,0|0,1:2|0:0,0:2:0:0:
278,327,14450,1,8,0:2:0:0:
205,373,14600,2,0,P|165:363|156:297,1,115.000002193451,2|2,1:2|3:2,0:2:0:0:
84,249,15050,1,2,3:2:0:0:
5,284,15200,1,8,0:2:0:0:
31,113,15500,6,0,L|48:-7,1,115.000002193451,2|2,3:2|0:2,0:2:0:0:
129,39,15950,1,2,0:2:0:0:
129,39,16100,2,0,L|120:100,1,57.5000010967255,0|2,1:2|0:2,0:2:0:0:
194,140,16400,1,10,0:2:0:0:
278,121,16550,1,2,1:3:0:0:
446,83,16850,1,10,0:2:0:0:
388,18,17000,6,0,P|361:65|368:126,1,115.000002193451,2|2,1:3|3:2,0:2:0:0:
440,168,17450,1,0,3:2:0:0:
440,168,17600,2,0,L|499:161,1,57.5000010967255,10|2,0:2|0:2,0:2:0:0:
510,247,17900,2,0,L|411:258,1,86.2500016450882,2|0,3:3|3:2,0:0:0:0:
381,263,18200,5,10,0:2:0:0:
321,200,18350,1,10,0:2:0:0:
256,360,18650,1,10,0:2:0:0:
191,200,18950,1,10,0:2:0:0:
131,263,19100,2,0,P|119:291|116:324,1,57.5000010967255,10|10,0:2|0:2,0:0:0:0:
39,359,19400,6,0,P|30:296|11:249,1,115.000002193451,2|0,1:2|3:2,0:2:0:0:
59,177,19850,1,2,3:2:0:0:
59,177,20000,2,0,P|44:144|41:117,1,57.5000010967255,10|2,0:2|0:2,0:2:0:0:
4,49,20300,1,2,3:3:0:0:
4,49,20450,2,0,B|31:44|54:25|54:25|73:51|100:62,1,115.000002193451,10|2,0:2|0:2,0:2:0:0:
166,115,20900,2,0,P|200:119|229:104,1,57.5000010967255,2|0,1:2|0:2,0:2:0:0:
291,60,21200,1,10,0:2:0:0:
216,15,21350,1,2,1:3:0:0:
208,198,21650,1,10,0:2:0:0:
290,153,21800,6,0,B|345:177|345:177|400:159,1,115.000002193451,2|2,1:3|3:2,0:0:0:0:
424,79,22250,1,2,3:2:0:0:
424,79,22400,2,0,L|417:21,1,57.5000010967255,10|0,3:2|0:2,0:0:0:0:
506,10,22700,1,2,1:3:0:0:
506,10,22850,2,0,L|513:68,1,57.5000010967255,8|2,0:2|0:3,0:0:0:0:
483,150,23150,1,0,0:2:0:0:
483,150,23300,1,0,1:2:0:0:
506,324,23600,5,10,0:2:0:0:
506,324,23750,2,0,P|507:355|501:383,1,57.5000010967255,0|2,1:2|0:2,0:2:0:0:
414,383,24050,1,10,0:2:0:0:
329,364,24200,2,0,P|327:304|338:250,1,115.000002193451,2|0,1:2|3:2,0:2:0:0:
409,199,24650,1,2,3:2:0:0:
381,117,24800,1,10,0:2:0:0:
246,9,25100,6,0,P|257:65|255:122,1,115.000002193451,2|2,3:2|0:2,0:2:0:0:
186,175,25550,1,2,0:2:0:0:
105,144,25700,2,0,P|80:139|51:152,1,57.5000010967255,2|2,0:2|0:2,0:2:0:0:
1,222,26000,6,0,B|74:239|74:239|93:256|93:256|163:271,1,172.500003290176,10|10,0:2|0:2,0:2:0:0:
206,346,26600,2,0,L|323:322,1,115.000002193451,2|2,1:3|3:3,0:2:0:0:
404,300,27050,1,2,3:2:0:0:
404,300,27200,2,0,P|387:276|385:245,1,57.5000010967255,10|0,0:2|0:0,0:2:0:0:
446,187,27500,2,0,P|470:152|473:108,1,86.2500016450882,2|0,3:3|3:2,0:0:0:0:
451,71,27800,5,10,0:2:0:0:
380,120,27950,1,10,0:2:0:0:
256,0,28250,1,10,0:2:0:0:
132,120,28550,1,10,0:2:0:0:
61,71,28700,2,0,P|43:102|42:126,1,57.5000010967255,10|10,0:2|0:2,0:0:0:0:
23,207,29000,6,0,B|76:197|76:197|100:218|134:214,1,115.000002193451,2|0,1:2|3:2,0:2:0:0:
205,269,29450,1,2,3:2:0:0:
205,269,29600,2,0,P|231:245|261:245,1,57.5000010967255,10|2,0:2|0:2,0:2:0:0:
305,176,29900,1,2,3:3:0:0:
305,176,30050,2,0,P|342:205|414:193,1,115.000002193451,10|2,0:2|0:2,0:2:0:0:
487,230,30500,2,0,B|504:213|504:213|497:171,1,57.5000010967255,2|2,1:2|0:2,0:2:0:0:
444,112,30800,1,8,0:2:0:0:
458,26,30950,1,2,1:3:0:0:
287,0,31250,1,10,0:2:0:0:
273,86,31400,6,0,B|246:124|284:155|265:199,1,115.000002193451,2|2,1:3|3:2,0:0:0:0:
200,252,31850,1,2,3:2:0:0:
200,252,32000,2,0,P|186:280|187:310,1,57.5000010967255,8|0,3:2|0:2,0:0:0:0:
251,369,32300,1,2,1:3:0:0:
251,369,32450,2,0,P|282:366|308:350,1,57.5000010967255,10|2,0:2|0:3,0:0:0:0:
327,266,32750,1,2,0:2:0:0:
327,266,32900,1,0,1:2:0:0:
190,168,33200,5,10,0:2:0:0:
190,168,33350,2,0,B|166:157|166:157|136:165,1,57.5000010967255,0|0,1:2|0:0,0:2:0:0:
66,113,33650,1,10,0:2:0:0:
34,193,33800,2,0,B|43:246|43:246|39:256|39:256|48:307,1,115.000002193451,2|0,1:2|3:2,0:2:0:0:
86,383,34250,1,2,3:2:0:0:
170,363,34400,1,8,0:2:0:0:
315,270,34700,6,0,B|340:257|340:257|428:277,1,115.000002193451,2|0,3:2|0:2,0:2:0:0:
512,282,35150,1,2,0:2:0:0:
512,282,35300,2,0,B|499:337,1,57.5000010967255,2|2,1:2|0:2,0:2:0:0:
426,383,35600,1,8,0:2:0:0:
342,363,35750,1,2,1:3:0:0:
256,213,36050,1,10,0:2:0:0:
276,129,36200,6,0,P|282:72|276:13,1,115.000002193451,2|2,1:3|3:2,0:2:0:0:
195,38,36650,1,0,3:2:0:0:
195,38,36800,2,0,P|192:66|195:96,1,57.5000010967255,8|2,0:2|0:2,0:2:0:0:
131,154,37100,2,0,P|135:196|131:240,1,86.2500016450882,2|0,3:3|3:2,0:0:0:0:
116,280,37400,5,10,0:2:0:0:
38,242,37550,1,10,0:2:0:0:
149,366,37850,1,10,0:2:0:0:
291,277,38150,1,10,0:2:0:0:
205,293,38300,2,0,P|207:261|212:234,1,57.5000010967255,10|10,0:2|0:2,0:0:0:0:
284,188,38600,6,0,P|345:191|397:201,1,115.000002193451,2|0,1:2|3:2,0:2:0:0:
480,239,39050,1,2,3:2:0:0:
480,239,39200,2,0,B|495:216|495:216|484:187,1,57.5000010967255,10|2,0:2|0:2,0:2:0:0:
512,108,39500,1,2,3:3:0:0:
512,108,39650,2,0,B|492:54|492:54|437:41,1,115.000002193451,10|2,0:2|0:2,0:2:0:0:
352,19,40100,2,0,B|341:48|341:48|356:71,1,57.5000010967255,2|2,1:2|0:2,0:2:0:0:
380,152,40400,1,8,0:2:0:0:
343,230,40550,1,2,1:3:0:0:
169,230,40850,1,10,0:2:0:0:
132,152,41000,6,0,P|91:124|36:150,1,115.000002193451,2|2,1:3|3:2,0:0:0:0:
5,232,41450,1,2,3:2:0:0:
5,232,41600,2,0,P|-2:264|0:293,1,57.5000010967255,10|0,3:2|0:2,0:0:0:0:
4,378,41900,1,2,1:3:0:0:
4,378,42050,2,0,P|35:368|59:351,1,57.5000010967255,10|2,0:2|0:3,0:0:0:0:
131,306,42350,1,2,0:2:0:0:
131,306,42500,1,0,1:2:0:0:
292,379,42800,5,10,0:2:0:0:
292,379,42950,2,0,P|322:383|349:369,1,57.5000010967255,0|0,1:2|0:0,0:2:0:0:
399,304,43250,1,10,0:2:0:0:
338,242,43400,2,0,B|286:247|286:247|277:254|277:254|222:258,1,115.000002193451,2|0,1:2|3:2,0:2:0:0:
164,196,43850,1,2,3:2:0:0:
211,123,44000,1,8,0:2:0:0:
377,166,44300,6,0,P|409:180|487:138,1,115.000002193451,2|2,3:2|0:2,0:2:0:0:
512,71,44750,1,2,0:2:0:0:
453,8,44900,2,0,P|417:-2|385:8,1,57.5000010967255,2|2,0:2|0:2,0:2:0:0:
335,60,45200,1,10,0:2:0:0:
256,192,45350,12,8,48050,0:2:0:0:
