osu file format v14

[General]
AudioFilename: audio.mp3
AudioLeadIn: 0
PreviewTime: 200
Countdown: 0
SampleSet: Soft
StackLeniency: 0.3
Mode: 0
LetterboxInBreaks: 0
SkinPreference:Default
WidescreenStoryboard: 1

[Editor]
Bookmarks: 200,9800,29000,48050
DistanceSpacing: 1
BeatDivisor: 8
GridSize: 8
TimelineZoom: 2.3

[Metadata]
Title:Underground
TitleUnicode:Underground
Artist:Takeharu Ishimoto
ArtistUnicode:石元丈晴
Creator:Phynta
Version:Face the Noise (Easy)
Source:すばらしきこのせかい
Tags:twewy the world ends with you subarashiki kono sekai it's its a wonderful world nulie nurly ost original sound track soundtrack vgm videogame video game music square enix bgm background english pop fatfan kolek
BeatmapID:4466272
BeatmapSetID:2124754

[Difficulty]
HPDrainRate:2
CircleSize:3
OverallDifficulty:2
ApproachRate:4
SliderMultiplier:1.6
SliderTickRate:1

[Events]
//Background and Video events
0,0,"shiki.jpg",0,0
//Break Periods
//Storyboard Layer 0 (Background)
//Storyboard Layer 1 (Fail)
//Storyboard Layer 2 (Pass)
//Storyboard Layer 3 (Foreground)
//Storyboard Layer 4 (Overlay)
//Storyboard Sound Samples

[TimingPoints]
200,600,4,2,0,70,1,0

[Colours]
Combo1 : 238,214,117
Combo2 : 250,82,33
Combo3 : 250,179,107
Combo4 : 234,87,98

[HitObjects]
498,369,200,6,0,L|415:364,1,80,2|0,1:3|3:2,0:2:0:0:
338,355,800,1,8,0:2:0:0:
280,299,1100,2,0,P|257:249|302:157,1,160,2|0,3:3|1:2,0:2:0:0:
369,121,2000,1,10,0:2:0:0:
494,21,2600,6,0,P|514:56|507:104,1,80,2|2,1:3|3:2,0:2:0:0:
447,143,3200,1,8,0:2:0:0:
369,121,3500,2,0,P|292:129|209:142,1,160,2|0,3:3|0:0,0:2:0:0:
144,186,4400,1,2,3:3:0:0:
28,250,5000,6,0,P|16:293|31:332,1,80,2|0,1:3|3:2,0:2:0:0:
93,369,5600,1,8,0:2:0:0:
172,362,5900,2,0,P|221:321|208:230,1,160,2|0,3:3|1:2,0:2:0:0:
144,186,6800,1,8,0:2:0:0:
1,112,7400,6,0,L|10:31,1,80,2|2,1:2|3:2,0:2:0:0:
84,3,8000,1,10,0:2:0:0:
160,27,8300,2,0,L|144:186,1,160,0|0,3:2|0:0,0:2:0:0:
133,265,9200,1,2,3:3:0:0:
262,359,9800,6,0,B|330:373|325:278|393:287,1,160,2|10,1:2|0:2,0:2:0:0:
470,263,10700,2,0,P|496:232|496:188,1,80,2|0,3:3|0:0,0:0:0:0:
456,124,11300,1,2,1:2:0:0:
471,45,11600,1,10,0:2:0:0:
312,22,12200,6,0,P|315:60|296:98,1,80,2|2,1:3|3:2,0:0:0:0:
246,158,12800,1,8,3:2:0:0:
168,177,13100,2,0,P|143:258|190:316,1,160,2|2,1:3|1:2,0:0:0:0:
263,324,14000,2,0,P|300:309|324:273,1,80,10|0,0:2|0:0,0:0:0:0:
319,197,14600,6,0,B|312:135|312:135|319:106|319:106|313:38,1,160,2|8,1:2|0:2,0:2:0:0:
241,2,15500,1,2,3:2:0:0:
82,23,16100,1,0,1:2:0:0:
23,77,16400,2,0,L|39:172,1,80,10|2,0:2|0:3,0:0:0:0:
91,214,17000,6,0,B|167:204|159:278|234:272,1,160,2|10,1:3|0:2,0:2:0:0:
297,225,17900,1,2,3:3:0:0:
371,254,18200,2,0,P|439:256|471:204,1,120,10|10,0:2|0:2,0:0:0:0:
496,105,19100,5,10,0:2:0:0:
496,105,19400,2,0,B|466:92|466:92|377:115|377:115|345:100,1,160,2|10,1:2|0:2,0:2:0:0:
301,33,20300,2,0,P|263:20|223:26,1,80,2|2,3:3|0:0,0:0:0:0:
169,84,20900,1,2,1:2:0:0:
99,43,21200,1,10,0:2:0:0:
21,183,21800,6,0,B|5:222|5:222|17:259,1,80,2|2,1:3|3:2,0:0:0:0:
44,333,22400,1,10,3:2:0:0:
119,360,22700,2,0,B|174:353|174:353|190:358|190:358|279:346,1,160,2|0,1:3|1:2,0:0:0:0:
332,288,23600,2,0,P|369:278|409:294,1,80,10|2,0:2|0:2,0:0:0:0:
466,345,24200,6,0,B|501:309|501:309|488:196,1,160,2|10,1:2|0:2,0:2:0:0:
474,120,25100,1,2,3:2:0:0:
341,29,25700,1,2,0:2:0:0:
262,43,26000,2,0,B|176:39|142:129|142:129|89:50|4:78,1,320,10|10,0:2|0:2,0:2:0:0:
1,238,27800,2,0,L|7:289,1,40,10|10,0:2|0:2,0:0:0:0:
18,357,28250,2,0,B|76:374|76:374|127:343,1,120,10|10,0:2|0:2,0:0:0:0:
193,298,29000,6,0,B|216:275|147:165|172:139,1,160,2|10,1:2|0:2,0:2:0:0:
212,76,29900,2,0,P|247:55|290:60,1,80,2|0,3:3|0:0,0:0:0:0:
357,93,30500,1,2,1:2:0:0:
413,35,30800,1,8,0:2:0:0:
508,163,31400,6,0,P|499:212|494:253,1,80,2|2,1:3|3:2,0:0:0:0:
483,321,32000,1,8,3:2:0:0:
417,366,32300,2,0,P|331:350|259:341,1,160,2|0,1:3|1:2,0:0:0:0:
211,277,33200,2,0,P|201:246|218:201,1,80,10|0,0:2|0:0,0:0:0:0:
269,142,33800,6,0,P|287:105|204:29,1,160,2|8,1:2|0:2,0:2:0:0:
137,31,34700,1,2,3:2:0:0:
30,150,35300,1,2,1:2:0:0:
45,228,35600,2,0,L|133:215,1,80,8|2,0:2|0:3,0:0:0:0:
203,203,36200,6,0,B|274:162|274:162|357:184,1,160,2|8,1:3|0:2,0:2:0:0:
425,205,37100,1,2,3:3:0:0:
502,225,37400,2,0,B|521:264|521:264|507:347,1,120,10|10,0:2|0:2,0:0:0:0:
395,371,38300,5,10,0:2:0:0:
395,371,38600,2,0,B|327:387|320:314|246:326,1,160,2|10,1:2|0:2,0:2:0:0:
175,361,39500,2,0,P|141:371|97:355,1,80,2|0,3:3|0:0,0:0:0:0:
43,300,40100,1,2,1:2:0:0:
75,226,40400,1,8,0:2:0:0:
1,84,41000,6,0,P|34:62|83:74,1,80,2|2,1:3|3:2,0:0:0:0:
126,126,41600,1,10,3:2:0:0:
182,183,41900,2,0,P|250:208|322:160,1,160,2|0,1:3|1:2,0:0:0:0:
357,94,42800,2,0,L|350:10,1,80,10|0,0:2|0:0,0:0:0:0:
430,6,43400,6,0,L|443:166,1,160,2|8,1:2|0:2,0:2:0:0:
504,216,44300,1,2,3:2:0:0:
478,373,44900,1,2,0:2:0:0:
256,192,45200,12,8,48050,0:2:0:0:
