osu file format v14

[General]
AudioFilename: audio.mp3
AudioLeadIn: 0
PreviewTime: 200
Countdown: 0
SampleSet: Soft
StackLeniency: 0.3
Mode: 0
LetterboxInBreaks: 0
SkinPreference:Default
WidescreenStoryboard: 1

[Editor]
Bookmarks: 200,9800,29000,48050
DistanceSpacing: 1
BeatDivisor: 8
GridSize: 8
TimelineZoom: 2.3

[Metadata]
Title:Underground
TitleUnicode:Underground
Artist:Takeharu Ishimoto
ArtistUnicode:石元丈晴
Creator:Phynta
Version:Erase the Noise (Normal)
Source:すばらしきこのせかい
Tags:twewy the world ends with you subarashiki kono sekai it's its a wonderful world nulie nurly ost original sound track soundtrack vgm videogame video game music square enix bgm background english pop fatfan kolek
BeatmapID:4466126
BeatmapSetID:2124754

[Difficulty]
HPDrainRate:3
CircleSize:4
OverallDifficulty:4.5
ApproachRate:5
SliderMultiplier:1.8
SliderTickRate:1

[Events]
//Background and Video events
0,0,"shiki.jpg",0,0
//Break Periods
//Storyboard Layer 0 (Background)
//Storyboard Layer 1 (Fail)
//Storyboard Layer 2 (Pass)
//Storyboard Layer 3 (Foreground)
//Storyboard Layer 4 (Overlay)
//Storyboard Sound Samples

[TimingPoints]
200,600,4,2,0,70,1,0
9800,-86.9565217391304,4,2,0,70,0,0

[Colours]
Combo1 : 238,214,117
Combo2 : 250,82,33
Combo3 : 250,179,107
Combo4 : 234,87,98

[HitObjects]
32,22,200,6,0,L|41:125,1,90,2|0,1:3|3:2,0:2:0:0:
47,160,650,1,2,3:2:0:0:
47,160,800,1,8,0:2:0:0:
114,219,1100,2,0,P|157:233|195:207,1,90,2|2,3:3|0:2,0:2:0:0:
218,173,1550,1,2,0:2:0:0:
234,87,1850,1,2,0:2:0:0:
234,87,2000,2,0,P|277:73|315:99,1,90,10|2,0:2|0:3,0:0:0:0:
323,184,2600,6,0,L|314:276,1,90,2|2,1:3|3:2,0:2:0:0:
310,321,3050,1,0,3:2:0:0:
310,321,3200,1,8,0:2:0:0:
390,360,3500,2,0,B|435:375|435:375|474:353,1,90,2|10,3:3|0:2,0:2:0:0:
509,328,3950,1,10,0:2:0:0:
499,238,4250,1,10,0:2:0:0:
490,148,4550,1,10,0:2:0:0:
490,148,4700,2,0,L|484:94,1,45,10|10,0:2|0:2,0:0:0:0:
478,58,5000,6,0,B|455:37|455:37|395:41,1,90,2|0,1:3|3:2,0:2:0:0:
355,48,5450,1,2,3:2:0:0:
355,48,5600,1,8,0:2:0:0:
315,129,5900,2,0,L|220:122,1,90,2|2,3:3|0:2,0:2:0:0:
180,117,6350,1,2,0:2:0:0:
151,36,6650,1,2,0:2:0:0:
151,36,6800,2,0,B|108:16|108:16|68:29,1,90,8|2,0:2|0:3,0:0:0:0:
25,108,7400,6,0,P|26:155|33:197,1,90,2|2,1:2|3:2,0:2:0:0:
55,241,7850,1,0,3:2:0:0:
55,241,8000,1,10,0:2:0:0:
20,323,8300,2,0,B|57:329|57:329|66:336|66:336|105:342,1,90,0|10,3:2|0:2,0:2:0:0:
143,367,8750,1,10,0:2:0:0:
213,311,9050,1,10,0:2:0:0:
298,353,9350,1,10,0:2:0:0:
298,353,9500,2,0,P|322:358|345:350,1,45,10|10,0:2|0:2,0:0:0:0:
380,318,9800,6,0,B|417:282|393:229|387:226|382:222|342:185|373:124,1,207.000003948212,2|10,1:2|0:2,0:2:0:0:
351,23,10700,1,2,3:3:0:0:
456,8,11000,1,0,0:0:0:0:
456,8,11150,2,0,P|483:52|473:101,1,103.500001974106,2|2,0:2|0:2,0:0:0:0:
426,123,11600,2,0,L|317:112,1,103.500001974106,10|0,0:2|0:0,0:0:0:0:
250,38,12200,6,0,B|226:63|226:63|236:143,1,103.500001974106,2|2,1:3|3:2,0:0:0:0:
246,186,12650,1,2,3:2:0:0:
246,186,12800,1,8,3:2:0:0:
344,218,13100,2,0,B|330:325,1,103.500001974106,2|2,1:3|0:3,0:0:0:0:
322,372,13550,1,2,0:2:0:0:
222,384,13850,1,0,0:2:0:0:
222,384,14000,6,0,P|179:382|155:327,1,103.500001974106,10|0,0:2|0:0,0:0:0:0:
172,283,14450,1,8,0:2:0:0:
215,254,14600,2,0,P|233:176|128:172,1,207.000003948212,2|8,1:2|0:2,0:2:0:0:
75,253,15500,2,0,B|51:264|42:292|42:292|39:232|5:210|1:213|-28:184|-33:95|49:65,1,310.500005922318,2|10,3:2|0:2,0:2:0:0:
129,12,16700,5,2,0:3:0:0:
129,12,16850,1,10,0:2:0:0:
129,12,17000,2,0,P|121:59|165:96,1,103.500001974106,2|2,1:3|3:2,0:2:0:0:
214,103,17450,1,0,3:2:0:0:
214,103,17600,2,0,P|258:85|268:28,1,103.500001974106,10|2,0:2|3:3,0:2:0:0:
372,4,18200,5,10,0:2:0:0:
372,4,18350,1,10,0:2:0:0:
440,81,18650,1,10,0:2:0:0:
380,166,18950,1,10,0:2:0:0:
380,166,19100,1,10,0:2:0:0:
451,240,19400,6,0,B|469:272|469:272|428:321|428:321|364:304|364:304|364:264,1,207.000003948212,2|10,1:2|0:2,0:2:0:0:
280,204,20300,1,2,3:3:0:0:
187,246,20600,1,2,0:2:0:0:
187,246,20750,2,0,P|138:262|98:232,1,103.500001974106,2|0,0:2|0:2,0:0:0:0:
78,186,21200,2,0,L|88:75,1,103.500001974106,10|0,0:2|0:0,0:0:0:0:
159,8,21800,6,0,B|174:35|174:35|261:44,1,103.500001974106,2|2,1:3|3:2,0:0:0:0:
294,72,22250,1,2,3:2:0:0:
294,72,22400,1,10,3:2:0:0:
391,38,22700,2,0,L|381:149,1,103.500001974106,2|2,1:3|0:3,0:0:0:0:
376,192,23150,1,0,0:2:0:0:
477,230,23450,1,0,0:2:0:0:
477,230,23600,6,0,P|492:259|473:325,1,103.500001974106,10|2,0:2|0:2,0:0:0:0:
428,347,24050,1,10,0:2:0:0:
379,328,24200,2,0,B|333:291|281:332|279:342|239:389|192:365,1,207.000003948212,2|10,1:2|0:2,0:2:0:0:
131,280,25100,2,0,B|117:269|171:193|155:179,1,103.500001974106,2|2,3:2|0:2,0:2:0:0:
78,114,25700,1,2,0:2:0:0:
2,184,26000,6,0,B|-25:205|81:354|54:376,2,207.000003948212,10|2|10,0:2|1:3|0:2,0:2:0:0:
75,111,27500,1,2,3:3:0:0:
4,35,27800,5,10,0:2:0:0:
4,35,27950,1,10,0:2:0:0:
106,12,28250,1,10,0:2:0:0:
177,88,28550,1,10,0:2:0:0:
177,88,28700,1,10,0:2:0:0:
279,65,29000,6,0,B|332:61|347:2|347:2|383:52|440:36,1,207.000003948212,2|10,1:2|0:2,0:2:0:0:
511,111,29900,1,2,3:3:0:0:
476,210,30200,1,0,0:0:0:0:
476,210,30350,2,0,P|431:202|364:196,1,103.500001974106,2|2,0:2|0:2,0:0:0:0:
346,152,30800,2,0,P|308:168|293:237,1,103.500001974106,8|0,0:2|0:0,0:0:0:0:
379,275,31400,6,0,B|400:324|400:324|372:369,1,103.500001974106,2|2,1:3|3:2,0:0:0:0:
326,383,31850,1,2,3:2:0:0:
326,383,32000,1,8,3:2:0:0:
244,319,32300,2,0,L|140:331,1,103.500001974106,2|2,1:3|0:3,0:0:0:0:
108,371,32750,1,2,0:2:0:0:
9,358,33050,1,0,0:2:0:0:
9,358,33200,6,0,B|15:317|15:317|10:302|10:302|15:256,1,103.500001974106,10|0,0:2|0:0,0:0:0:0:
47,215,33650,1,10,0:2:0:0:
23,168,33800,2,0,B|-1:131|32:70|109:72|106:136|173:115,1,207.000003948212,2|8,1:2|0:2,0:2:0:0:
266,145,34700,2,0,B|357:116|353:211|468:215|518:123|482:68,1,310.500005922318,2|8,3:2|0:2,0:2:0:0:
410,7,35900,5,2,0:3:0:0:
410,7,36050,1,10,0:2:0:0:
410,7,36200,2,0,P|370:11|326:59,1,103.500001974106,2|2,1:3|3:2,0:2:0:0:
306,104,36650,1,0,3:2:0:0:
306,104,36800,2,0,P|255:108|214:79,1,103.500001974106,8|2,0:2|3:3,0:2:0:0:
140,4,37400,5,10,0:2:0:0:
140,4,37550,1,10,0:2:0:0:
72,81,37850,1,10,0:2:0:0:
132,166,38150,1,10,0:2:0:0:
132,166,38300,1,10,0:2:0:0:
61,240,38600,6,0,B|61:279|27:304|27:304|12:351|41:391|94:389|116:358,1,207.000003948212,2|10,1:2|0:2,0:2:0:0:
175,299,39500,1,2,3:3:0:0:
270,350,39800,1,0,0:0:0:0:
270,350,39950,2,0,B|313:345|313:345|327:352|327:352|372:347,1,103.500001974106,2|2,0:2|0:2,0:0:0:0:
417,371,40400,2,0,P|460:364|483:313,1,103.500001974106,8|0,0:2|0:0,0:0:0:0:
463,211,41000,6,0,P|458:152|458:89,1,103.500001974106,2|2,1:3|3:2,0:0:0:0:
469,59,41450,1,2,3:2:0:0:
469,59,41600,1,10,3:2:0:0:
367,36,41900,2,0,P|372:95|372:158,1,103.500001974106,2|2,1:3|0:3,0:0:0:0:
361,188,42350,1,2,0:2:0:0:
278,248,42650,1,0,0:2:0:0:
278,248,42800,6,0,B|232:274|232:274|175:249,1,103.500001974106,10|0,0:2|0:0,0:0:0:0:
138,231,43250,1,10,0:2:0:0:
93,204,43400,2,0,B|40:125|138:86|106:7,1,207.000003948212,2|8,1:2|0:2,0:2:0:0:
209,0,44300,2,0,P|201:43|226:95,1,103.500001974106,2|2,3:2|0:2,0:2:0:0:
307,159,44900,1,2,0:2:0:0:
399,113,45200,1,10,0:2:0:0:
256,192,45350,12,8,48050,0:2:0:0:
