osu file format v14

[General]
AudioFilename: audio.mp3
AudioLeadIn: 0
PreviewTime: 200
Countdown: 0
SampleSet: Soft
StackLeniency: 0.3
Mode: 0
LetterboxInBreaks: 0
SkinPreference:Default
WidescreenStoryboard: 0

[Editor]
Bookmarks: 200,9800,29000,48050
DistanceSpacing: 1.25
BeatDivisor: 8
GridSize: 8
TimelineZoom: 2.3

[Metadata]
Title:Underground
TitleUnicode:Underground
Artist:Takeharu Ishimoto
ArtistUnicode:石元丈晴
Creator:Phynta
Version:Crush the Noise (Ultimate)
Source:すばらしきこのせかい
Tags:twewy the world ends with you subarashiki kono sekai it's its a wonderful world nulie nurly ost original sound track soundtrack vgm videogame video game music square enix bgm background english pop fatfan kolek
BeatmapID:4465692
BeatmapSetID:2124754

[Difficulty]
HPDrainRate:4
CircleSize:4
OverallDifficulty:7.5
ApproachRate:8
SliderMultiplier:2.5
SliderTickRate:1

[Events]
//Background and Video events
0,0,"shiki.jpg",0,0
//Break Periods
//Storyboard Layer 0 (Background)
//Storyboard Layer 1 (Fail)
//Storyboard Layer 2 (Pass)
//Storyboard Layer 3 (Foreground)
//Storyboard Layer 4 (Overlay)
//Storyboard Sound Samples

[TimingPoints]
200,600,4,2,0,70,1,0
9800,-86.9565217391304,4,2,0,70,0,0

[Colours]
Combo1 : 238,214,117
Combo2 : 250,82,33
Combo3 : 250,179,107
Combo4 : 234,87,98

[HitObjects]
511,8,200,6,0,P|506:38|498:68,1,62.5,2|0,1:3|0:2,0:2:0:0:
348,116,500,1,0,3:2:0:0:
435,162,650,1,2,3:2:0:0:
443,170,725,1,0,3:2:0:0:
443,170,800,2,0,P|438:139|430:109,1,62.5,8|0,0:2|0:2,0:2:0:0:
322,40,1100,6,0,B|265:19|268:89|205:72,1,125,2|2,3:3|0:2,0:2:0:0:
134,109,1550,1,2,0:2:0:0:
41,7,1700,2,0,P|75:21|90:44,1,62.5,0|2,1:2|0:2,0:2:0:0:
210,159,2000,1,10,0:2:0:0:
210,159,2150,2,0,B|225:185|225:185|218:218,1,62.5,2|2,1:3|0:3,0:2:0:0:
22,244,2450,5,10,0:2:0:0:
22,244,2600,2,0,B|7:218|7:218|14:185,1,62.5,2|0,1:3|0:2,0:2:0:0:
134,109,2900,1,2,3:2:0:0:
156,272,3050,1,0,3:2:0:0:
156,272,3125,1,0,3:2:0:0:
156,272,3200,2,0,L|88:260,1,62.5,8|2,0:2|0:2,0:2:0:0:
0,375,3500,6,0,L|102:356,1,93.75,2|0,3:3|3:2,0:2:0:0:
108,361,3800,1,10,0:2:0:0:
94,261,3950,1,10,0:2:0:0:
308,333,4250,1,10,0:2:0:0:
494,205,4550,1,10,0:2:0:0:
508,305,4700,1,10,0:2:0:0:
508,305,4850,1,10,0:2:0:0:
418,348,5000,6,0,P|408:314|410:278,1,62.5,2|0,1:3|0:2,0:2:0:0:
255,213,5300,1,0,3:2:0:0:
346,192,5450,1,2,3:2:0:0:
346,192,5525,1,0,3:2:0:0:
346,192,5600,2,0,P|345:223|336:252,1,62.5,8|0,0:2|0:2,0:2:0:0:
505,155,5900,6,0,P|490:103|484:23,1,125,2|2,3:3|0:2,0:2:0:0:
325,105,6350,1,2,0:2:0:0:
414,127,6500,2,0,P|411:95|403:65,1,62.5,0|2,1:2|0:2,0:2:0:0:
255,11,6800,1,8,0:2:0:0:
255,11,6950,2,0,P|247:41|244:72,1,62.5,2|2,1:3|0:3,0:2:0:0:
192,211,7250,5,10,0:2:0:0:
192,211,7400,2,0,P|165:225|134:224,1,62.5,2|2,1:2|0:2,0:2:0:0:
22,158,7700,1,2,3:2:0:0:
145,80,7850,1,0,3:2:0:0:
145,80,7925,1,0,3:2:0:0:
145,80,8000,2,0,L|151:152,1,62.5,10|2,0:2|0:2,0:2:0:0:
22,158,8300,2,0,L|13:52,1,93.75,0|0,3:2|3:2,0:2:0:0:
0,38,8600,5,10,0:2:0:0:
95,0,8750,1,10,0:2:0:0:
257,128,9050,1,10,0:2:0:0:
512,38,9350,1,10,0:2:0:0:
417,0,9500,1,10,0:2:0:0:
417,0,9650,1,10,0:2:0:0:
337,64,9800,6,0,B|341:126|341:126|351:141|351:141|356:205,1,143.750002741814,2|2,1:2|3:2,0:2:0:0:
503,279,10250,1,0,3:2:0:0:
503,279,10325,1,0,3:2:0:0:
503,279,10400,2,0,B|509:207,1,71.8750013709069,10|2,0:2|0:2,0:2:0:0:
328,287,10700,1,2,3:3:0:0:
489,366,10850,6,0,P|427:345|352:368,1,143.750002741814,10|2,0:2|0:2,0:2:0:0:
210,325,11300,2,0,P|241:349|286:347,1,71.8750013709069,2|2,1:2|0:2,0:2:0:0:
417,270,11600,1,10,0:2:0:0:
356,205,11750,2,0,B|351:141|351:141|341:126|341:126|337:64,1,143.750002741814,2|10,1:3|0:2,0:2:0:0:
400,5,12200,5,2,1:3:0:0:
400,5,12500,1,2,3:2:0:0:
337,64,12650,1,2,3:2:0:0:
329,62,12725,1,0,3:2:0:0:
321,60,12800,1,8,3:2:0:0:
254,0,12950,2,0,P|217:7|195:45,1,71.8750013709069,2|2,0:2|1:3,0:2:0:0:
168,198,13250,5,10,0:2:0:0:
249,174,13400,2,0,P|261:138|239:100,1,71.8750013709069,2|2,0:3|0:2,0:2:0:0:
152,115,13700,2,0,L|77:128,1,71.8750013709069,2|0,1:2|0:2,0:2:0:0:
0,0,14000,5,10,0:2:0:0:
0,0,14150,2,0,B|-20:16|-20:16|-31:67|9:92,1,107.81250205636,0|0,1:2|0:2,0:2:0:0:
14,96,14450,1,8,0:2:0:0:
152,115,14600,6,0,P|196:93|219:1,1,143.750002741814,2|2,1:2|3:2,0:2:0:0:
102,0,15050,1,2,3:2:0:0:
102,0,15125,1,0,3:2:0:0:
102,0,15200,2,0,L|91:73,1,71.8750013709069,8|2,0:2|0:2,0:2:0:0:
24,197,15500,6,0,B|55:215|60:254|60:254|76:219|114:210,1,143.750002741814,2|2,3:2|0:2,0:2:0:0:
216,231,15950,1,2,0:2:0:0:
216,231,16100,2,0,P|230:265|232:306,1,71.8750013709069,0|2,1:2|0:2,0:2:0:0:
30,379,16400,5,10,0:2:0:0:
92,326,16550,2,0,L|178:344,1,71.8750013709069,2|2,1:3|0:3,0:2:0:0:
305,306,16850,5,10,0:2:0:0:
367,359,17000,2,0,L|509:329,1,143.750002741814,2|2,1:3|3:2,0:2:0:0:
416,233,17450,1,0,3:2:0:0:
416,233,17525,1,0,3:2:0:0:
416,233,17600,2,0,L|430:304,2,71.8750013709069,10|2|2,0:2|0:2|3:3,0:2:0:0:
500,114,18050,5,2,3:2:0:0:
511,69,18125,1,0,3:2:0:0:
487,31,18200,1,10,0:2:0:0:
422,84,18350,1,10,0:2:0:0:
256,0,18650,1,10,0:2:0:0:
90,84,18950,1,10,0:2:0:0:
25,31,19100,1,10,0:2:0:0:
12,114,19250,1,10,0:2:0:0:
77,167,19400,6,0,B|133:142|157:207|225:174,1,143.750002741814,2|0,1:2|3:2,0:2:0:0:
338,62,19850,1,2,3:2:0:0:
338,62,19925,1,0,3:2:0:0:
338,62,20000,2,0,P|302:75|281:107,1,71.8750013709069,10|2,0:2|0:2,0:2:0:0:
279,240,20300,1,2,3:3:0:0:
456,212,20450,6,0,B|479:179|479:179|464:68,1,143.750002741814,10|2,0:2|0:2,0:2:0:0:
338,62,20900,2,0,B|350:157,1,71.8750013709069,2|0,1:2|0:2,0:2:0:0:
279,240,21200,1,10,0:2:0:0:
215,178,21350,2,0,B|156:201|129:143|77:167,1,143.750002741814,2|10,1:3|0:2,0:2:0:0:
0,202,21800,5,2,1:3:0:0:
0,202,22100,1,2,3:2:0:0:
76,167,22250,1,2,3:2:0:0:
74,160,22325,1,0,3:2:0:0:
72,153,22400,1,10,3:2:0:0:
6,104,22550,2,0,P|-3:68|10:35,1,71.8750013709069,0|2,0:2|1:3,0:2:0:0:
212,18,22850,5,8,0:2:0:0:
156,89,23000,2,0,L|71:74,1,71.8750013709069,2|0,0:3|0:2,0:2:0:0:
203,164,23300,2,0,L|288:149,1,71.8750013709069,0|0,1:2|0:2,0:2:0:0:
369,27,23600,5,10,0:2:0:0:
369,27,23750,2,0,B|386:27|403:9|403:9|442:4|468:29,1,107.81250205636,0|0,1:2|0:2,0:2:0:0:
477,39,24050,1,10,0:2:0:0:
400,197,24200,6,0,B|417:212|417:212|497:198|497:198|509:158,1,143.750002741814,2|0,1:2|3:2,0:2:0:0:
416,113,24650,1,2,3:2:0:0:
416,113,24725,1,0,3:2:0:0:
416,113,24800,2,0,B|380:109|380:109|350:128,1,71.8750013709069,10|2,0:2|0:2,0:2:0:0:
291,234,25100,6,0,B|298:297|298:297|292:314|292:314|299:377,1,143.750002741814,2|2,3:2|0:2,0:2:0:0:
398,313,25550,1,2,0:2:0:0:
499,374,25700,2,0,L|506:300,1,71.8750013709069,2|2,0:2|0:2,0:2:0:0:
298,375,26000,6,0,P|259:388|183:327,1,143.750002741814,10|2,0:2|0:2,0:2:0:0:
136,171,26450,1,10,0:2:0:0:
215,193,26600,2,0,P|225:231|211:260,1,71.8750013709069,2|2,1:3|0:2,0:2:0:0:
123,285,26900,2,0,P|90:262|82:231,1,71.8750013709069,2|2,3:3|3:2,0:2:0:0:
5,317,27200,2,0,P|58:377|123:357,1,143.750002741814,10|2,0:2|3:3,0:2:0:0:
259,314,27650,5,2,3:2:0:0:
304,320,27725,1,0,3:2:0:0:
349,325,27800,1,10,0:2:0:0:
416,265,27950,1,10,0:2:0:0:
256,96,28250,1,10,0:2:0:0:
96,265,28550,1,10,0:2:0:0:
163,325,28700,1,10,0:2:0:0:
259,314,28850,1,10,0:2:0:0:
349,325,29000,6,0,B|383:325|405:361|405:361|433:332|470:340,1,143.750002741814,2|0,1:2|3:2,0:2:0:0:
457,187,29450,1,2,3:2:0:0:
457,187,29525,1,0,3:2:0:0:
457,187,29600,2,0,P|425:170|392:178,1,71.8750013709069,10|2,0:2|0:2,0:2:0:0:
493,268,29900,1,2,3:3:0:0:
335,241,30050,6,0,P|310:203|341:109,1,143.750002741814,10|2,0:2|0:2,0:2:0:0:
457,92,30500,2,0,P|505:114|516:144,1,71.8750013709069,2|2,1:2|0:2,0:2:0:0:
415,255,30800,1,8,0:2:0:0:
472,340,30950,2,0,B|433:332|405:361|405:361|383:325|349:325,1,143.750002741814,2|10,1:3|0:2,0:2:0:0:
281,373,31400,5,2,1:3:0:0:
281,373,31700,1,2,3:2:0:0:
221,311,31850,1,2,3:2:0:0:
223,302,31925,1,0,3:2:0:0:
225,293,32000,1,8,3:2:0:0:
300,252,32150,2,0,P|313:215|303:182,1,71.8750013709069,0|2,0:2|1:3,0:2:0:0:
185,78,32450,5,10,0:2:0:0:
223,148,32600,2,0,B|254:131|254:131|264:96,1,71.8750013709069,2|2,0:3|0:2,0:2:0:0:
226,10,32900,2,0,B|195:-8|195:-8|160:0,1,71.8750013709069,0|0,1:2|0:2,0:2:0:0:
0,105,33200,5,10,0:2:0:0:
0,105,33350,2,0,B|8:119|31:121|31:121|64:96|62:57,1,107.81250205636,0|0,1:2|0:2,0:2:0:0:
57,33,33650,1,10,0:2:0:0:
182,220,33800,2,0,P|124:240|51:189,1,143.750002741814,2|0,1:2|3:2,0:2:0:0:
139,83,34250,1,2,3:2:0:0:
139,83,34325,1,0,3:2:0:0:
139,83,34400,2,0,P|130:125|128:157,1,71.8750013709069,8|0,0:2|0:2,0:2:0:0:
327,216,34700,6,0,P|344:135|347:74,1,143.750002741814,2|0,3:2|0:2,0:2:0:0:
283,19,35150,1,2,0:2:0:0:
225,83,35300,2,0,P|227:125|233:157,1,71.8750013709069,2|2,1:2|0:2,0:2:0:0:
405,248,35600,5,8,0:2:0:0:
341,298,35750,2,0,L|354:372,1,71.8750013709069,2|2,1:3|0:3,0:2:0:0:
158,330,36050,5,10,0:2:0:0:
222,380,36200,2,0,L|246:237,1,143.750002741814,2|2,1:3|3:2,0:2:0:0:
94,280,36650,1,0,3:2:0:0:
94,280,36725,1,0,3:2:0:0:
94,280,36800,2,0,L|22:292,2,71.8750013709069,8|2|2,0:2|0:2|3:3,0:2:0:0:
11,138,37250,5,0,3:2:0:0:
55,139,37325,1,0,3:2:0:0:
89,167,37400,1,10,0:2:0:0:
155,106,37550,1,10,0:2:0:0:
256,253,37850,1,10,0:2:0:0:
357,106,38150,1,10,0:2:0:0:
423,167,38300,1,10,0:2:0:0:
501,138,38450,1,10,0:2:0:0:
457,0,38600,6,0,L|307:34,1,143.750002741814,2|0,1:2|3:2,0:2:0:0:
229,159,39050,1,2,3:2:0:0:
229,159,39125,1,0,3:2:0:0:
229,159,39200,2,0,B|262:170|262:170|291:148,1,71.8750013709069,10|2,0:2|0:2,0:2:0:0:
241,0,39500,1,2,3:3:0:0:
150,142,39650,2,0,P|128:187|159:277,1,143.750002741814,10|2,0:2|0:2,0:2:0:0:
296,294,40100,2,0,P|324:272|338:233,1,71.8750013709069,2|2,1:2|0:2,0:2:0:0:
357,106,40400,1,8,0:2:0:0:
316,31,40550,2,0,L|457:0,1,143.750002741814,2|10,1:3|0:2,0:2:0:0:
497,74,41000,5,2,1:3:0:0:
497,74,41300,1,2,3:2:0:0:
454,144,41450,1,2,3:2:0:0:
445,142,41525,1,0,3:2:0:0:
436,140,41600,1,10,3:2:0:0:
479,219,41750,2,0,P|494:255|486:290,1,71.8750013709069,0|2,0:2|1:3,0:2:0:0:
329,374,42050,5,10,0:2:0:0:
395,265,42200,2,0,B|406:287|406:287|398:335,1,71.8750013709069,2|2,0:3|0:2,0:2:0:0:
252,368,42500,2,0,B|221:331|221:331|220:306,1,71.8750013709069,0|0,1:2|0:2,0:2:0:0:
159,206,42800,5,10,0:2:0:0:
159,206,42950,2,0,B|141:187|141:187|99:179|63:206,1,107.81250205636,0|0,1:2|0:2,0:2:0:0:
55,229,43250,1,10,0:2:0:0:
5,358,43400,6,0,B|40:351|65:375|65:375|108:377|133:345,1,143.750002741814,2|0,1:2|3:2,0:2:0:0:
262,258,43850,1,2,3:2:0:0:
262,258,43925,1,0,3:2:0:0:
262,258,44000,2,0,P|230:273|220:310,1,71.8750013709069,8|2,0:2|0:2,0:2:0:0:
385,293,44300,2,0,P|400:255|358:166,1,143.750002741814,2|2,3:2|0:2,0:2:0:0:
206,93,44750,1,2,0:2:0:0:
233,173,44900,2,0,P|269:157|284:128,1,71.8750013709069,2|2,0:2|0:2,0:2:0:0:
256,0,45200,5,10,0:2:0:0:
256,192,45350,12,8,48050,0:2:0:0:
