osu file format v14

[General]
AudioFilename: audio.mp3
AudioLeadIn: 0
PreviewTime: 12315
Countdown: 0
SampleSet: Soft
StackLeniency: 0.7
Mode: 0
LetterboxInBreaks: 0
WidescreenStoryboard: 0

[Editor]
DistanceSpacing: 1.3
BeatDivisor: 4
GridSize: 4
TimelineZoom: 1

[Metadata]
Title:Under an Apple Tree
TitleUnicode:Under an Apple Tree
Artist:Takeharu Ishimoto
ArtistUnicode:Takeharu Ishimoto
Creator:Dab
Version:insane
Source:Crisis Core: Final Fantasy VII
Tags:square_enix
BeatmapID:1981833
BeatmapSetID:949054

[Difficulty]
HPDrainRate:6
CircleSize:4
OverallDifficulty:6.7
ApproachRate:8.6
SliderMultiplier:1.8
SliderTickRate:1

[Events]
//Background and Video events
0,0,"background.jpg",0,0
//Break Periods
//Storyboard Layer 0 (Background)
//Storyboard Layer 1 (Fail)
//Storyboard Layer 2 (Pass)
//Storyboard Layer 3 (Foreground)
//Storyboard Sound Samples

[TimingPoints]
315,750,4,1,1,100,1,0
315,-100,4,2,1,50,0,0
12315,-76.9230769230769,4,2,1,50,0,0
24315,-62.5,4,2,1,65,0,0
48315,-100,4,2,1,50,0,0

[HitObjects]
180,243,315,6,0,L|80:251,1,90,0|0,1:2|0:0,0:0:0:0:
17,158,1065,2,0,L|106:165,1,90
200,95,1627,1,0,0:0:0:0:
200,95,1814,2,0,B|268:81|268:81|333:94,1,135
266,174,2565,1,0,0:0:0:0:
344,259,2752,1,0,0:0:0:0:
344,259,2940,6,0,P|286:287|172:241,1,180,0|0,1:2|0:0,0:0:0:0:
79,193,4065,2,0,B|49:259|109:259|73:322,1,135
151,226,4815,1,0,0:0:0:0:
349,339,5190,6,0,L|330:202,1,135,0|0,1:0|0:0,0:0:0:0:
249,167,5940,1,0,0:0:0:0:
306,280,6127,1,0,0:0:0:0:
214,370,6315,6,0,P|155:367|112:325,1,90,0|0,1:2|0:0,0:0:0:0:
29,290,7065,2,0,P|88:287|131:245,1,90
83,170,7627,1,0,0:0:0:0:
83,170,7815,2,0,B|147:147|155:189|214:167,1,135,0|0,0:2|0:0,0:0:0:0:
177,86,8565,1,0,0:0:0:0:
350,101,8752,1,0,0:0:0:0:
350,101,8940,6,0,B|342:182|342:182|356:202|356:202|350:276,1,180,0|0,1:2|0:0,0:0:0:0:
429,148,10065,2,0,B|459:132|492:137|492:137|458:105|391:102,1,135
344,137,10815,1,0,0:0:0:0:
263,89,11002,1,0,0:0:0:0:
357,128,11190,2,0,L|345:194,1,45
193,143,11565,5,0,0:0:0:0:
90,199,11752,1,0,0:0:0:0:
272,214,11940,2,0,L|277:262,1,45
106,183,12315,6,0,L|100:299,1,116.999994644165,4|0,1:2|0:0,0:0:0:0:
32,130,12877,1,0,0:0:0:0:
237,140,13065,2,0,P|275:182|240:286,1,175.499991966248,8|0,0:0|0:0,0:0:0:0:
192,213,13815,2,0,L|262:226,1,58.4999973220826,0|0,1:2|0:0,0:0:0:0:
410,274,14190,1,0,1:0:0:0:
99,204,14565,1,8,0:0:0:0:
408,187,14940,6,0,B|293:250|294:156|175:213,1,233.999989288331,0|0,1:2|0:0,0:0:0:0:
350,115,16065,1,8,0:0:0:0:
342,101,16440,5,0,0:0:0:0:
404,200,16627,1,8,0:0:0:0:
336,87,16815,1,0,0:0:0:0:
165,210,17190,5,8,0:0:0:0:
436,334,17565,5,8,0:0:0:0:
349,263,17752,1,0,0:0:0:0:
512,250,17940,1,0,1:0:0:0:
242,349,18315,6,0,L|153:341,1,58.4999973220826,6|0,1:0|0:0,0:0:0:0:
109,360,18690,1,0,0:0:0:0:
311,221,19065,2,0,P|320:290|239:368,1,175.499991966248,10|0,0:0|0:0,0:0:0:0:
341,294,19815,2,0,L|418:303,1,58.4999973220826,0|0,1:0|0:0,0:0:0:0:
235,245,20190,1,0,1:0:0:0:
493,62,20565,1,8,0:0:0:0:
257,126,20940,6,0,B|180:149|180:149|87:128|87:128|122:182,1,233.999989288331,0|0,1:0|0:0,0:0:0:0:
183,48,22065,1,8,0:0:0:0:
194,38,22440,5,0,0:0:0:0:
248,105,22627,1,8,0:0:0:0:
111,40,22815,1,0,1:0:0:0:
305,29,23190,5,8,0:0:0:0:
299,10,23565,5,8,0:0:0:0:
351,100,23752,1,0,1:0:0:0:
244,91,23940,1,0,1:0:0:0:
408,8,24127,1,8,0:0:0:0:
298,184,24315,6,0,B|229:206|225:172|155:189,1,144,6|0,1:0|0:0,0:0:0:0:
146,282,24877,1,0,1:0:0:0:
230,81,25065,1,10,0:0:0:0:
230,81,25440,5,0,1:0:0:0:
265,167,25627,1,8,0:0:0:0:
230,81,25815,1,0,1:0:0:0:
195,226,26002,1,8,0:0:0:0:
317,92,26190,2,0,L|401:85,1,72,2|0,1:0|0:0,0:0:0:0:
179,146,26565,2,0,L|107:140,1,72,10|0,0:0|0:0,0:0:0:0:
281,249,26940,2,0,L|365:242,1,72,2|0,1:0|0:0,0:0:0:0:
432,176,27315,6,0,P|426:250|425:321,1,144,2|0,1:2|0:0,0:0:0:0:
508,247,27877,1,0,1:0:0:0:
342,300,28065,2,0,P|271:302|219:251,1,144,10|0,0:0|1:0,0:0:0:0:
251,165,28627,1,8,0:0:0:0:
131,244,28815,1,0,1:0:0:0:
251,165,29002,1,8,0:0:0:0:
314,348,29190,6,0,L|309:275,1,72,8|0,0:0|0:0,0:0:0:0:
137,97,29565,2,0,L|132:170,1,72,8|0,0:0|0:0,0:0:0:0:
351,135,29940,1,0,1:0:0:0:
234,50,30127,1,8,0:0:0:0:
41,227,30315,6,0,B|109:250|111:207|188:231,1,144,6|0,1:0|0:0,0:0:0:0:
133,313,30877,1,0,1:0:0:0:
258,180,31065,1,10,0:0:0:0:
258,180,31440,1,0,1:0:0:0:
377,227,31627,1,8,0:0:0:0:
182,229,31815,1,0,1:0:0:0:
377,227,32002,1,8,0:0:0:0:
244,74,32190,6,0,P|230:142|247:177,1,72,2|0,1:0|0:0,0:0:0:0:
411,203,32565,2,0,P|411:167|397:134,1,72,10|0,0:0|0:0,0:0:0:0:
254,222,32940,2,0,L|182:229,1,72,2|8,1:0|0:0,0:0:0:0:
321,293,33315,6,0,L|468:313,1,144,2|0,1:0|0:0,0:0:0:0:
430,224,33877,1,0,1:0:0:0:
275,365,34065,2,0,P|244:328|262:233,1,144,10|0,0:0|1:0,0:0:0:0:
336,287,34627,1,8,0:0:0:0:
289,166,34815,5,0,1:0:0:0:
256,321,35002,1,8,0:0:0:0:
415,265,35190,2,0,L|489:269,1,72,8|0,0:0|0:0,0:0:0:0:
289,166,35565,2,0,L|217:169,1,72,8|0,0:0|0:0,0:0:0:0:
422,159,35940,1,0,1:0:0:0:
273,53,36127,1,8,0:0:0:0:
273,53,36315,6,0,B|197:22|204:82|130:53,1,144,6|0,1:2|0:0,0:0:0:0:
241,129,36877,1,0,1:0:0:0:
350,34,37065,2,0,P|413:39|471:100,1,144,8|0,0:0|1:0,0:0:0:0:
364,136,37627,1,8,0:0:0:0:
471,177,37815,1,0,1:0:0:0:
364,136,38002,1,8,0:0:0:0:
298,243,38190,2,0,L|209:233,1,72,0|0,1:0|0:0,0:0:0:0:
423,246,38565,2,0,L|458:328,1,72,10|0,0:0|0:0,0:0:0:0:
364,136,38940,2,0,L|417:63,1,72,0|0,1:0|0:0,0:0:0:0:
159,92,39315,6,0,P|230:121|294:78,1,144,2|0,1:0|0:0,0:0:0:0:
220,24,39877,1,0,1:0:0:0:
367,23,40065,2,0,B|393:71|393:71|377:172,1,144,10|0,0:0|1:0,0:0:0:0:
321,232,40627,1,8,0:0:0:0:
476,189,40815,5,0,1:0:0:0:
337,130,41002,1,0,0:0:0:0:
305,334,41190,2,0,P|244:348|200:340,1,72,8|0,0:0|0:0,0:0:0:0:
158,209,41565,2,0,P|193:211|227:222,1,72,8|0,0:0|0:0,0:0:0:0:
156,299,41940,1,0,1:0:0:0:
280,147,42127,1,8,0:0:0:0:
69,174,42315,6,0,B|64:238|64:238|74:261|74:261|70:318,1,144,4|0,1:0|0:0,0:0:0:0:
158,209,42877,1,0,1:0:0:0:
104,89,43065,2,0,L|247:83,1,144,8|0,0:0|1:0,0:0:0:0:
314,148,43627,1,8,0:0:0:0:
247,82,43815,1,0,1:0:0:0:
246,207,44002,1,8,0:0:0:0:
386,113,44190,2,0,P|351:75|325:68,1,72,2|0,1:0|0:0,0:0:0:0:
238,282,44565,2,0,P|288:270|307:251,1,72,10|0,0:0|0:0,0:0:0:0:
165,69,44940,2,0,P|149:118|156:144,1,72,2|0,1:0|0:0,0:0:0:0:
205,231,45315,6,0,B|133:219|133:219|70:251,1,144,6|0,1:0|0:0,0:0:0:0:
154,313,45877,1,0,1:0:0:0:
255,148,46065,2,0,B|255:148|396:171,1,144,10|0,0:0|1:0,0:0:0:0:
446,91,46627,1,8,0:0:0:0:
466,234,46815,6,0,L|474:313,1,72,0|0,1:0|0:0,0:0:0:0:
330,352,47190,2,0,L|338:281,1,72,8|0,0:0|0:0,0:0:0:0:
258,193,47565,1,8,0:0:0:0:
400,284,47752,1,8,0:0:0:0:
368,80,47940,1,8,1:0:0:0:
329,238,48127,1,0,0:0:0:0:
421,71,48315,6,0,L|325:51,1,90,2|0,1:0|0:0,0:0:0:0:
