osu file format v14

[General]
AudioFilename: audio.mp3
AudioLeadIn: 0
PreviewTime: 454
Countdown: 0
SampleSet: Soft
StackLeniency: 0.7
Mode: 0
LetterboxInBreaks: 0
WidescreenStoryboard: 1

[Editor]
Bookmarks: 6836,19623,32411,45198,67575
DistanceSpacing: 1.1
BeatDivisor: 4
GridSize: 8
TimelineZoom: 1.1

[Metadata]
Title:BOOMER KUWANGER STAGE
TitleUnicode:BOOMER KUWANGER STAGE
Artist:Takehara Yuko
ArtistUnicode:竹原裕子
Creator:Crissa
Version:Easy
Source:ロックマンX
Tags:mmx megaman rockman mega man x snes super nintendo capcom video game instrumental electronic vgm moodyrpg タワーステージ Tower Stage 塔のステージ Fortress ブーメル・クワンガー boomerang
BeatmapID:2797991
BeatmapSetID:1351513

[Difficulty]
HPDrainRate:3
CircleSize:3
OverallDifficulty:3
ApproachRate:4
SliderMultiplier:1.2
SliderTickRate:1

[Events]
//Background and Video events
0,0,"bg83.png",0,0
//Break Periods
//Storyboard Layer 0 (Background)
//Storyboard Layer 1 (Fail)
//Storyboard Layer 2 (Pass)
//Storyboard Layer 3 (Foreground)
//Storyboard Layer 4 (Overlay)
//Storyboard Sound Samples

[TimingPoints]
454,399.866711096301,4,2,1,50,1,0
3652,-111.111111111111,4,2,1,60,0,0
6052,394.736842105263,4,2,1,70,1,0
6461,411.522633744856,4,2,1,70,1,0
6872,382.165605095541,4,2,1,75,1,0
6872,-111.111111111111,4,2,1,75,0,0
7063,399.866711096301,4,2,1,75,1,0
7063,-111.111111111111,4,2,1,75,0,0
8462,399.866711096301,4,2,1,75,1,0
8462,-111.111111111111,4,2,1,75,0,0
31627,-111.111111111111,4,2,1,80,0,0
32426,-111.111111111111,4,2,1,70,0,0
38849,-111.111111111111,4,2,1,75,0,0
43610,-111.111111111111,4,2,1,80,0,0
44609,-111.111111111111,4,2,1,80,0,0
45208,-111.111111111111,4,2,1,85,0,0
66780,-111.111111111111,4,2,1,85,0,0

[Colours]
Combo1 : 138,138,138
Combo2 : 215,185,153
Combo3 : 180,189,151
Combo4 : 162,162,162
Combo5 : 169,124,103

[HitObjects]
493,353,3652,6,0,B|416:309|415:387|336:347,1,161.999995056153,2|0,3:2|0:0,0:0:0:0:
162,326,4852,1,0,3:0:0:0:
197,212,5252,2,0,B|274:167|275:247|355:206,1,161.999995056153,0|0,3:0|0:0,0:0:0:0:
443,38,6461,1,8,0:2:0:0:
486,159,6872,6,0,B|443:155|443:155|392:182|392:182|296:171,1,167,6|0,3:1|0:0,0:0:0:0:
236,252,7862,1,2,0:1:0:0:
119,230,8262,2,0,L|85:47,1,161.999995056153,2|10,0:1|0:0,0:0:0:0:
214,273,9661,1,10,0:0:0:0:
320,220,10061,6,0,B|314:172|314:172|287:150|287:150|273:59,1,161.999995056153,6|0,3:1|0:0,0:0:0:0:
373,4,11061,1,2,0:1:0:0:
470,71,11461,2,0,L|443:193,1,107.999996704102,2|2,0:1|0:1,0:0:0:0:
417,291,12260,1,2,0:1:0:0:
193,95,13260,6,0,B|201:155|201:155|189:176|189:176|203:265,1,161.999995056153,6|0,3:1|0:0,0:0:0:0:
111,330,14260,1,2,0:1:0:0:
17,256,14659,2,0,L|48:72,1,161.999995056153,2|10,0:1|0:2,0:0:0:0:
127,318,16059,1,10,0:0:0:0:
236,363,16459,6,0,B|285:369|285:369|318:349|318:349|412:361,1,161.999995056153,2|0,3:1|0:0,0:0:0:0:
471,270,17459,1,2,0:1:0:0:
406,170,17858,2,0,L|281:187,1,107.999996704102,2|2,0:1|0:1,0:0:0:0:
210,106,18658,1,2,0:1:0:0:
114,256,19258,1,8,0:3:0:0:
11,195,19658,5,4,3:2:0:0:
123,56,20258,2,0,P|174:108|180:200,1,161.999995056153,2|8,0:0|0:0,0:0:0:0:
240,362,21457,1,2,0:0:0:0:
321,275,21857,2,0,P|327:222|273:176,1,107.999996704102,2|2,0:0|0:0,0:0:0:0:
174,174,22657,1,2,0:0:0:0:
258,19,23257,6,0,P|319:18|371:157,1,215.999993408203,10|8,0:0|0:0,0:0:0:0:
297,228,24456,2,0,P|250:235|161:263,1,107.999996704102,0|8,3:0|0:0,0:0:0:0:
74,229,25256,1,0,3:0:0:0:
35,116,25656,1,10,0:2:0:0:
147,53,26056,6,0,P|125:107|208:155,1,161.999995056153,4|2,3:2|0:0,0:0:0:0:
352,68,27255,1,10,0:0:0:0:
455,126,27655,2,0,B|493:197|420:201|456:280,2,161.999995056153,2|2|10,3:0|0:0|0:0,0:0:0:0:
354,190,29255,6,0,B|317:241|317:241|175:182|212:37|212:37|287:44,2,377.999988464356,2|2|2,3:0|0:0|3:1,0:0:0:0:
393,78,32454,6,0,P|477:78|501:159,2,161.999995056153,4|2|10,3:2|0:0|0:0,0:0:0:0:
334,181,34053,1,2,3:0:0:0:
173,258,34653,2,0,P|109:244|119:138,1,161.999995056153,2|10,0:0|0:0,0:0:0:0:
180,74,35652,6,0,B|242:60|242:60|270:76|270:76|335:62,1,161.999995056153,2|2,3:0|0:0,0:0:0:0:
451,197,36852,1,10,0:0:0:0:
375,289,37252,2,0,B|312:275|312:275|284:291|284:291|218:277,1,161.999995056153,2|2,3:0|0:0,0:0:0:0:
51,335,38452,1,10,0:0:0:0:
4,225,38851,5,4,3:2:0:0:
101,75,39451,2,0,B|144:51|144:51|247:65|252:166,1,215.999993408203,2|2,0:0|0:0,0:0:0:0:
256,277,40651,1,2,0:0:0:0:
354,343,41051,2,0,P|426:330|451:232,1,161.999995056153,2|10,0:0|0:0,0:0:0:0:
349,202,42050,6,0,B|325:136|325:136|349:97|349:97|316:-4,1,215.999993408203,2|2,3:0|3:0,0:0:0:0:
234,86,43250,1,10,0:0:0:0:
126,34,43650,2,0,B|75:51|75:51|32:127|85:206,1,215.999993408203,6|6,3:1|3:1,0:0:0:0:
265,361,45249,6,0,P|325:349|382:328,1,107.999996704102,4|10,3:2|0:0,0:0:0:0:
474,277,46049,1,2,0:0:0:0:
308,211,46649,1,2,0:0:0:0:
274,96,47049,1,2,3:2:0:0:
373,31,47449,2,0,B|413:59|413:59|390:188,1,161.999995056153,2|10,3:2|0:0,0:0:0:0:
294,236,48448,6,0,B|224:251|224:251|204:237|204:237|131:254,2,161.999995056153,2|2|8,3:0|3:0|0:0,0:0:0:0:
378,319,50048,2,0,L|239:351,1,107.999996704102,0|8,3:0|0:0,0:0:0:0:
157,372,50847,1,2,0:0:0:0:
159,253,51247,1,10,0:0:0:0:
67,177,51647,6,0,P|84:107|182:95,2,161.999995056153,4|2|10,3:2|3:0|0:0,0:0:0:0:
134,275,53247,1,2,3:0:0:0:
292,356,53846,2,0,B|354:366|408:322|408:322|368:283,1,161.999995056153,2|6,3:0|0:3,0:0:0:0:
287,222,54846,6,0,L|269:112,1,107.999996704102,4|10,3:2|0:0,0:0:0:0:
359,37,55646,1,2,0:0:0:0:
479,168,56246,1,2,0:0:0:0:
416,269,56645,1,2,3:0:0:0:
313,208,57045,2,0,P|240:225|252:309,1,161.999995056153,2|10,3:0|0:0,0:0:0:0:
128,333,58045,6,0,B|82:304|82:252|82:252|95:235|95:235|64:183|86:136,1,215.999993408203,2|2,3:0|0:0,0:0:0:0:
229,40,59445,2,0,B|309:17|300:81|385:61,1,161.999995056153,2|10,0:0|0:0,0:0:0:0:
473,141,60444,1,2,0:0:0:0:
395,231,60844,1,10,0:0:0:0:
452,334,61244,5,4,3:2:0:0:
277,369,61844,2,0,P|234:303|288:233,1,161.999995056153,2|10,3:0|0:0,0:0:0:0:
361,159,62843,2,0,B|283:171|298:93|213:114,2,161.999995056153,2|2|10,3:0|3:0|0:0,0:0:0:0:
454,85,64443,5,2,3:0:0:0:
484,260,65043,2,0,B|426:338|389:268|317:347|317:347|306:297|306:297|227:306|198:235,1,377.999988464356,2|8,3:0|0:0,0:0:0:0:
161,127,66842,5,2,3:1:0:0:
241,39,67242,1,2,3:1:0:0:
355,72,67642,1,6,3:1:0:0:
256,192,67842,12,2,70841,3:1:0:0:
