osu file format v14

[General]
AudioFilename: audio.mp3
AudioLeadIn: 0
PreviewTime: 454
Countdown: 0
SampleSet: Soft
StackLeniency: 0.7
Mode: 0
LetterboxInBreaks: 0
WidescreenStoryboard: 0

[Editor]
Bookmarks: 6836,19623,32411,45198,67575
DistanceSpacing: 1.2
BeatDivisor: 4
GridSize: 8
TimelineZoom: 2.1

[Metadata]
Title:BOOMER KUWANGER STAGE
TitleUnicode:BOOMER KUWANGER STAGE
Artist:Takehara Yuko
ArtistUnicode:竹原裕子
Creator:Crissa
Version:Boomerang Cutter
Source:ロックマンX
Tags:mmx megaman rockman mega man x snes super nintendo capcom video game instrumental electronic vgm moodyrpg タワーステージ Tower Stage 塔のステージ Fortress ブーメル・クワンガー boomerang
BeatmapID:2797990
BeatmapSetID:1351513

[Difficulty]
HPDrainRate:6
CircleSize:5
OverallDifficulty:8
ApproachRate:9
SliderMultiplier:1.4
SliderTickRate:1

[Events]
//Background and Video events
0,0,"bg83.png",0,0
//Break Periods
//Storyboard Layer 0 (Background)
//Storyboard Layer 1 (Fail)
//Storyboard Layer 2 (Pass)
//Storyboard Layer 3 (Foreground)
//Storyboard Layer 4 (Overlay)
//Storyboard Sound Samples

[TimingPoints]
454,399.866711096301,4,2,1,50,1,0
3653,-100,4,2,1,60,0,0
6052,394.736842105263,4,2,1,70,1,0
6461,411.522633744856,4,2,1,70,1,0
6872,382.165605095541,4,2,1,75,1,0
6872,-76.9230769230769,4,2,1,75,0,0
7063,399.866711096301,4,2,1,75,1,0
7063,-76.9230769230769,4,2,1,75,0,0
8462,399.866711096301,4,2,1,75,1,0
8462,-76.9230769230769,4,2,1,75,0,0
31627,-55.5555555555556,4,2,1,80,0,0
32426,-76.9230769230769,4,2,1,70,0,0
38849,-76.9230769230769,4,2,1,75,0,0
43610,-55.5555555555556,4,2,1,80,0,0
45208,-71.4285714285714,4,2,1,85,0,0
66780,-55.5555555555556,4,2,1,85,0,0

[Colours]
Combo1 : 138,138,138
Combo2 : 215,185,153
Combo3 : 180,189,151
Combo4 : 162,162,162
Combo5 : 169,124,103

[HitObjects]
60,294,454,5,2,0:0:0:0:
80,281,553,1,2,0:0:0:0:
76,256,653,1,0,0:0:0:0:
83,233,753,1,2,0:0:0:0:
63,216,853,1,2,0:0:0:0:
54,194,953,1,0,0:0:0:0:
129,96,1153,1,2,0:0:0:0:
244,144,1353,1,2,0:0:0:0:
260,161,1453,1,2,0:0:0:0:
283,166,1553,1,0,0:0:0:0:
294,187,1653,1,2,0:0:0:0:
318,185,1753,1,2,0:0:0:0:
328,207,1853,1,2,0:0:0:0:
350,215,1953,1,0,0:0:0:0:
381,253,2053,5,2,0:0:0:0:
392,231,2153,1,2,0:0:0:0:
383,207,2253,1,0,0:0:0:0:
406,197,2353,1,2,0:0:0:0:
414,173,2453,1,2,0:0:0:0:
438,180,2553,1,0,0:0:0:0:
397,63,2753,1,2,0:0:0:0:
275,38,2953,1,2,0:0:0:0:
277,62,3053,1,2,0:0:0:0:
255,72,3153,1,0,0:0:0:0:
263,95,3253,1,2,0:0:0:0:
245,111,3353,1,2,0:0:0:0:
245,135,3453,1,2,0:0:0:0:
230,154,3552,1,0,0:0:0:0:
233,201,3652,6,0,P|204:225|161:217,1,70,2|0,3:2|0:0,0:0:0:0:
123,321,4052,2,0,P|108:307|95:284,1,35,2|0,3:2|0:0,0:0:0:0:
32,302,4252,2,0,P|66:300|90:276,1,70,0|0,0:0|3:0,0:0:0:0:
91,200,4552,1,2,0:0:0:0:
91,182,4652,2,0,L|73:142,1,35,0|2,0:0|0:0,0:0:0:0:
27,71,4852,1,2,3:0:0:0:
47,75,4952,1,2,0:0:0:0:
64,63,5052,1,0,0:0:0:0:
84,66,5152,1,2,0:0:0:0:
119,44,5252,6,0,P|163:46|181:71,1,70,0|2,3:0|0:0,0:0:0:0:
291,41,5652,2,0,P|275:56|261:81,1,35,2|0,3:2|0:0,0:0:0:0:
308,139,5852,2,0,P|288:98|266:90,1,70,0|0,0:0|3:0,0:0:0:0:
199,155,6150,1,8,0:2:0:0:
222,227,6249,2,0,P|217:246|208:268,1,35,8|0,0:2|0:0,0:0:0:0:
301,338,6461,2,0,P|294:321|290:304,1,35,8|0,0:2|0:0,0:0:0:0:
356,201,6666,1,8,0:2:0:0:
406,258,6769,1,8,0:2:0:0:
469,166,6872,6,0,B|487:121|456:120|467:78,1,90.9999958343508,6|0,3:1|0:0,0:0:0:0:
489,250,7262,1,10,0:0:0:0:
446,347,7462,1,0,0:0:0:0:
429,354,7562,1,2,0:0:0:0:
327,326,7762,1,2,0:0:0:0:
346,291,7862,2,0,P|337:249|293:234,1,90.9999958343508,2|8,0:1|0:0,0:0:0:0:
429,134,8262,2,0,P|393:175|352:164,1,90.9999958343508,2|0,0:1|3:0,0:0:0:0:
327,86,8661,5,0,0:0:0:0:
146,26,8861,1,10,0:0:0:0:
189,117,9061,1,0,0:0:0:0:
205,125,9161,1,2,0:0:0:0:
174,216,9361,1,2,0:0:0:0:
156,212,9461,2,0,L|110:198,1,45.4999979171754
58,298,9661,1,10,0:0:0:0:
76,295,9761,1,2,0:0:0:0:
94,292,9861,1,0,0:0:0:0:
112,289,9961,1,2,0:0:0:0:
155,313,10061,6,0,P|212:306|226:273,1,90.9999958343508,6|0,3:1|0:0,0:0:0:0:
165,106,10461,1,10,0:0:0:0:
147,211,10661,1,0,0:0:0:0:
154,227,10761,1,2,0:0:0:0:
279,175,10961,1,2,0:0:0:0:
262,139,11061,2,0,P|287:92|325:96,1,90.9999958343508,2|8,0:1|0:0,0:0:0:0:
384,148,11361,1,2,0:0:0:0:
463,168,11461,6,0,P|439:131|395:133,1,90.9999958343508,2|0,0:1|3:0,0:0:0:0:
389,295,11860,2,0,P|371:254|410:215,1,90.9999958343508,2|8,0:1|0:2,0:0:0:0:
445,362,12260,1,2,0:1:0:0:
421,376,12360,2,0,B|397:386|397:386|369:375|319:369,1,90.9999958343508,0|8,0:0|0:0,0:0:0:0:
248,375,12660,2,0,P|247:349|241:316,1,45.4999979171754,8|0,0:0|0:0,0:0:0:0:
171,215,12860,1,8,3:3:0:0:
199,250,12960,1,8,0:3:0:0:
231,254,13060,1,4,0:3:0:0:
256,247,13160,1,4,0:3:0:0:
280,208,13260,6,0,P|328:185|366:206,1,90.9999958343508,6|0,3:1|0:0,0:0:0:0:
409,360,13660,1,10,0:0:0:0:
459,269,13860,1,0,0:0:0:0:
476,265,13960,1,2,0:0:0:0:
498,132,14160,1,2,0:0:0:0:
456,135,14260,2,0,P|433:76|461:55,1,90.9999958343508,2|8,0:1|0:0,0:0:0:0:
280,78,14659,2,0,P|299:94|356:70,1,90.9999958343508,2|0,0:1|3:0,0:0:0:0:
313,0,15059,5,0,0:0:0:0:
241,157,15259,1,10,0:2:0:0:
177,84,15459,1,0,0:0:0:0:
159,78,15559,1,2,0:0:0:0:
106,169,15759,1,2,0:0:0:0:
124,166,15859,2,0,L|179:158,1,45.4999979171754
227,275,16059,1,10,0:0:0:0:
208,272,16159,1,2,0:0:0:0:
189,269,16259,1,0,0:0:0:0:
170,266,16359,1,0,0:0:0:0:
123,276,16459,6,0,P|96:317|119:363,1,90.9999958343508,2|0,3:1|0:0,0:0:0:0:
271,344,16859,1,10,0:0:0:0:
229,261,17059,1,0,0:0:0:0:
224,243,17159,1,2,0:0:0:0:
323,175,17359,1,2,0:0:0:0:
343,215,17459,2,0,P|385:223|417:189,1,90.9999958343508,2|8,0:1|0:0,0:0:0:0:
345,341,17858,2,0,P|370:300|422:304,1,90.9999958343508,2|0,0:1|3:0,0:0:0:0:
224,243,18258,6,0,P|278:254|288:290,1,90.9999958343508,2|8,0:1|0:0,0:0:0:0:
163,382,18658,2,0,P|206:366|207:317,1,90.9999958343508,2|0,0:1|3:0,0:0:0:0:
125,271,18958,1,8,0:3:0:0:
90,280,19058,1,8,0:3:0:0:
19,146,19258,1,8,0:3:0:0:
53,167,19358,1,8,0:3:0:0:
82,157,19458,1,4,0:3:0:0:
104,171,19558,1,4,0:3:0:0:
147,161,19658,6,0,B|191:149|191:149|237:174,1,90.9999958343508,4|0,3:2|0:0,0:0:0:0:
169,316,20058,1,8,0:0:0:0:
275,256,20258,1,2,0:0:0:0:
281,238,20358,2,0,P|333:230|349:272,2,90.9999958343508
240,319,20857,1,10,0:0:0:0:
242,337,20957,1,2,0:0:0:0:
244,355,21057,2,0,L|199:362,1,45.4999979171754
132,377,21257,5,0,3:0:0:0:
25,309,21457,2,0,P|69:318|100:264,1,90.9999958343508,2|8,0:0|0:0,0:0:0:0:
77,155,21857,1,2,0:0:0:0:
59,158,21957,2,0,P|29:207|49:239,1,90.9999958343508
98,287,22257,2,0,P|161:277|191:267,1,90.9999958343508,2|8,0:0|0:0,0:0:0:0:
157,136,22657,6,0,P|206:141|224:180,1,90.9999958343508,2|0,0:0|3:0,0:0:0:0:
77,155,23057,1,2,0:0:0:0:
94,0,23257,2,0,P|118:52|97:77,1,90.9999958343508,10|0,0:0|0:0,0:0:0:0:
83,77,23556,1,2,0:0:0:0:
157,136,23756,1,2,0:0:0:0:
174,132,23856,2,0,L|238:120,1,45.4999979171754
265,38,24056,1,10,0:0:0:0:
282,42,24156,1,2,0:0:0:0:
299,46,24256,1,0,0:0:0:0:
316,50,24356,1,0,0:0:0:0:
340,84,24456,6,0,P|388:99|418:68,1,90.9999958343508,2|0,3:2|0:0,0:0:0:0:
470,206,24856,2,0,P|456:159|482:125,1,90.9999958343508,10|0,0:0|0:0,0:0:0:0:
496,123,25156,1,2,0:0:0:0:
452,295,25356,1,8,0:2:0:0:
411,309,25456,1,10,0:2:0:0:
339,171,25656,1,10,0:2:0:0:
220,283,25856,1,10,0:2:0:0:
176,271,25956,1,8,0:2:0:0:
137,295,26056,6,0,P|76:295|63:262,2,90.9999958343508,4|0|8,3:2|0:0|0:0,0:0:0:0:
119,145,26655,1,2,0:0:0:0:
136,149,26755,2,0,P|147:199|112:225,1,90.9999958343508
61,253,27055,1,2,0:0:0:0:
8,111,27255,1,10,0:0:0:0:
104,28,27455,1,2,0:0:0:0:
157,170,27655,6,0,P|166:125|124:96,2,90.9999958343508,2|0|8,3:0|0:0|0:0,0:0:0:0:
61,253,28255,1,2,0:0:0:0:
77,245,28355,2,0,P|120:263|125:307,2,90.9999958343508
11,175,28855,2,0,L|0:113,1,45.4999979171754,10|0,0:0|0:0,0:0:0:0:
54,55,29055,1,0,0:0:0:0:
75,74,29155,1,0,0:0:0:0:
122,66,29255,6,0,P|183:89|188:124,1,90.9999958343508,2|0,3:0|0:0,0:0:0:0:
355,141,29654,2,0,P|292:156|283:195,1,90.9999958343508,8|0,0:0|0:0,0:0:0:0:
285,197,29954,1,2,0:0:0:0:
393,262,30154,1,2,0:0:0:0:
493,197,30354,1,0,0:0:0:0:
503,158,30454,1,10,0:0:0:0:
460,55,30654,1,2,0:0:0:0:
441,52,30754,1,0,0:0:0:0:
422,50,30854,5,0,3:0:0:0:
349,154,31054,1,0,0:0:0:0:
227,58,31254,1,8,0:0:0:0:
139,147,31454,1,0,0:0:0:0:
169,176,31554,1,0,0:0:0:0:
115,240,31654,6,0,B|106:251|101:268|101:268|106:289|117:299,1,62.9999980773926,6|0,3:1|0:0,0:0:0:0:
240,301,31854,2,0,B|249:290|254:273|254:273|248:251|238:242,1,62.9999980773926,2|0,3:1|0:0,0:0:0:0:
154,136,32054,1,2,3:1:0:0:
139,147,32154,2,0,B|148:180|183:187|183:187|220:177|224:144,1,125.999996154785,2|0,3:1|0:0,0:0:0:0:
180,69,32454,6,0,P|152:10|213:60,1,181.999991668702,4|8,3:2|0:0,0:0:0:0:
224,145,33053,1,2,0:0:0:0:
234,159,33153,2,0,P|277:176|320:153,1,90.9999958343508
373,67,33453,1,2,0:0:0:0:
373,67,33553,1,2,0:0:0:0:
373,67,33653,2,0,B|382:96|382:96|409:111|409:111|406:147,1,90.9999958343508,10|0,0:0|0:0,0:0:0:0:
415,336,34053,6,0,P|443:273|368:297,1,181.999991668702,2|8,3:0|0:0,0:0:0:0:
255,346,34653,1,2,0:0:0:0:
264,361,34753,2,0,P|317:377|347:354,1,90.9999958343508
300,271,35053,1,2,0:0:0:0:
300,271,35153,1,2,0:0:0:0:
300,271,35253,2,0,B|267:259|267:259|240:270|240:270|194:265,1,90.9999958343508,10|0,0:0|0:0,0:0:0:0:
26,352,35652,6,0,P|87:365|104:258,1,181.999991668702,2|8,3:0|0:0,0:0:0:0:
15,191,36252,1,2,0:0:0:0:
7,174,36352,2,0,P|25:113|61:104,1,90.9999958343508
140,124,36652,1,2,0:0:0:0:
140,124,36752,1,2,0:0:0:0:
140,124,36852,2,0,B|162:129|162:129|188:115,1,45.4999979171754,10|0,0:0|0:0,0:0:0:0:
222,49,37052,2,0,B|242:38|242:38|264:43,1,45.4999979171754,2|0,0:0|0:0,0:0:0:0:
346,124,37252,6,0,B|328:103|322:81|322:81|348:56|363:10|363:10|359:40|367:61,1,181.999991668702,2|10,3:0|0:0,0:0:0:0:
490,158,37852,1,2,0:0:0:0:
475,146,37952,2,0,P|440:144|416:200,1,90.9999958343508,0|10,0:0|0:0,0:0:0:0:
444,255,38252,1,10,0:0:0:0:
334,364,38452,1,10,0:0:0:0:
191,281,38651,1,10,0:0:0:0:
176,237,38751,1,8,0:0:0:0:
202,197,38851,6,0,P|212:149|101:101,1,181.999991668702,4|8,3:2|0:0,0:0:0:0:
23,232,39451,1,2,0:0:0:0:
14,216,39551,2,0,P|40:167|89:177,1,90.9999958343508
137,207,39851,5,2,0:0:0:0:
140,224,39951,1,2,0:0:0:0:
143,241,40051,2,0,B|145:259|145:259|138:273|136:298,1,45.4999979171754,10|0,0:0|0:0,0:0:0:0:
199,354,40251,1,2,0:0:0:0:
222,340,40351,1,2,0:0:0:0:
248,345,40451,6,0,B|267:352|267:352|283:342|303:339,1,45.4999979171754,2|0,3:0|0:0,0:0:0:0:
413,342,40651,1,2,0:0:0:0:
389,308,40751,1,2,0:0:0:0:
407,271,40851,2,0,B|412:256|412:256|407:241|404:223,1,45.4999979171754,10|0,0:0|0:0,0:0:0:0:
468,157,41051,2,0,B|465:170|460:185|460:185|465:200,1,45.4999979171754,2|0,0:0|0:0,0:0:0:0:
353,153,41251,6,0,B|371:161|371:161|390:151|409:146,1,45.4999979171754,2|0,3:0|0:0,0:0:0:0:
455,79,41451,2,0,B|437:87|437:87|418:77|399:72,1,45.4999979171754,2|0,0:0|0:0,0:0:0:0:
317,0,41650,1,10,0:0:0:0:
336,46,41750,1,2,0:0:0:0:
320,93,41850,1,2,0:0:0:0:
277,119,41950,1,0,0:0:0:0:
228,112,42050,6,0,L|217:62,2,45.4999979171754,2|2|0,3:0|0:0|0:0,0:0:0:0:
165,162,42350,1,2,0:0:0:0:
146,164,42450,2,0,L|135:214,2,45.4999979171754,10|0|0,0:0|0:0|0:0,0:0:0:0:
78,122,42750,1,2,0:0:0:0:
59,120,42850,2,0,L|48:70,1,45.4999979171754,2|0,3:0|0:0,0:0:0:0:
147,20,43050,2,0,P|143:45|134:74,1,45.4999979171754,2|0,0:0|0:0,0:0:0:0:
62,194,43250,1,10,0:0:0:0:
197,288,43450,1,2,0:0:0:0:
330,188,43650,6,0,B|349:167|356:135|356:135|328:102|317:75|317:75|321:43|332:18,2,188.999994232178,6|2|6,3:1|3:1|3:1,0:0:0:0:
330,354,44450,1,6,3:1:0:0:
338,323,44549,1,8,0:0:0:0:
355,297,44649,1,8,0:0:0:0:
380,279,44749,1,8,0:0:0:0:
409,268,44849,1,8,0:0:0:0:
386,247,44949,1,8,0:0:0:0:
369,222,45049,1,8,0:0:0:0:
363,191,45149,1,8,0:0:0:0:
367,160,45249,5,4,3:2:0:0:
468,100,45449,1,0,0:0:0:0:
334,26,45649,2,0,B|306:44|306:44|280:28|235:17,1,97.9999970092774,10|0,0:0|3:0,0:0:0:0:
161,116,46049,2,0,B|189:134|189:134|215:118|260:107,1,97.9999970092774,2|0,0:0|3:0,0:0:0:0:
397,160,46449,5,10,0:0:0:0:
299,270,46649,2,0,B|249:239|273:178|273:178|276:230|317:253,1,195.999994018555,2|2,0:0|3:2,0:0:0:0:
397,160,47249,1,10,0:0:0:0:
479,252,47449,2,0,B|528:221|504:160|504:160|501:212|460:235,1,195.999994018555,2|2,3:2|3:0,0:0:0:0:
324,139,48048,1,10,0:0:0:0:
435,73,48248,1,0,0:0:0:0:
435,73,48348,1,0,0:0:0:0:
435,73,48448,6,0,P|447:19|394:-3,2,97.9999970092774,2|0|8,3:0|0:0|0:0,0:0:0:0:
276,89,49048,1,2,3:0:0:0:
297,77,49148,2,0,P|353:94|357:140,1,97.9999970092774,0|2,0:0|0:0,0:0:0:0:
340,195,49448,2,0,L|325:248,1,48.9999985046387,0|2,3:0|0:0,0:0:0:0:
351,338,49648,1,8,0:0:0:0:
327,344,49748,1,2,0:0:0:0:
303,350,49848,1,0,0:0:0:0:
279,356,49948,1,2,0:0:0:0:
244,384,50048,5,0,3:0:0:0:
116,359,50248,1,0,3:0:0:0:
203,231,50448,1,8,0:0:0:0:
75,206,50647,1,0,3:0:0:0:
67,182,50747,1,0,0:0:0:0:
60,158,50847,5,2,0:0:0:0:
191,77,51047,1,2,3:2:0:0:
325,160,51247,2,0,B|337:184|337:184|334:222,1,48.9999985046387,10|0,0:0|0:0,0:0:0:0:
304,357,51447,1,8,0:0:0:0:
304,357,51547,1,8,0:0:0:0:
304,357,51647,5,4,3:2:0:0:
179,257,51847,2,0,P|239:256|300:287,1,97.9999970092774,2|8,0:0|0:0,0:0:0:0:
255,157,52247,2,0,P|270:225|350:338,1,195.999994018555,2|2,3:0|3:0,0:0:0:0:
461,221,52847,2,0,P|414:242|345:257,1,97.9999970092774,10|0,0:0|0:0,0:0:0:0:
381,139,53247,6,0,P|350:220|340:337,1,195.999994018555,2|8,3:0|0:0,0:0:0:0:
284,384,53846,2,0,P|254:330|192:271,1,146.999995513916,2|8,3:0|0:3,0:0:0:0:
105,275,54246,1,10,0:3:0:0:
70,248,54346,1,8,0:3:0:0:
60,204,54446,1,6,0:3:0:0:
80,164,54546,1,4,0:3:0:0:
116,148,54646,1,4,0:3:0:0:
149,155,54746,1,4,0:3:0:0:
166,168,54846,5,4,3:2:0:0:
264,100,55046,1,0,0:0:0:0:
346,255,55246,2,0,P|360:213|418:198,1,97.9999970092774,10|0,0:0|3:0,0:0:0:0:
429,205,55546,1,0,0:0:0:0:
507,108,55746,1,0,0:0:0:0:
487,123,55846,2,0,P|460:128|425:112,1,48.9999985046387,0|0,3:0|0:0,0:0:0:0:
378,23,56046,2,0,L|391:87,1,48.9999985046387,10|0,0:0|0:0,0:0:0:0:
328,141,56246,6,0,P|272:120|293:44,1,146.999995513916,2|0,0:0|0:0,0:0:0:0:
305,57,56645,2,0,P|285:68|240:61,1,48.9999985046387,2|0,3:0|0:0,0:0:0:0:
132,107,56845,2,0,P|156:107|177:119,1,48.9999985046387,10|0,0:0|0:0,0:0:0:0:
225,210,57045,2,0,P|241:159|328:162,1,146.999995513916,2|0,3:0|0:0,0:0:0:0:
363,224,57445,1,2,3:0:0:0:
482,112,57645,2,0,P|514:148|503:201,1,97.9999970092774,10|0,0:0|0:0,0:0:0:0:
454,255,57945,1,0,0:0:0:0:
435,255,58045,6,0,B|428:267|415:277|415:277|408:311|425:344|425:344|394:322|361:329|361:329|349:340|336:345,1,195.999994018555,2|8,3:0|0:0,0:0:0:0:
174,370,58645,1,0,3:0:0:0:
163,347,58745,1,0,0:0:0:0:
185,313,58845,2,0,P|193:285|190:261,1,48.9999985046387,2|0,0:0|0:0,0:0:0:0:
73,226,59045,2,0,P|135:224|146:172,1,97.9999970092774,2|8,3:0|0:0,0:0:0:0:
151,82,59445,6,0,P|111:130|207:148,1,195.999994018555,2|0,0:0|3:0,0:0:0:0:
247,0,60044,1,10,0:0:0:0:
328,89,60244,1,0,3:0:0:0:
350,97,60344,1,0,0:0:0:0:
371,85,60444,2,0,P|430:93|442:138,1,97.9999970092774,2|0,0:0|3:0,0:0:0:0:
402,291,60844,1,10,0:0:0:0:
246,344,61044,1,8,0:0:0:0:
246,344,61144,1,8,0:0:0:0:
246,344,61244,5,4,3:2:0:0:
245,225,61444,2,0,P|297:267|341:240,1,97.9999970092774,2|8,0:0|0:0,0:0:0:0:
332,140,61844,2,0,B|366:166|366:166|386:208|374:251|347:283|291:287,1,195.999994018555,2|2,3:0|3:0,0:0:0:0:
159,228,62444,1,10,0:0:0:0:
84,337,62643,1,0,0:0:0:0:
84,337,62743,1,0,0:0:0:0:
84,337,62843,6,0,B|63:323|63:323|56:282|75:249,2,97.9999970092774,2|0|8,3:0|3:0|0:0,0:0:0:0:
215,377,63443,1,2,3:0:0:0:
237,367,63543,2,0,P|252:330|208:286,1,97.9999970092774
152,250,63843,2,0,L|143:191,1,48.9999985046387,2|0,3:0|0:0,0:0:0:0:
155,117,64043,2,0,B|167:192|167:192|186:164,1,97.9999970092774,10|0,0:0|0:0,0:0:0:0:
293,72,64443,6,0,B|345:86|363:135|363:135|352:192|305:216,1,195.999994018555,2|8,3:0|0:0,0:0:0:0:
171,261,65043,1,2,3:0:0:0:
191,246,65143,2,0,B|220:241|220:241|256:253|269:288,2,97.9999970092774
97,288,65642,2,0,L|84:227,1,48.9999985046387,8|0,0:0|0:0,0:0:0:0:
71,169,65842,1,0,0:0:0:0:
65,145,65942,1,0,0:0:0:0:
61,120,66042,5,0,3:0:0:0:
152,29,66242,1,0,3:0:0:0:
248,151,66442,2,0,P|293:163|334:119,1,97.9999970092774,8|0,0:0|3:0,0:0:0:0:
485,81,66842,6,0,B|474:71|456:67|456:67|432:70|417:82,1,62.9999980773926,2|0,3:1|0:0,0:0:0:0:
418,200,67042,2,0,B|429:210|447:214|447:214|471:211|476:205,1,62.9999980773926,2|0,3:1|0:0,0:0:0:0:
362,89,67242,1,2,3:1:0:0:
344,86,67342,2,0,B|314:99|302:129|302:129|304:163|338:187,1,125.999996154785,2|0,3:1|0:0,0:0:0:0:
418,200,67642,5,6,3:1:0:0:
256,192,67742,12,2,70841,3:1:0:0:
