osu file format v14

[General]
AudioFilename: be_happier_audio.ogg
AudioLeadIn: 0
PreviewTime: 41732
Countdown: 0
SampleSet: Normal
StackLeniency: 0.7
Mode: 3
LetterboxInBreaks: 0
SpecialStyle: 0
WidescreenStoryboard: 1

[Editor]
Bookmarks: 2548,22140,31936,41732,61324,71120,80916,90712,100508,106630,107855,109079
DistanceSpacing: 1.2
BeatDivisor: 6
GridSize: 4
TimelineZoom: 3.199999

[Metadata]
Title:I hate happy people
TitleUnicode:幸せなやつが大嫌い
Artist:Takayan
ArtistUnicode:たかやん
Creator:Saugage
Version:Hard
Source:
Tags:japanese hip-hop hip hop rap jrap Summary of single songs for 2020 Bekuko gavin [LS]Gavin Hentai Gorizal Records shiawase na yatsu ga daikirai 年シングル曲まとめ nen shingurukyoku matome
BeatmapID:3967704
BeatmapSetID:1863888

[Difficulty]
HPDrainRate:7
CircleSize:10
OverallDifficulty:7
ApproachRate:5
SliderMultiplier:1.4
SliderTickRate:1

[Events]
//Background and Video events
0,0,"maxresdefaulst.jpg",0,0
//Break Periods
//Storyboard Layer 0 (Background)
//Storyboard Layer 1 (Fail)
//Storyboard Layer 2 (Pass)
//Storyboard Layer 3 (Foreground)
//Storyboard Layer 4 (Overlay)
//Storyboard Sound Samples

[TimingPoints]
100,306.122448979592,4,1,1,30,1,0

[HitObjects]
486,192,100,5,0,0:0:0:0:
25,192,100,1,0,0:0:0:0:
281,192,100,1,0,0:0:0:0:
384,192,406,1,0,0:0:0:0:
179,192,559,1,0,0:0:0:0:
76,192,559,1,0,0:0:0:0:
281,192,712,1,0,0:0:0:0:
230,192,712,1,0,0:0:0:0:
25,192,1018,1,0,0:0:0:0:
281,192,1018,1,0,0:0:0:0:
486,192,1018,1,0,0:0:0:0:
230,192,1171,1,0,0:0:0:0:
25,192,1630,1,0,0:0:0:0:
486,192,1630,1,0,0:0:0:0:
281,192,1630,1,0,0:0:0:0:
384,192,1936,1,0,0:0:0:0:
128,192,1936,1,0,0:0:0:0:
25,192,2242,1,0,0:0:0:0:
486,192,2242,1,0,0:0:0:0:
332,192,2242,1,0,0:0:0:0:
281,192,2395,1,0,0:0:0:0:
435,192,2548,1,0,0:0:0:0:
76,192,2548,1,0,0:0:0:0:
230,192,2548,1,0,0:0:0:0:
281,192,2702,1,0,0:0:0:0:
179,192,2855,1,0,0:0:0:0:
128,192,3008,1,0,0:0:0:0:
384,192,3008,1,0,0:0:0:0:
281,192,3008,1,0,0:0:0:0:
486,192,3161,1,0,0:0:0:0:
25,192,3161,1,0,0:0:0:0:
281,192,3314,1,0,0:0:0:0:
384,192,3467,1,0,0:0:0:0:
332,192,3467,1,0,0:0:0:0:
128,192,3467,1,0,0:0:0:0:
230,192,3620,1,0,0:0:0:0:
179,192,3773,1,0,0:0:0:0:
332,192,3926,1,0,0:0:0:0:
76,192,4079,1,0,0:0:0:0:
25,192,4079,1,0,0:0:0:0:
486,192,4079,1,0,0:0:0:0:
384,192,4232,1,0,0:0:0:0:
230,192,4385,1,0,0:0:0:0:
281,192,4385,1,0,0:0:0:0:
25,192,4538,1,0,0:0:0:0:
435,192,4691,1,0,0:0:0:0:
384,192,4691,1,0,0:0:0:0:
128,192,4844,1,0,0:0:0:0:
76,192,4844,1,0,0:0:0:0:
25,192,4997,1,0,0:0:0:0:
281,192,4997,1,0,0:0:0:0:
486,192,4997,1,0,0:0:0:0:
332,192,5151,1,0,0:0:0:0:
179,192,5304,1,0,0:0:0:0:
128,192,5457,1,0,0:0:0:0:
281,192,5457,1,0,0:0:0:0:
384,192,5457,1,0,0:0:0:0:
486,192,5610,1,0,0:0:0:0:
25,192,5610,1,0,0:0:0:0:
179,192,5763,1,0,0:0:0:0:
230,192,5916,1,0,0:0:0:0:
332,192,5916,1,0,0:0:0:0:
435,192,5916,1,0,0:0:0:0:
179,192,6069,1,0,0:0:0:0:
76,192,6222,1,0,0:0:0:0:
486,192,6375,1,0,0:0:0:0:
435,192,6375,1,0,0:0:0:0:
25,192,6375,1,0,0:0:0:0:
76,192,6528,1,0,0:0:0:0:
128,192,6528,1,0,0:0:0:0:
384,192,6528,1,0,0:0:0:0:
281,192,6681,1,0,0:0:0:0:
384,192,6834,1,0,0:0:0:0:
128,192,6834,1,0,0:0:0:0:
486,192,6987,1,0,0:0:0:0:
435,192,7140,1,0,0:0:0:0:
332,192,7140,1,0,0:0:0:0:
76,192,7140,1,0,0:0:0:0:
179,192,7293,1,0,0:0:0:0:
25,192,7446,1,0,0:0:0:0:
486,192,7446,1,0,0:0:0:0:
281,192,7446,1,0,0:0:0:0:
435,192,7600,1,0,0:0:0:0:
76,192,7753,1,0,0:0:0:0:
486,192,7906,1,0,0:0:0:0:
230,192,7906,1,0,0:0:0:0:
25,192,7906,1,0,0:0:0:0:
128,192,8059,1,0,0:0:0:0:
384,192,8059,1,0,0:0:0:0:
281,192,8212,1,0,0:0:0:0:
230,192,8365,1,0,0:0:0:0:
332,192,8365,1,0,0:0:0:0:
128,192,8365,1,0,0:0:0:0:
435,192,8518,1,0,0:0:0:0:
76,192,8671,1,0,0:0:0:0:
435,192,8824,1,0,0:0:0:0:
486,192,8977,1,0,0:0:0:0:
25,192,8977,1,0,0:0:0:0:
76,192,8977,1,0,0:0:0:0:
384,192,9130,1,0,0:0:0:0:
281,192,9283,1,0,0:0:0:0:
230,192,9283,1,0,0:0:0:0:
76,192,9436,1,0,0:0:0:0:
25,192,9589,1,0,0:0:0:0:
486,192,9742,1,0,0:0:0:0:
435,192,9895,1,0,0:0:0:0:
76,192,9895,1,0,0:0:0:0:
281,192,9895,1,0,0:0:0:0:
25,192,10048,1,0,0:0:0:0:
486,192,10202,1,0,0:0:0:0:
435,192,10355,1,0,0:0:0:0:
281,192,10355,1,0,0:0:0:0:
76,192,10355,1,0,0:0:0:0:
128,192,10508,1,0,0:0:0:0:
384,192,10508,1,0,0:0:0:0:
230,192,10661,1,0,0:0:0:0:
25,192,10814,1,0,0:0:0:0:
76,192,10814,1,0,0:0:0:0:
486,192,10814,1,0,0:0:0:0:
179,192,10967,1,0,0:0:0:0:
332,192,11120,1,0,0:0:0:0:
435,192,11273,1,0,0:0:0:0:
384,192,11273,1,0,0:0:0:0:
76,192,11273,1,0,0:0:0:0:
25,192,11426,1,0,0:0:0:0:
486,192,11426,1,0,0:0:0:0:
332,192,11426,1,0,0:0:0:0:
281,192,11579,1,0,0:0:0:0:
76,192,11732,1,0,0:0:0:0:
435,192,11732,1,0,0:0:0:0:
179,192,11885,1,0,0:0:0:0:
230,192,12038,1,0,0:0:0:0:
332,192,12038,1,0,0:0:0:0:
486,192,12038,1,0,0:0:0:0:
281,192,12191,1,0,0:0:0:0:
179,192,12191,1,0,0:0:0:0:
25,192,12191,1,0,0:0:0:0:
230,192,12344,1,0,0:0:0:0:
332,192,12344,1,0,0:0:0:0:
435,192,12344,1,0,0:0:0:0:
179,192,12497,1,0,0:0:0:0:
25,192,12651,1,0,0:0:0:0:
76,192,12804,1,0,0:0:0:0:
435,192,12804,1,0,0:0:0:0:
281,192,12804,1,0,0:0:0:0:
179,192,12957,1,0,0:0:0:0:
332,192,12957,1,0,0:0:0:0:
486,192,13110,1,0,0:0:0:0:
384,192,13263,1,0,0:0:0:0:
128,192,13263,1,0,0:0:0:0:
230,192,13263,1,0,0:0:0:0:
25,192,13416,1,0,0:0:0:0:
486,192,13569,1,0,0:0:0:0:
179,192,13722,1,0,0:0:0:0:
281,192,13722,1,0,0:0:0:0:
332,192,13722,1,0,0:0:0:0:
384,192,13875,1,0,0:0:0:0:
76,192,13875,1,0,0:0:0:0:
128,192,13875,1,0,0:0:0:0:
435,192,14028,1,0,0:0:0:0:
486,192,14181,1,0,0:0:0:0:
25,192,14181,1,0,0:0:0:0:
179,192,14181,1,0,0:0:0:0:
281,192,14334,1,0,0:0:0:0:
384,192,14487,1,0,0:0:0:0:
128,192,14640,1,0,0:0:0:0:
76,192,14793,1,0,0:0:0:0:
281,192,14793,1,0,0:0:0:0:
435,192,14793,1,0,0:0:0:0:
179,192,14946,1,0,0:0:0:0:
332,192,15100,1,0,0:0:0:0:
230,192,15253,1,0,0:0:0:0:
25,192,15253,1,0,0:0:0:0:
384,192,15253,1,0,0:0:0:0:
435,192,15406,1,0,0:0:0:0:
76,192,15406,1,0,0:0:0:0:
486,192,15559,1,0,0:0:0:0:
128,192,15712,1,0,0:0:0:0:
384,192,15712,1,0,0:0:0:0:
281,192,15712,1,0,0:0:0:0:
230,192,15865,1,0,0:0:0:0:
435,192,16018,1,0,0:0:0:0:
384,192,16171,1,0,0:0:0:0:
128,192,16171,1,0,0:0:0:0:
179,192,16171,1,0,0:0:0:0:
230,192,16324,1,0,0:0:0:0:
281,192,16324,1,0,0:0:0:0:
332,192,16324,1,0,0:0:0:0:
76,192,16477,1,0,0:0:0:0:
486,192,16630,1,0,0:0:0:0:
25,192,16630,1,0,0:0:0:0:
435,192,16783,1,0,0:0:0:0:
384,192,16936,1,0,0:0:0:0:
128,192,16936,1,0,0:0:0:0:
281,192,16936,1,0,0:0:0:0:
230,192,17089,1,0,0:0:0:0:
76,192,17242,1,0,0:0:0:0:
179,192,17242,1,0,0:0:0:0:
435,192,17242,1,0,0:0:0:0:
332,192,17395,1,0,0:0:0:0:
179,192,17548,1,0,0:0:0:0:
76,192,17702,1,0,0:0:0:0:
435,192,17702,1,0,0:0:0:0:
486,192,17855,1,0,0:0:0:0:
25,192,17855,1,0,0:0:0:0:
332,192,18008,1,0,0:0:0:0:
179,192,18161,1,0,0:0:0:0:
76,192,18161,1,0,0:0:0:0:
435,192,18161,1,0,0:0:0:0:
281,192,18314,1,0,0:0:0:0:
230,192,18467,1,0,0:0:0:0:
25,192,18620,1,0,0:0:0:0:
179,192,18620,1,0,0:0:0:0:
486,192,18620,1,0,0:0:0:0:
76,192,18773,1,0,0:0:0:0:
435,192,18773,1,0,0:0:0:0:
332,192,18773,1,0,0:0:0:0:
384,192,18926,1,0,0:0:0:0:
332,192,19079,1,0,0:0:0:0:
179,192,19079,1,0,0:0:0:0:
128,192,19232,1,0,0:0:0:0:
76,192,19385,1,0,0:0:0:0:
435,192,19538,1,0,0:0:0:0:
486,192,19691,1,0,0:0:0:0:
281,192,19691,1,0,0:0:0:0:
25,192,19691,1,0,0:0:0:0:
230,192,19844,1,0,0:0:0:0:
128,192,19997,1,0,0:0:0:0:
25,192,20151,1,0,0:0:0:0:
281,192,20151,1,0,0:0:0:0:
384,192,20151,1,0,0:0:0:0:
486,192,20304,1,0,0:0:0:0:
128,192,20304,1,0,0:0:0:0:
230,192,20457,1,0,0:0:0:0:
281,192,20610,1,0,0:0:0:0:
179,192,20610,1,0,0:0:0:0:
332,192,20610,1,0,0:0:0:0:
25,192,20763,1,0,0:0:0:0:
486,192,20916,1,0,0:0:0:0:
435,192,21069,5,0,0:0:0:0:
384,192,21069,1,0,0:0:0:0:
76,192,21069,1,0,0:0:0:0:
128,192,21222,1,0,0:0:0:0:
179,192,21222,1,0,0:0:0:0:
332,192,21222,1,0,0:0:0:0:
281,192,21375,1,0,0:0:0:0:
486,192,21528,1,0,0:0:0:0:
25,192,21528,1,0,0:0:0:0:
384,192,21681,1,0,0:0:0:0:
179,192,21834,1,0,0:0:0:0:
230,192,21834,1,0,0:0:0:0:
128,192,21834,1,0,0:0:0:0:
332,192,21987,1,0,0:0:0:0:
281,192,21987,1,0,0:0:0:0:
384,192,21987,1,0,0:0:0:0:
230,192,22140,1,0,0:0:0:0:
76,192,22446,1,0,0:0:0:0:
179,192,22497,1,0,0:0:0:0:
332,192,22548,1,0,0:0:0:0:
25,192,22600,1,0,0:0:0:0:
486,192,22600,1,0,0:0:0:0:
76,192,22753,1,0,0:0:0:0:
435,192,22753,1,0,0:0:0:0:
179,192,23059,1,0,0:0:0:0:
486,192,23671,1,0,0:0:0:0:
25,192,23671,1,0,0:0:0:0:
332,192,23722,1,0,0:0:0:0:
179,192,23773,1,0,0:0:0:0:
76,192,23824,1,0,0:0:0:0:
128,192,23977,1,0,0:0:0:0:
384,192,23977,1,0,0:0:0:0:
281,192,23977,1,0,0:0:0:0:
281,192,24283,1,0,0:0:0:0:
230,192,24436,1,0,0:0:0:0:
281,192,24589,1,0,0:0:0:0:
384,192,24895,1,0,0:0:0:0:
281,192,24946,1,0,0:0:0:0:
230,192,24997,1,0,0:0:0:0:
435,192,25048,1,0,0:0:0:0:
76,192,25048,1,0,0:0:0:0:
230,192,25202,1,0,0:0:0:0:
281,192,25202,1,0,0:0:0:0:
179,192,25508,1,0,0:0:0:0:
25,192,25814,1,0,0:0:0:0:
179,192,25865,1,0,0:0:0:0:
332,192,25916,1,0,0:0:0:0:
486,192,25967,1,0,0:0:0:0:
25,192,26120,1,0,0:0:0:0:
128,192,26426,1,0,0:0:0:0:
384,192,26426,1,0,0:0:0:0:
230,192,26426,1,0,0:0:0:0:
435,192,26732,1,0,0:0:0:0:
230,192,26885,1,0,0:0:0:0:
281,192,27038,1,0,0:0:0:0:
179,192,27344,1,0,0:0:0:0:
281,192,27395,1,0,0:0:0:0:
332,192,27446,1,0,0:0:0:0:
76,192,27497,1,0,0:0:0:0:
435,192,27497,1,0,0:0:0:0:
179,192,27651,1,0,0:0:0:0:
332,192,27651,1,0,0:0:0:0:
384,192,27957,1,0,0:0:0:0:
486,192,28569,1,0,0:0:0:0:
25,192,28569,1,0,0:0:0:0:
384,192,28620,1,0,0:0:0:0:
281,192,28671,1,0,0:0:0:0:
128,192,28722,1,0,0:0:0:0:
76,192,28875,1,0,0:0:0:0:
435,192,28875,1,0,0:0:0:0:
230,192,28875,1,0,0:0:0:0:
435,192,29181,1,0,0:0:0:0:
128,192,29334,1,0,0:0:0:0:
281,192,29487,1,0,0:0:0:0:
76,192,29793,1,0,0:0:0:0:
179,192,29844,1,0,0:0:0:0:
332,192,29895,1,0,0:0:0:0:
25,192,29946,1,0,0:0:0:0:
486,192,29946,1,0,0:0:0:0:
128,192,30100,1,0,0:0:0:0:
384,192,30100,1,0,0:0:0:0:
230,192,30406,1,0,0:0:0:0:
384,192,30712,1,0,0:0:0:0:
332,192,30763,1,0,0:0:0:0:
281,192,30814,1,0,0:0:0:0:
179,192,30865,1,0,0:0:0:0:
25,192,31018,1,0,0:0:0:0:
179,192,31018,1,0,0:0:0:0:
281,192,31069,1,0,0:0:0:0:
332,192,31120,1,0,0:0:0:0:
384,192,31171,1,0,0:0:0:0:
332,192,31324,1,0,0:0:0:0:
179,192,31324,1,0,0:0:0:0:
230,192,31324,1,0,0:0:0:0:
128,192,31630,1,0,0:0:0:0:
435,192,31783,1,0,0:0:0:0:
230,192,31936,1,0,0:0:0:0:
25,192,31936,1,0,0:0:0:0:
486,192,31936,1,0,0:0:0:0:
486,192,32242,1,0,0:0:0:0:
435,192,32293,1,0,0:0:0:0:
384,192,32344,1,0,0:0:0:0:
332,192,32395,1,0,0:0:0:0:
281,192,32548,1,0,0:0:0:0:
230,192,32548,1,0,0:0:0:0:
25,192,32855,1,0,0:0:0:0:
230,192,32855,1,0,0:0:0:0:
486,192,32855,1,0,0:0:0:0:
25,192,33467,1,0,0:0:0:0:
486,192,33467,1,0,0:0:0:0:
76,192,33518,1,0,0:0:0:0:
128,192,33569,1,0,0:0:0:0:
179,192,33620,1,0,0:0:0:0:
230,192,33773,1,0,0:0:0:0:
281,192,33773,1,0,0:0:0:0:
332,192,34079,1,0,0:0:0:0:
281,192,34232,1,0,0:0:0:0:
76,192,34385,1,0,0:0:0:0:
435,192,34385,1,0,0:0:0:0:
230,192,34385,1,0,0:0:0:0:
435,192,34691,1,0,0:0:0:0:
384,192,34742,1,0,0:0:0:0:
332,192,34793,1,0,0:0:0:0:
281,192,34844,1,0,0:0:0:0:
25,192,34997,1,0,0:0:0:0:
486,192,34997,1,0,0:0:0:0:
76,192,35304,1,0,0:0:0:0:
230,192,35304,1,0,0:0:0:0:
435,192,35304,1,0,0:0:0:0:
76,192,35610,1,0,0:0:0:0:
128,192,35661,1,0,0:0:0:0:
179,192,35712,1,0,0:0:0:0:
230,192,35763,1,0,0:0:0:0:
384,192,35763,1,0,0:0:0:0:
281,192,35916,1,0,0:0:0:0:
128,192,35916,1,0,0:0:0:0:
332,192,35967,1,0,0:0:0:0:
384,192,36018,1,0,0:0:0:0:
435,192,36069,1,0,0:0:0:0:
25,192,36222,1,0,0:0:0:0:
486,192,36222,1,0,0:0:0:0:
76,192,36528,1,0,0:0:0:0:
435,192,36528,1,0,0:0:0:0:
281,192,36528,1,0,0:0:0:0:
332,192,36681,1,0,0:0:0:0:
128,192,36834,1,0,0:0:0:0:
230,192,36834,1,0,0:0:0:0:
384,192,36834,1,0,0:0:0:0:
486,192,37140,1,0,0:0:0:0:
435,192,37191,1,0,0:0:0:0:
384,192,37242,1,0,0:0:0:0:
332,192,37293,1,0,0:0:0:0:
230,192,37446,1,0,0:0:0:0:
281,192,37446,1,0,0:0:0:0:
25,192,37753,1,0,0:0:0:0:
230,192,37753,1,0,0:0:0:0:
486,192,37753,1,0,0:0:0:0:
230,192,38365,5,0,0:0:0:0:
332,192,38365,1,0,0:0:0:0:
435,192,38365,1,0,0:0:0:0:
179,192,38416,1,0,0:0:0:0:
128,192,38467,1,0,0:0:0:0:
76,192,38518,1,0,0:0:0:0:
281,192,38671,1,0,0:0:0:0:
230,192,38671,1,0,0:0:0:0:
179,192,38977,1,0,0:0:0:0:
230,192,39130,1,0,0:0:0:0:
25,192,39283,5,0,0:0:0:0:
281,192,39283,1,0,0:0:0:0:
486,192,39283,1,0,0:0:0:0:
384,192,39742,1,0,0:0:0:0:
435,192,39895,1,0,0:0:0:0:
76,192,39895,1,0,0:0:0:0:
230,192,39895,1,0,0:0:0:0:
179,192,40202,1,0,0:0:0:0:
128,192,40508,1,0,0:0:0:0:
384,192,40508,1,0,0:0:0:0:
281,192,40508,1,0,0:0:0:0:
332,192,40814,1,0,0:0:0:0:
435,192,41120,1,0,0:0:0:0:
230,192,41120,1,0,0:0:0:0:
76,192,41120,1,0,0:0:0:0:
128,192,41426,1,0,0:0:0:0:
384,192,41579,1,0,0:0:0:0:
25,192,41732,1,0,0:0:0:0:
486,192,41732,1,0,0:0:0:0:
281,192,41732,1,0,0:0:0:0:
384,192,41885,1,0,0:0:0:0:
128,192,42038,1,0,0:0:0:0:
76,192,42191,1,0,0:0:0:0:
25,192,42191,1,0,0:0:0:0:
486,192,42191,1,0,0:0:0:0:
435,192,42344,1,0,0:0:0:0:
179,192,42344,1,0,0:0:0:0:
76,192,42497,1,0,0:0:0:0:
128,192,42651,1,0,0:0:0:0:
384,192,42651,1,0,0:0:0:0:
281,192,42651,1,0,0:0:0:0:
230,192,42804,1,0,0:0:0:0:
332,192,42957,1,0,0:0:0:0:
384,192,43110,1,0,0:0:0:0:
332,192,43263,1,0,0:0:0:0:
76,192,43263,1,0,0:0:0:0:
435,192,43263,1,0,0:0:0:0:
179,192,43416,1,0,0:0:0:0:
230,192,43569,1,0,0:0:0:0:
281,192,43569,1,0,0:0:0:0:
332,192,43722,1,0,0:0:0:0:
435,192,43875,1,0,0:0:0:0:
384,192,43875,1,0,0:0:0:0:
128,192,44028,1,0,0:0:0:0:
76,192,44028,1,0,0:0:0:0:
281,192,44181,1,0,0:0:0:0:
25,192,44181,1,0,0:0:0:0:
486,192,44181,1,0,0:0:0:0:
384,192,44334,1,0,0:0:0:0:
128,192,44487,1,0,0:0:0:0:
230,192,44640,1,0,0:0:0:0:
76,192,44640,1,0,0:0:0:0:
435,192,44640,1,0,0:0:0:0:
486,192,44793,1,0,0:0:0:0:
25,192,44793,1,0,0:0:0:0:
281,192,44793,1,0,0:0:0:0:
332,192,44946,1,0,0:0:0:0:
384,192,45100,1,0,0:0:0:0:
435,192,45100,1,0,0:0:0:0:
76,192,45100,1,0,0:0:0:0:
128,192,45253,1,0,0:0:0:0:
25,192,45406,1,0,0:0:0:0:
76,192,45559,1,0,0:0:0:0:
128,192,45559,1,0,0:0:0:0:
435,192,45559,1,0,0:0:0:0:
384,192,45712,1,0,0:0:0:0:
332,192,45712,1,0,0:0:0:0:
179,192,45712,1,0,0:0:0:0:
230,192,45865,1,0,0:0:0:0:
281,192,46018,1,0,0:0:0:0:
179,192,46018,1,0,0:0:0:0:
384,192,46018,1,0,0:0:0:0:
76,192,46171,1,0,0:0:0:0:
25,192,46324,1,0,0:0:0:0:
486,192,46324,1,0,0:0:0:0:
281,192,46324,1,0,0:0:0:0:
435,192,46477,1,0,0:0:0:0:
332,192,46477,1,0,0:0:0:0:
281,192,46630,1,0,0:0:0:0:
486,192,46630,1,0,0:0:0:0:
128,192,46630,1,0,0:0:0:0:
25,192,46783,1,0,0:0:0:0:
486,192,46936,1,0,0:0:0:0:
435,192,47089,1,0,0:0:0:0:
76,192,47089,1,0,0:0:0:0:
230,192,47089,1,0,0:0:0:0:
281,192,47242,1,0,0:0:0:0:
128,192,47242,1,0,0:0:0:0:
384,192,47242,1,0,0:0:0:0:
25,192,47395,1,0,0:0:0:0:
76,192,47548,1,0,0:0:0:0:
486,192,47548,1,0,0:0:0:0:
435,192,47548,1,0,0:0:0:0:
281,192,47702,1,0,0:0:0:0:
384,192,47855,1,0,0:0:0:0:
128,192,48008,1,0,0:0:0:0:
76,192,48161,1,0,0:0:0:0:
435,192,48161,1,0,0:0:0:0:
179,192,48161,1,0,0:0:0:0:
230,192,48314,1,0,0:0:0:0:
281,192,48467,1,0,0:0:0:0:
486,192,48467,1,0,0:0:0:0:
25,192,48467,1,0,0:0:0:0:
384,192,48620,1,0,0:0:0:0:
25,192,48773,1,0,0:0:0:0:
230,192,48773,1,0,0:0:0:0:
281,192,48926,1,0,0:0:0:0:
486,192,48926,1,0,0:0:0:0:
435,192,49079,1,0,0:0:0:0:
332,192,49079,1,0,0:0:0:0:
128,192,49079,1,0,0:0:0:0:
76,192,49232,1,0,0:0:0:0:
435,192,49385,1,0,0:0:0:0:
230,192,49538,1,0,0:0:0:0:
25,192,49538,1,0,0:0:0:0:
486,192,49538,1,0,0:0:0:0:
384,192,49691,1,0,0:0:0:0:
128,192,49691,1,0,0:0:0:0:
332,192,49844,1,0,0:0:0:0:
281,192,49997,1,0,0:0:0:0:
230,192,49997,1,0,0:0:0:0:
128,192,49997,1,0,0:0:0:0:
384,192,50151,1,0,0:0:0:0:
25,192,50304,1,0,0:0:0:0:
486,192,50457,1,0,0:0:0:0:
435,192,50457,1,0,0:0:0:0:
76,192,50457,1,0,0:0:0:0:
128,192,50610,1,0,0:0:0:0:
179,192,50610,1,0,0:0:0:0:
384,192,50610,1,0,0:0:0:0:
332,192,50763,1,0,0:0:0:0:
25,192,50916,1,0,0:0:0:0:
486,192,50916,1,0,0:0:0:0:
179,192,51069,1,0,0:0:0:0:
281,192,51222,1,0,0:0:0:0:
230,192,51222,1,0,0:0:0:0:
384,192,51222,1,0,0:0:0:0:
332,192,51375,1,0,0:0:0:0:
179,192,51375,1,0,0:0:0:0:
281,192,51528,1,0,0:0:0:0:
230,192,51528,1,0,0:0:0:0:
128,192,51528,1,0,0:0:0:0:
384,192,51681,1,0,0:0:0:0:
25,192,51834,1,0,0:0:0:0:
76,192,51987,1,0,0:0:0:0:
435,192,51987,1,0,0:0:0:0:
179,192,51987,1,0,0:0:0:0:
281,192,52140,1,0,0:0:0:0:
230,192,52140,1,0,0:0:0:0:
332,192,52293,1,0,0:0:0:0:
486,192,52446,1,0,0:0:0:0:
25,192,52446,1,0,0:0:0:0:
179,192,52446,1,0,0:0:0:0:
281,192,52600,1,0,0:0:0:0:
128,192,52753,1,0,0:0:0:0:
435,192,52906,1,0,0:0:0:0:
230,192,53059,1,0,0:0:0:0:
25,192,53059,1,0,0:0:0:0:
486,192,53059,1,0,0:0:0:0:
281,192,53212,1,0,0:0:0:0:
332,192,53365,1,0,0:0:0:0:
179,192,53365,1,0,0:0:0:0:
76,192,53518,1,0,0:0:0:0:
486,192,53671,1,0,0:0:0:0:
25,192,53671,1,0,0:0:0:0:
76,192,53824,1,0,0:0:0:0:
435,192,53824,1,0,0:0:0:0:
384,192,53977,1,0,0:0:0:0:
128,192,53977,1,0,0:0:0:0:
230,192,53977,1,0,0:0:0:0:
435,192,54130,1,0,0:0:0:0:
76,192,54283,1,0,0:0:0:0:
486,192,54436,1,0,0:0:0:0:
435,192,54589,1,0,0:0:0:0:
76,192,54589,1,0,0:0:0:0:
281,192,54742,1,0,0:0:0:0:
25,192,54895,1,0,0:0:0:0:
230,192,54895,1,0,0:0:0:0:
486,192,54895,1,0,0:0:0:0:
128,192,55048,1,0,0:0:0:0:
384,192,55202,1,0,0:0:0:0:
76,192,55355,1,0,0:0:0:0:
435,192,55355,1,0,0:0:0:0:
230,192,55355,1,0,0:0:0:0:
486,192,55508,1,0,0:0:0:0:
25,192,55508,1,0,0:0:0:0:
281,192,55508,1,0,0:0:0:0:
384,192,55661,1,0,0:0:0:0:
332,192,55814,1,0,0:0:0:0:
179,192,55814,1,0,0:0:0:0:
128,192,55967,1,0,0:0:0:0:
435,192,56120,1,0,0:0:0:0:
281,192,56120,1,0,0:0:0:0:
76,192,56120,1,0,0:0:0:0:
128,192,56273,1,0,0:0:0:0:
384,192,56273,1,0,0:0:0:0:
25,192,56426,1,0,0:0:0:0:
230,192,56426,1,0,0:0:0:0:
486,192,56426,1,0,0:0:0:0:
435,192,56579,1,0,0:0:0:0:
179,192,56732,1,0,0:0:0:0:
76,192,56885,1,0,0:0:0:0:
128,192,57038,1,0,0:0:0:0:
384,192,57038,1,0,0:0:0:0:
332,192,57191,1,0,0:0:0:0:
281,192,57344,1,0,0:0:0:0:
76,192,57344,1,0,0:0:0:0:
435,192,57344,1,0,0:0:0:0:
486,192,57497,1,0,0:0:0:0:
230,192,57651,1,0,0:0:0:0:
25,192,57804,1,0,0:0:0:0:
76,192,57957,1,0,0:0:0:0:
230,192,57957,1,0,0:0:0:0:
435,192,57957,1,0,0:0:0:0:
281,192,58110,1,0,0:0:0:0:
179,192,58263,1,0,0:0:0:0:
332,192,58263,1,0,0:0:0:0:
128,192,58416,1,0,0:0:0:0:
25,192,58569,1,0,0:0:0:0:
486,192,58722,1,0,0:0:0:0:
76,192,58875,1,0,0:0:0:0:
435,192,58875,1,0,0:0:0:0:
230,192,58875,1,0,0:0:0:0:
332,192,59028,1,0,0:0:0:0:
179,192,59181,1,0,0:0:0:0:
435,192,59334,1,0,0:0:0:0:
281,192,59487,1,0,0:0:0:0:
230,192,59487,1,0,0:0:0:0:
76,192,59640,1,0,0:0:0:0:
25,192,59793,1,0,0:0:0:0:
230,192,59793,1,0,0:0:0:0:
486,192,59793,1,0,0:0:0:0:
281,192,59946,5,0,0:0:0:0:
179,192,60100,1,0,0:0:0:0:
76,192,60253,1,0,0:0:0:0:
435,192,60253,1,0,0:0:0:0:
281,192,60253,1,0,0:0:0:0:
25,192,60406,1,0,0:0:0:0:
486,192,60406,1,0,0:0:0:0:
230,192,60406,1,0,0:0:0:0:
128,192,60559,1,0,0:0:0:0:
281,192,60712,1,0,0:0:0:0:
230,192,60712,1,0,0:0:0:0:
486,192,60865,1,0,0:0:0:0:
384,192,61018,5,0,0:0:0:0:
332,192,61018,1,0,0:0:0:0:
435,192,61018,1,0,0:0:0:0:
179,192,61171,1,0,0:0:0:0:
128,192,61171,1,0,0:0:0:0:
76,192,61171,1,0,0:0:0:0:
332,192,61324,1,0,0:0:0:0:
384,192,61630,1,0,0:0:0:0:
230,192,61681,1,0,0:0:0:0:
128,192,61732,1,0,0:0:0:0:
435,192,61783,1,0,0:0:0:0:
76,192,61783,1,0,0:0:0:0:
230,192,61936,1,0,0:0:0:0:
281,192,61936,1,0,0:0:0:0:
179,192,62242,1,0,0:0:0:0:
25,192,62855,1,0,0:0:0:0:
486,192,62855,1,0,0:0:0:0:
179,192,62906,1,0,0:0:0:0:
332,192,62957,1,0,0:0:0:0:
435,192,63008,1,0,0:0:0:0:
281,192,63161,1,0,0:0:0:0:
230,192,63161,1,0,0:0:0:0:
384,192,63467,1,0,0:0:0:0:
128,192,63620,1,0,0:0:0:0:
76,192,63773,1,0,0:0:0:0:
25,192,64079,1,0,0:0:0:0:
230,192,64130,1,0,0:0:0:0:
332,192,64181,1,0,0:0:0:0:
76,192,64232,1,0,0:0:0:0:
435,192,64232,1,0,0:0:0:0:
384,192,64385,1,0,0:0:0:0:
128,192,64385,1,0,0:0:0:0:
486,192,64691,1,0,0:0:0:0:
435,192,64997,1,0,0:0:0:0:
332,192,65048,1,0,0:0:0:0:
179,192,65100,1,0,0:0:0:0:
76,192,65151,1,0,0:0:0:0:
25,192,65304,1,0,0:0:0:0:
76,192,65304,1,0,0:0:0:0:
179,192,65355,1,0,0:0:0:0:
332,192,65406,1,0,0:0:0:0:
435,192,65457,1,0,0:0:0:0:
384,192,65610,1,0,0:0:0:0:
128,192,65610,1,0,0:0:0:0:
435,192,65916,1,0,0:0:0:0:
76,192,66069,1,0,0:0:0:0:
281,192,66222,1,0,0:0:0:0:
486,192,66528,1,0,0:0:0:0:
332,192,66579,1,0,0:0:0:0:
179,192,66630,1,0,0:0:0:0:
435,192,66681,1,0,0:0:0:0:
76,192,66681,1,0,0:0:0:0:
128,192,66834,1,0,0:0:0:0:
384,192,66834,1,0,0:0:0:0:
179,192,67140,1,0,0:0:0:0:
25,192,67753,1,0,0:0:0:0:
486,192,67753,1,0,0:0:0:0:
179,192,67804,1,0,0:0:0:0:
281,192,67855,1,0,0:0:0:0:
332,192,67906,1,0,0:0:0:0:
384,192,68059,1,0,0:0:0:0:
128,192,68059,1,0,0:0:0:0:
332,192,68365,1,0,0:0:0:0:
179,192,68518,1,0,0:0:0:0:
128,192,68671,1,0,0:0:0:0:
76,192,68977,1,0,0:0:0:0:
230,192,69028,1,0,0:0:0:0:
435,192,69079,1,0,0:0:0:0:
25,192,69130,1,0,0:0:0:0:
486,192,69130,1,0,0:0:0:0:
435,192,69283,1,0,0:0:0:0:
76,192,69283,1,0,0:0:0:0:
25,192,69589,1,0,0:0:0:0:
76,192,69895,1,0,0:0:0:0:
230,192,69946,1,0,0:0:0:0:
281,192,69997,1,0,0:0:0:0:
435,192,70048,1,0,0:0:0:0:
435,192,70202,1,0,0:0:0:0:
486,192,70202,1,0,0:0:0:0:
281,192,70253,1,0,0:0:0:0:
230,192,70304,1,0,0:0:0:0:
76,192,70355,1,0,0:0:0:0:
486,192,70508,1,0,0:0:0:0:
25,192,70508,1,0,0:0:0:0:
128,192,70814,1,0,0:0:0:0:
384,192,70967,1,0,0:0:0:0:
25,192,71120,1,0,0:0:0:0:
281,192,71120,1,0,0:0:0:0:
486,192,71120,1,0,0:0:0:0:
486,192,71426,1,0,0:0:0:0:
435,192,71477,1,0,0:0:0:0:
384,192,71528,1,0,0:0:0:0:
332,192,71579,1,0,0:0:0:0:
179,192,71579,1,0,0:0:0:0:
230,192,71732,1,0,0:0:0:0:
281,192,71732,1,0,0:0:0:0:
179,192,72038,1,0,0:0:0:0:
76,192,72038,1,0,0:0:0:0:
332,192,72038,1,0,0:0:0:0:
76,192,72651,1,0,0:0:0:0:
435,192,72651,1,0,0:0:0:0:
128,192,72702,1,0,0:0:0:0:
179,192,72753,1,0,0:0:0:0:
230,192,72804,1,0,0:0:0:0:
384,192,72957,1,0,0:0:0:0:
435,192,72957,1,0,0:0:0:0:
486,192,73263,1,0,0:0:0:0:
25,192,73416,1,0,0:0:0:0:
230,192,73569,1,0,0:0:0:0:
281,192,73569,1,0,0:0:0:0:
332,192,73569,1,0,0:0:0:0:
76,192,73875,1,0,0:0:0:0:
128,192,73926,1,0,0:0:0:0:
179,192,73977,1,0,0:0:0:0:
230,192,74028,1,0,0:0:0:0:
281,192,74028,1,0,0:0:0:0:
486,192,74181,1,0,0:0:0:0:
435,192,74181,1,0,0:0:0:0:
76,192,74487,1,0,0:0:0:0:
128,192,74487,1,0,0:0:0:0:
179,192,74487,1,0,0:0:0:0:
25,192,74793,1,0,0:0:0:0:
76,192,74844,1,0,0:0:0:0:
128,192,74895,1,0,0:0:0:0:
179,192,74946,1,0,0:0:0:0:
281,192,74946,1,0,0:0:0:0:
230,192,75100,1,0,0:0:0:0:
486,192,75100,1,0,0:0:0:0:
435,192,75151,1,0,0:0:0:0:
384,192,75202,1,0,0:0:0:0:
332,192,75253,1,0,0:0:0:0:
179,192,75406,1,0,0:0:0:0:
76,192,75406,1,0,0:0:0:0:
435,192,75712,1,0,0:0:0:0:
486,192,75712,1,0,0:0:0:0:
332,192,75712,1,0,0:0:0:0:
281,192,75865,1,0,0:0:0:0:
179,192,76018,1,0,0:0:0:0:
25,192,76018,1,0,0:0:0:0:
76,192,76018,1,0,0:0:0:0:
76,192,76324,1,0,0:0:0:0:
128,192,76375,1,0,0:0:0:0:
179,192,76426,1,0,0:0:0:0:
230,192,76477,1,0,0:0:0:0:
281,192,76477,1,0,0:0:0:0:
128,192,76630,1,0,0:0:0:0:
384,192,76630,1,0,0:0:0:0:
25,192,76936,1,0,0:0:0:0:
230,192,76936,1,0,0:0:0:0:
486,192,76936,1,0,0:0:0:0:
384,192,77548,1,0,0:0:0:0:
76,192,77548,1,0,0:0:0:0:
128,192,77600,1,0,0:0:0:0:
179,192,77651,1,0,0:0:0:0:
230,192,77702,1,0,0:0:0:0:
332,192,77855,1,0,0:0:0:0:
435,192,77855,1,0,0:0:0:0:
332,192,78161,1,0,0:0:0:0:
179,192,78314,1,0,0:0:0:0:
25,192,78467,1,0,0:0:0:0:
486,192,78467,1,0,0:0:0:0:
435,192,78467,1,0,0:0:0:0:
281,192,78926,1,0,0:0:0:0:
76,192,79079,1,0,0:0:0:0:
435,192,79079,1,0,0:0:0:0:
128,192,79079,1,0,0:0:0:0:
230,192,79385,1,0,0:0:0:0:
128,192,79691,1,0,0:0:0:0:
384,192,79691,1,0,0:0:0:0:
332,192,79691,1,0,0:0:0:0:
281,192,79997,1,0,0:0:0:0:
179,192,80304,1,0,0:0:0:0:
332,192,80304,1,0,0:0:0:0:
128,192,80304,1,0,0:0:0:0:
230,192,80610,1,0,0:0:0:0:
281,192,80763,1,0,0:0:0:0:
384,192,80916,1,0,0:0:0:0:
332,192,80916,1,0,0:0:0:0:
179,192,80916,1,0,0:0:0:0:
76,192,81222,1,0,0:0:0:0:
128,192,81273,1,0,0:0:0:0:
179,192,81324,1,0,0:0:0:0:
230,192,81375,1,0,0:0:0:0:
281,192,81528,1,0,0:0:0:0:
332,192,81528,1,0,0:0:0:0:
76,192,81834,1,0,0:0:0:0:
128,192,81834,1,0,0:0:0:0:
179,192,81834,1,0,0:0:0:0:
25,192,82446,1,0,0:0:0:0:
486,192,82446,1,0,0:0:0:0:
435,192,82497,1,0,0:0:0:0:
384,192,82548,1,0,0:0:0:0:
332,192,82600,1,0,0:0:0:0:
179,192,82753,1,0,0:0:0:0:
128,192,82753,1,0,0:0:0:0:
384,192,83059,1,0,0:0:0:0:
128,192,83212,1,0,0:0:0:0:
179,192,83365,1,0,0:0:0:0:
332,192,83365,1,0,0:0:0:0:
281,192,83365,1,0,0:0:0:0:
332,192,83671,1,0,0:0:0:0:
384,192,83722,1,0,0:0:0:0:
435,192,83773,1,0,0:0:0:0:
486,192,83824,1,0,0:0:0:0:
384,192,83977,1,0,0:0:0:0:
128,192,83977,1,0,0:0:0:0:
281,192,84283,1,0,0:0:0:0:
25,192,84283,1,0,0:0:0:0:
486,192,84283,1,0,0:0:0:0:
230,192,84589,1,0,0:0:0:0:
179,192,84640,1,0,0:0:0:0:
128,192,84691,1,0,0:0:0:0:
76,192,84742,1,0,0:0:0:0:
384,192,84742,1,0,0:0:0:0:
281,192,84895,1,0,0:0:0:0:
128,192,84895,1,0,0:0:0:0:
332,192,84946,1,0,0:0:0:0:
384,192,84997,1,0,0:0:0:0:
435,192,85048,1,0,0:0:0:0:
486,192,85202,1,0,0:0:0:0:
25,192,85202,1,0,0:0:0:0:
435,192,85508,1,0,0:0:0:0:
76,192,85508,1,0,0:0:0:0:
230,192,85508,1,0,0:0:0:0:
281,192,85661,1,0,0:0:0:0:
25,192,85814,1,0,0:0:0:0:
486,192,85814,1,0,0:0:0:0:
230,192,85814,1,0,0:0:0:0:
76,192,86120,1,0,0:0:0:0:
128,192,86171,1,0,0:0:0:0:
179,192,86222,1,0,0:0:0:0:
230,192,86273,1,0,0:0:0:0:
435,192,86426,1,0,0:0:0:0:
384,192,86426,1,0,0:0:0:0:
76,192,86732,1,0,0:0:0:0:
25,192,86732,1,0,0:0:0:0:
486,192,86732,1,0,0:0:0:0:
435,192,87344,1,0,0:0:0:0:
128,192,87344,1,0,0:0:0:0:
384,192,87395,1,0,0:0:0:0:
332,192,87446,1,0,0:0:0:0:
281,192,87497,1,0,0:0:0:0:
76,192,87651,1,0,0:0:0:0:
179,192,87651,1,0,0:0:0:0:
25,192,87957,1,0,0:0:0:0:
486,192,88110,1,0,0:0:0:0:
435,192,88263,1,0,0:0:0:0:
76,192,88263,1,0,0:0:0:0:
230,192,88263,1,0,0:0:0:0:
179,192,88569,1,0,0:0:0:0:
128,192,88620,1,0,0:0:0:0:
76,192,88671,1,0,0:0:0:0:
25,192,88722,1,0,0:0:0:0:
230,192,88875,1,0,0:0:0:0:
281,192,88875,1,0,0:0:0:0:
435,192,89181,1,0,0:0:0:0:
384,192,89181,1,0,0:0:0:0:
76,192,89181,1,0,0:0:0:0:
332,192,89487,1,0,0:0:0:0:
384,192,89538,5,0,0:0:0:0:
435,192,89589,1,0,0:0:0:0:
486,192,89640,1,0,0:0:0:0:
230,192,89640,1,0,0:0:0:0:
179,192,89793,1,0,0:0:0:0:
281,192,89793,1,0,0:0:0:0:
128,192,89844,1,0,0:0:0:0:
76,192,89895,1,0,0:0:0:0:
25,192,89946,1,0,0:0:0:0:
179,192,90100,1,0,0:0:0:0:
332,192,90100,1,0,0:0:0:0:
486,192,90406,1,0,0:0:0:0:
435,192,90406,1,0,0:0:0:0:
384,192,90406,1,0,0:0:0:0:
128,192,90559,1,0,0:0:0:0:
76,192,90559,1,0,0:0:0:0:
25,192,90559,1,0,0:0:0:0:
332,192,90712,5,0,0:0:0:0:
384,192,90712,1,0,0:0:0:0:
435,192,90712,1,0,0:0:0:0:
179,192,90865,1,0,0:0:0:0:
435,192,91018,1,0,0:0:0:0:
384,192,91018,1,0,0:0:0:0:
179,192,91171,1,0,0:0:0:0:
435,192,91324,1,0,0:0:0:0:
76,192,91324,1,0,0:0:0:0:
332,192,91477,1,0,0:0:0:0:
230,192,91630,1,0,0:0:0:0:
25,192,91630,1,0,0:0:0:0:
486,192,91630,1,0,0:0:0:0:
128,192,91783,1,0,0:0:0:0:
384,192,91936,1,0,0:0:0:0:
230,192,92089,1,0,0:0:0:0:
76,192,92242,1,0,0:0:0:0:
128,192,92242,1,0,0:0:0:0:
435,192,92242,1,0,0:0:0:0:
332,192,92395,1,0,0:0:0:0:
25,192,92548,1,0,0:0:0:0:
486,192,92548,1,0,0:0:0:0:
128,192,92702,1,0,0:0:0:0:
435,192,92855,1,0,0:0:0:0:
384,192,92855,1,0,0:0:0:0:
281,192,93008,1,0,0:0:0:0:
230,192,93008,1,0,0:0:0:0:
76,192,93161,1,0,0:0:0:0:
128,192,93161,1,0,0:0:0:0:
179,192,93161,1,0,0:0:0:0:
332,192,93314,1,0,0:0:0:0:
76,192,93467,1,0,0:0:0:0:
128,192,93467,1,0,0:0:0:0:
332,192,93620,1,0,0:0:0:0:
76,192,93773,1,0,0:0:0:0:
435,192,93773,1,0,0:0:0:0:
179,192,93926,1,0,0:0:0:0:
25,192,94079,1,0,0:0:0:0:
281,192,94079,1,0,0:0:0:0:
486,192,94079,1,0,0:0:0:0:
384,192,94232,1,0,0:0:0:0:
128,192,94385,1,0,0:0:0:0:
486,192,94538,1,0,0:0:0:0:
25,192,94538,1,0,0:0:0:0:
281,192,94538,1,0,0:0:0:0:
76,192,94691,1,0,0:0:0:0:
435,192,94691,1,0,0:0:0:0:
230,192,94691,1,0,0:0:0:0:
332,192,94844,1,0,0:0:0:0:
179,192,94997,1,0,0:0:0:0:
128,192,94997,1,0,0:0:0:0:
230,192,95151,1,0,0:0:0:0:
435,192,95304,1,0,0:0:0:0:
384,192,95304,1,0,0:0:0:0:
332,192,95304,1,0,0:0:0:0:
230,192,95457,1,0,0:0:0:0:
179,192,95457,1,0,0:0:0:0:
25,192,95610,1,0,0:0:0:0:
281,192,95610,1,0,0:0:0:0:
486,192,95610,1,0,0:0:0:0:
128,192,95763,1,0,0:0:0:0:
281,192,95916,1,0,0:0:0:0:
486,192,95916,1,0,0:0:0:0:
128,192,96069,1,0,0:0:0:0:
486,192,96222,1,0,0:0:0:0:
25,192,96222,1,0,0:0:0:0:
230,192,96375,1,0,0:0:0:0:
76,192,96528,1,0,0:0:0:0:
128,192,96528,1,0,0:0:0:0:
435,192,96528,1,0,0:0:0:0:
332,192,96681,1,0,0:0:0:0:
179,192,96834,1,0,0:0:0:0:
435,192,96987,1,0,0:0:0:0:
76,192,97140,1,0,0:0:0:0:
179,192,97140,1,0,0:0:0:0:
486,192,97140,1,0,0:0:0:0:
384,192,97293,1,0,0:0:0:0:
25,192,97446,1,0,0:0:0:0:
281,192,97446,1,0,0:0:0:0:
128,192,97600,1,0,0:0:0:0:
435,192,97753,1,0,0:0:0:0:
384,192,97753,1,0,0:0:0:0:
128,192,97906,1,0,0:0:0:0:
76,192,97906,1,0,0:0:0:0:
25,192,98059,1,0,0:0:0:0:
230,192,98059,1,0,0:0:0:0:
486,192,98059,1,0,0:0:0:0:
384,192,98212,1,0,0:0:0:0:
230,192,98365,1,0,0:0:0:0:
25,192,98365,1,0,0:0:0:0:
384,192,98518,1,0,0:0:0:0:
25,192,98671,1,0,0:0:0:0:
486,192,98671,1,0,0:0:0:0:
230,192,98824,1,0,0:0:0:0:
179,192,98977,1,0,0:0:0:0:
25,192,98977,1,0,0:0:0:0:
486,192,98977,1,0,0:0:0:0:
332,192,99130,1,0,0:0:0:0:
486,192,99283,1,0,0:0:0:0:
281,192,99436,1,0,0:0:0:0:
25,192,99589,1,0,0:0:0:0:
486,192,99589,1,0,0:0:0:0:
25,192,99895,1,0,0:0:0:0:
230,192,100048,1,0,0:0:0:0:
486,192,100202,1,0,0:0:0:0:
25,192,100202,1,0,0:0:0:0:
435,192,100508,1,0,0:0:0:0:
384,192,100508,1,0,0:0:0:0:
332,192,100508,1,0,0:0:0:0:
128,192,100661,1,0,0:0:0:0:
384,192,100814,1,0,0:0:0:0:
230,192,100967,1,0,0:0:0:0:
25,192,101120,1,0,0:0:0:0:
332,192,101120,1,0,0:0:0:0:
486,192,101120,1,0,0:0:0:0:
281,192,101273,1,0,0:0:0:0:
179,192,101426,128,0,101579:0:0:0:0:
128,192,101426,128,0,101579:0:0:0:0:
76,192,101426,128,0,101579:0:0:0:0:
230,192,101732,1,0,0:0:0:0:
486,192,101885,1,0,0:0:0:0:
332,192,102038,128,0,102191:0:0:0:0:
384,192,102038,128,0,102191:0:0:0:0:
435,192,102038,128,0,102191:0:0:0:0:
281,192,102344,1,0,0:0:0:0:
230,192,102344,1,0,0:0:0:0:
25,192,102497,1,0,0:0:0:0:
435,192,102651,128,0,102957:0:0:0:0:
76,192,102651,128,0,102957:0:0:0:0:
281,192,102651,128,0,102957:0:0:0:0:
128,192,102957,1,0,0:0:0:0:
179,192,102957,1,0,0:0:0:0:
230,192,102957,1,0,0:0:0:0:
384,192,103110,1,0,0:0:0:0:
128,192,103263,1,0,0:0:0:0:
486,192,103416,1,0,0:0:0:0:
435,192,103569,1,0,0:0:0:0:
76,192,103569,1,0,0:0:0:0:
179,192,103722,1,0,0:0:0:0:
281,192,103875,1,0,0:0:0:0:
486,192,103875,1,0,0:0:0:0:
76,192,103875,1,0,0:0:0:0:
384,192,104028,1,0,0:0:0:0:
281,192,104181,1,0,0:0:0:0:
128,192,104334,1,0,0:0:0:0:
179,192,104334,1,0,0:0:0:0:
76,192,104334,1,0,0:0:0:0:
435,192,104487,1,0,0:0:0:0:
384,192,104487,1,0,0:0:0:0:
332,192,104487,1,0,0:0:0:0:
128,192,104640,1,0,0:0:0:0:
332,192,104793,1,0,0:0:0:0:
435,192,104793,1,0,0:0:0:0:
384,192,104946,1,0,0:0:0:0:
179,192,105100,1,0,0:0:0:0:
128,192,105100,1,0,0:0:0:0:
76,192,105100,1,0,0:0:0:0:
435,192,105253,1,0,0:0:0:0:
384,192,105253,1,0,0:0:0:0:
25,192,105406,1,0,0:0:0:0:
76,192,105406,1,0,0:0:0:0:
128,192,105406,1,0,0:0:0:0:
486,192,105559,1,0,0:0:0:0:
128,192,105712,1,0,0:0:0:0:
281,192,105865,1,0,0:0:0:0:
332,192,106018,1,0,0:0:0:0:
179,192,106018,1,0,0:0:0:0:
76,192,106171,1,0,0:0:0:0:
25,192,106324,1,0,0:0:0:0:
230,192,106324,1,0,0:0:0:0:
486,192,106324,1,0,0:0:0:0:
384,192,106477,1,0,0:0:0:0:
25,192,106630,1,0,0:0:0:0:
281,192,106783,1,0,0:0:0:0:
128,192,106936,1,0,0:0:0:0:
384,192,106936,1,0,0:0:0:0:
435,192,106936,1,0,0:0:0:0:
230,192,107089,1,0,0:0:0:0:
435,192,107242,1,0,0:0:0:0:
76,192,107242,1,0,0:0:0:0:
25,192,107395,1,0,0:0:0:0:
435,192,107548,1,0,0:0:0:0:
332,192,107548,1,0,0:0:0:0:
179,192,107702,1,0,0:0:0:0:
76,192,107702,1,0,0:0:0:0:
281,192,107855,1,0,0:0:0:0:
230,192,107855,1,0,0:0:0:0:
486,192,107855,1,0,0:0:0:0:
384,192,108008,1,0,0:0:0:0:
128,192,108161,1,0,0:0:0:0:
281,192,108314,1,0,0:0:0:0:
25,192,108467,1,0,0:0:0:0:
486,192,108467,1,0,0:0:0:0:
230,192,108620,1,0,0:0:0:0:
435,192,108773,1,0,0:0:0:0:
76,192,108773,1,0,0:0:0:0:
128,192,108926,1,0,0:0:0:0:
332,192,109079,1,0,0:0:0:0:
486,192,109232,1,0,0:0:0:0:
25,192,109232,1,0,0:0:0:0:
76,192,109385,1,0,0:0:0:0:
435,192,109385,1,0,0:0:0:0:
230,192,109691,1,0,0:0:0:0:
281,192,109691,1,0,0:0:0:0:
