osu file format v14

[General]
AudioFilename: audio.mp3
AudioLeadIn: 0
PreviewTime:12697
Countdown: 0
SampleSet: Soft
StackLeniency: 0.7
Mode: 0
LetterboxInBreaks: 0
WidescreenStoryboard: 1

[Editor]
Bookmarks: 1994,12781,34354,55927,99073,109860
DistanceSpacing: 1
BeatDivisor: 4
GridSize: 32
TimelineZoom: 1.7

[Metadata]
Title:Teacher addiction
TitleUnicode:先生依存症
Artist:Takayan
ArtistUnicode:たかやん
Creator:hehe
Version:Collab Normal
Source:
Tags:japanese drum and bass dnb male vocal electronic mitsuki 先生依存症 sensei izonshou cmdz
BeatmapID:4176169
BeatmapSetID:2004898

[Difficulty]
HPDrainRate:2
CircleSize:3.5
OverallDifficulty:4
ApproachRate:5
SliderMultiplier:1
SliderTickRate:1

[Events]
//Background and Video events
0,0,"ahegao.jpg",0,0
//Break Periods
//Storyboard Layer 0 (Background)
//Storyboard Layer 1 (Fail)
//Storyboard Layer 2 (Pass)
//Storyboard Layer 3 (Foreground)
//Storyboard Layer 4 (Overlay)
//Storyboard Sound Samples

[TimingPoints]
1995,337.078651685394,4,2,0,50,1,0
12444,-100,4,2,1,50,0,0
12781,-100,4,2,1,60,0,0
34354,-100,4,2,1,70,0,0
45141,-100,4,2,0,50,0,0
50534,-100,4,2,0,60,0,0
53230,-100,4,2,1,65,0,0
53568,-100,4,2,1,70,0,0
53905,-100,4,2,1,75,0,0
54242,-100,4,2,1,80,0,0
54579,-100,4,2,1,80,0,0
55927,-83.3333333333333,4,2,1,80,0,1
77500,-100,4,2,1,80,0,1
93680,-100,4,2,1,80,0,1
98399,-100,4,2,1,80,0,1
98736,-100,4,2,1,80,0,1
99073,-100,4,2,0,50,0,0

[Colours]
Combo1 : 173,255,95
Combo2 : 255,88,100
Combo3 : 255,94,55
Combo4 : 17,254,176

[HitObjects]
106,308,1994,6,0,P|163:289|221:288,1,100,0|2,0:2|1:2,0:2:0:0:
245,313,2500,2,0,L|211:157,1,150,2|2,0:2|1:2,0:2:0:0:
278,90,3343,2,0,B|185:86|232:33|129:32,2,150,2|2|2,0:2|0:2|1:2,0:2:0:0:
375,66,4691,6,0,L|370:175,1,100,2|2,0:2|1:2,0:2:0:0:
401,205,5197,2,0,P|333:221|268:280,1,150,2|2,0:2|1:2,0:2:0:0:
251,370,6039,1,2,0:2:0:0:
152,364,6376,1,2,1:2:0:0:
72,308,6713,1,2,0:2:0:0:
33,217,7050,1,2,1:2:0:0:
49,119,7388,6,0,L|164:101,1,100,2|2,0:2|1:2,0:2:0:0:
185,136,7893,2,0,B|276:140|235:175|339:182,1,150,2|2,0:2|1:2,0:2:0:0:
416,223,8736,2,0,P|491:198|505:124,2,150,2|2|2,0:2|0:2|1:2,0:2:0:0:
337,284,10084,6,0,P|319:238|328:172,1,100,2|2,0:2|1:2,0:2:0:0:
222,196,10759,2,0,P|240:150|231:84,1,100,2|2,0:2|1:2,0:2:0:0:
187,15,11433,2,0,P|140:50|33:49,1,150,2|2,0:2|0:2,0:0:0:0:
6,33,12107,1,2,0:2:0:0:
18,132,12444,2,0,L|29:183,1,50,0|0,1:2|3:2,0:0:0:0:
10,227,12781,6,0,P|69:222|120:241,1,100,6|10,3:2|0:2,0:2:0:0:
187,173,13455,2,0,P|246:178|297:159,1,100,2|10,0:2|0:2,0:0:0:0:
313,125,13961,1,2,0:2:0:0:
313,125,14129,1,2,3:2:0:0:
395,66,14466,1,10,0:2:0:0:
463,138,14803,2,0,L|448:243,1,100,2|10,0:2|0:3,0:2:0:0:
482,332,15478,6,0,P|429:328|374:360,1,100,2|10,3:2|0:2,0:2:0:0:
318,274,16152,2,0,P|273:294|223:289,1,100,2|10,0:2|0:2,0:0:0:0:
181,274,16657,1,2,0:2:0:0:
181,274,16826,1,2,3:2:0:0:
185,174,17163,1,10,0:2:0:0:
92,138,17500,2,0,L|70:28,1,100,2|12,0:2|0:2,0:0:0:0:
168,14,18174,6,0,P|238:23|280:47,1,100,6|10,3:2|0:2,0:2:0:0:
298,129,18848,2,0,P|228:138|186:162,1,100,2|10,0:2|0:2,0:0:0:0:
183,197,19354,1,2,0:2:0:0:
183,197,19523,1,2,3:2:0:0:
242,277,19860,1,10,0:2:0:0:
335,234,20197,2,0,L|453:212,1,100,2|10,0:2|0:2,0:2:0:0:
502,143,20871,6,0,P|504:94|482:37,1,100,2|10,3:2|0:2,0:2:0:0:
437,44,21377,1,2,0:2:0:0:
437,44,21545,1,2,0:2:0:0:
342,11,21882,1,10,0:2:0:0:
276,86,22219,2,0,L|268:193,2,100,2|10|2,3:2|0:2|0:2,0:2:0:0:
184,49,23230,2,2,L|130:59,1,50,8|0,0:2|3:2,0:1:0:0:
85,47,23568,6,0,P|95:98|96:163,1,100,6|10,3:2|0:2,0:2:0:0:
60,180,24073,1,2,0:2:0:0:
60,180,24242,1,2,0:2:0:0:
0,256,24579,1,10,0:2:0:0:
55,338,24916,2,0,P|100:324|169:323,1,100,2|10,3:2|0:2,0:0:0:0:
239,271,25590,2,0,P|284:285|353:286,1,100,2|10,0:2|0:2,0:2:0:0:
415,349,26264,6,0,L|425:233,1,100,2|10,3:2|0:2,0:0:0:0:
431,199,26770,1,2,0:2:0:0:
431,199,26938,1,2,0:2:0:0:
458,103,27275,1,10,0:2:0:0:
386,33,27612,2,0,P|326:39|268:63,1,100,2|10,3:2|0:2,0:0:0:0:
246,142,28287,2,0,P|186:136|128:112,1,100,2|8,0:2|0:2,0:2:0:0:
111,32,28961,5,2,3:2:0:0:
25,84,29298,1,10,0:2:0:0:
77,168,29635,2,0,L|64:268,1,100,2|10,0:2|0:2,0:0:0:0:
57,320,30141,1,2,0:2:0:0:
57,320,30309,1,2,3:2:0:0:
155,300,30646,1,10,0:2:0:0:
220,378,30983,2,0,P|251:357|317:344,1,100,2|8,0:2|0:2,0:0:0:0:
355,368,31489,1,2,0:2:0:0:
396,340,31657,6,0,L|378:239,1,100,2|10,3:2|0:2,0:2:0:0:
282,211,32332,2,0,L|300:113,1,100,2|10,0:2|0:2,0:0:0:0:
312,64,32837,1,2,0:2:0:0:
312,64,33006,1,2,3:2:0:0:
215,45,33343,1,10,0:2:0:0:
125,86,33680,1,2,0:2:0:0:
78,172,34017,1,10,0:2:0:0:
104,266,34354,6,0,P|164:261|220:278,1,100,6|10,3:1|0:2,0:0:0:0:
288,219,35028,1,2,0:2:0:0:
323,253,35197,1,2,3:2:0:0:
367,231,35365,1,10,0:2:0:0:
447,290,35702,2,0,P|457:223|479:175,1,100,2|10,3:2|0:2,0:2:0:0:
505,99,36377,1,2,0:2:0:0:
424,39,36714,2,0,L|368:53,1,50,12|0,0:2|0:0,0:2:0:0:
335,20,37051,6,0,P|326:70|326:140,1,100,2|10,3:2|0:2,0:0:0:0:
243,178,37725,1,2,0:2:0:0:
267,221,37893,1,2,3:2:0:0:
240,263,38062,1,10,0:2:0:0:
263,360,38399,2,0,L|146:343,1,100,2|10,3:2|0:2,0:2:0:0:
70,379,39073,1,2,0:2:0:0:
14,295,39410,2,0,L|67:280,1,50,12|0,0:2|0:0,0:2:0:0:
108,263,39747,6,0,P|96:215|107:150,1,100,2|10,3:2|0:2,0:0:0:0:
42,84,40421,1,2,0:2:0:0:
68,41,40590,1,2,3:2:0:0:
117,46,40759,1,10,0:2:0:0:
212,15,41096,2,0,P|238:47|255:118,1,100,2|10,3:2|0:2,0:2:0:0:
339,156,41770,1,2,0:2:0:0:
278,235,42107,2,0,L|290:289,1,50,12|0,0:2|0:0,0:2:0:0:
304,331,42444,6,0,P|243:331|146:376,1,150,2|2,3:2|0:0,0:2:0:0:
120,336,43118,2,0,L|136:218,1,100,2|0,3:2|0:0,0:2:0:0:
141,187,43624,1,2,0:0:0:0:
106,150,43792,1,2,3:2:0:0:
173,76,44129,1,10,0:2:0:0:
257,129,44466,2,0,B|271:193|289:162|305:237,2,100,2|14|0,0:2|0:2|0:2,0:2:0:0:
256,192,45225,12,8,49186,0:1:0:0:
221,28,50534,6,0,P|231:84|238:138,1,100,8|8,0:1|0:1,0:0:0:0:
143,162,51208,2,0,P|150:212|159:261,1,100,8|8,0:1|0:1,0:1:0:0:
143,308,51714,1,8,0:1:0:0:
143,308,51882,2,0,P|193:301|254:303,1,100,8|8,0:1|0:1,0:0:0:0:
303,222,52556,2,0,P|353:223|402:216,1,100,8|8,0:1|0:1,0:0:0:0:
445,241,53062,1,8,0:1:0:0:
445,241,53230,5,8,0:1:0:0:
437,143,53567,1,8,0:1:0:0:
373,68,53904,1,8,0:1:0:0:
278,42,54241,1,8,0:1:0:0:
186,77,54579,2,0,L|174:181,1,100,8|0,0:2|0:2,0:2:0:0:
169,229,55084,1,8,3:3:0:0:
169,229,55253,1,4,3:3:0:0:
135,323,55590,2,0,L|189:333,1,50,4|0,3:3|3:3,3:3:0:0:
217,382,55927,6,0,P|273:351|355:352,1,119.999996337891,6|2,3:1|0:2,0:0:0:0:
446,367,56601,1,2,0:2:0:0:
503,261,56938,1,10,0:2:0:0:
451,230,57107,1,2,0:2:0:0:
471,173,57275,2,0,P|459:118|450:47,1,119.999996337891,2|8,3:2|0:2,0:0:0:0:
341,104,57950,2,0,L|276:93,1,59.9999981689454,0|0,0:2|3:2,0:0:0:0:
249,43,58287,2,0,L|184:54,1,59.9999981689454,8|0,0:2|0:2,0:2:0:0:
140,19,58624,6,0,P|123:86|97:133,1,119.999996337891,2|10,3:2|0:2,0:0:0:0:
0,199,59298,1,2,0:2:0:0:
34,313,59635,1,10,0:2:0:0:
79,351,59803,1,2,0:2:0:0:
126,314,59972,2,0,L|252:299,1,119.999996337891,2|8,3:2|0:2,0:0:0:0:
294,334,60478,2,0,P|291:267|306:199,1,119.999996337891,2|2,0:2|3:2,0:0:0:0:
253,178,60983,1,10,0:2:0:0:
236,59,61320,6,0,B|292:46|292:46|299:32|299:32|366:20,1,119.999996337891,4|8,3:1|0:2,0:2:0:0:
452,77,61995,1,0,0:2:0:0:
412,190,62332,1,10,0:2:0:0:
479,289,62669,2,0,B|423:302|423:302|416:316|416:316|349:328,1,119.999996337891,4|8,3:1|0:2,0:2:0:0:
334,372,63174,2,0,P|285:348|156:358,1,179.999994506836,2|10,0:2|0:2,0:0:0:0:
55,300,64017,5,4,3:2:0:0:
23,184,64354,1,12,0:2:0:0:
137,147,64691,1,4,0:2:0:0:
169,263,65028,1,12,0:2:0:0:
287,242,65365,2,0,L|302:112,2,119.999996337891,4|12|4,3:2|0:2|0:2,0:2:0:0:
375,323,66377,2,0,L|436:311,1,59.9999981689454,8|0,0:2|3:2,0:2:0:0:
490,331,66714,6,0,P|481:273|496:192,1,119.999996337891,4|10,3:1|0:2,0:2:0:0:
375,173,67388,2,0,P|383:114|374:55,1,119.999996337891,2|10,0:2|0:2,0:0:0:0:
255,75,68062,1,2,3:2:0:0:
223,24,68230,2,0,L|103:45,1,119.999996337891,2|2,0:2|0:2,0:2:0:0:
55,10,68736,2,0,P|37:47|39:133,1,119.999996337891,2|10,0:2|0:2,0:2:0:0:
25,244,69410,6,0,P|86:245|157:255,1,119.999996337891,4|10,3:1|0:2,0:2:0:0:
194,143,70084,2,0,P|255:142|326:132,1,119.999996337891,2|10,0:2|0:2,0:0:0:0:
360,171,70590,1,2,0:2:0:0:
413,142,70759,1,2,3:2:0:0:
504,202,71096,2,0,B|516:279|476:255|486:327,1,119.999996337891,10|2,0:2|0:2,0:0:0:0:
376,368,71770,1,10,0:2:0:0:
331,327,71938,1,2,0:2:0:0:
275,350,72107,6,0,P|241:334|139:323,1,119.999996337891,4|8,3:1|0:2,0:2:0:0:
51,371,72781,2,0,P|28:311|39:247,1,119.999996337891,2|10,0:2|0:2,0:2:0:0:
15,200,73287,1,2,0:2:0:0:
50,151,73455,2,0,P|128:166|186:167,1,119.999996337891,4|8,3:1|0:2,0:2:0:0:
265,237,74129,2,0,P|311:205|385:210,1,119.999996337891,2|10,0:2|0:2,0:2:0:0:
416,246,74635,1,2,0:2:0:0:
468,217,74803,5,4,3:2:0:0:
487,74,75141,1,12,0:2:0:0:
344,54,75478,1,4,0:2:0:0:
325,197,75816,1,12,0:2:0:0:
207,114,76152,2,0,P|172:127|80:134,1,119.999996337891,4|12,3:2|0:2,0:2:0:0:
37,107,76657,1,0,0:2:0:0:
2,155,76826,2,0,L|11:217,1,59.9999981689454,0|0,0:2|3:2,0:2:0:0:
67,233,77163,2,0,L|48:359,1,119.999996337891,14|4,3:2|3:1,0:0:0:0:
276,366,78174,6,0,P|296:320|266:217,1,150,10|2,0:2|3:2,0:0:0:0:
223,230,78848,1,2,3:2:0:0:
193,134,79186,1,2,0:2:0:0:
280,86,79523,2,2,L|394:104,1,100,2|10,3:2|0:2,0:2:0:0:
414,136,80028,1,2,0:2:0:0:
459,115,80197,2,0,P|482:173|473:227,1,100,4|0,3:2|0:2,0:2:0:0:
487,309,80871,6,0,P|436:292|336:299,1,150,10|2,0:2|3:2,0:0:0:0:
302,265,81545,1,2,3:2:0:0:
240,339,81882,1,2,0:2:0:0:
143,340,82219,1,2,3:2:0:0:
79,267,82556,1,10,0:2:0:0:
94,172,82893,2,0,P|91:122|79:53,1,100,4|0,3:2|0:2,0:2:0:0:
164,13,83568,6,0,L|271:29,1,100,10|2,0:2|3:2,0:0:0:0:
314,113,84242,2,0,L|207:129,1,100,2|2,3:2|0:2,0:0:0:0:
182,222,84916,2,0,L|289:238,1,100,2|8,3:2|0:2,0:2:0:0:
340,316,85590,5,6,3:2:0:0:
435,295,85927,1,2,0:2:0:0:
490,214,86264,1,10,0:2:0:0:
472,118,86601,1,6,0:2:0:0:
383,164,86938,2,0,P|322:154|266:155,1,100,2|2,3:2|0:2,0:0:0:0:
230,68,87612,2,0,P|169:78|113:77,1,100,2|14,3:2|0:2,0:0:0:0:
46,132,88287,1,2,3:2:0:0:
256,192,88371,12,2,93006,3:2:0:0:
195,150,93680,6,0,P|205:212|211:269,1,100,4|0,3:2|0:2,0:2:0:0:
168,340,94354,1,10,0:2:0:0:
259,380,94691,1,2,3:2:0:0:
328,308,95028,2,0,P|320:259|314:209,2,100,2|2|2,3:2|0:2|3:2,0:2:0:0:
489,188,96377,6,0,L|499:85,1,100,6|2,3:2|0:2,0:2:0:0:
433,13,97051,1,10,0:2:0:0:
373,93,97388,1,2,3:2:0:0:
277,62,97725,2,0,B|282:102|282:102|277:118|277:118|285:163,1,100,2|2,3:2|0:2,0:2:0:0:
209,225,98399,2,0,B|204:265|204:265|209:281|209:281|201:326,2,100,2|10|2,3:2|0:2|0:2,0:2:0:0:
146,147,99410,6,0,P|176:116|339:112,1,200,2|2,0:2|0:2,0:2:0:0:
369,80,100253,1,2,0:2:0:0:
418,85,100421,2,0,P|421:146|420:193,1,100,2|2,0:2|0:2,0:2:0:0:
505,365,101433,2,2,L|402:350,1,100,0|0,0:2|0:2,0:1:0:0:
342,273,102107,6,0,P|292:307|157:287,1,200,2|2,0:2|0:2,0:2:0:0:
114,310,102950,1,2,0:2:0:0:
73,281,103118,2,0,L|83:178,1,100,2|2,0:2|0:2,0:2:0:0:
50,142,103624,1,0,0:0:0:0:
50,142,103792,2,0,P|50:86|28:26,2,100,2|2|2,0:3|0:3|0:3,0:2:0:0:
135,193,104803,6,0,P|180:158|326:144,1,200,2|2,0:2|0:2,0:2:0:0:
364,122,105646,1,2,0:2:0:0:
402,154,105815,1,2,0:2:0:0:
460,234,106152,6,2,P|454:278|450:345,2,100,0|0|0,0:2|0:2|0:2,0:1:0:0:
278,150,107500,2,2,P|284:106|288:39,2,100,0|0|0,0:2|0:2|0:0,0:1:0:0:
149,303,108848,1,0,0:2:0:0:
59,257,109186,2,2,P|53:200|37:137,1,100,0|0,0:2|0:2,0:1:0:0:
