osu file format v14

[General]
AudioFilename: audio.mp3
AudioLeadIn: 0
PreviewTime: 12697
Countdown: 0
SampleSet: Soft
StackLeniency: 0.7
Mode: 0
LetterboxInBreaks: 0
WidescreenStoryboard: 0

[Editor]
Bookmarks: 1994,12781,34354,55927,99073,109860
DistanceSpacing: 1.3
BeatDivisor: 4
GridSize: 32
TimelineZoom: 1.7

[Metadata]
Title:Teacher addiction
TitleUnicode:先生依存症
Artist:Takayan
ArtistUnicode:たかやん
Creator:hehe
Version:Collab Extra
Source:
Tags:japanese drum and bass dnb male vocal electronic mitsuki 先生依存症 sensei izonshou cmdz
BeatmapID:4169595
BeatmapSetID:2004898

[Difficulty]
HPDrainRate:4
CircleSize:4
OverallDifficulty:8.5
ApproachRate:9.4
SliderMultiplier:1.4
SliderTickRate:1

[Events]
//Background and Video events
0,0,"ahegao.jpg",0,0
//Break Periods
//Storyboard Layer 0 (Background)
//Storyboard Layer 1 (Fail)
//Storyboard Layer 2 (Pass)
//Storyboard Layer 3 (Foreground)
//Storyboard Layer 4 (Overlay)
//Storyboard Sound Samples

[TimingPoints]
1995,337.078651685394,4,2,0,50,1,0
12444,-100,4,2,1,50,0,0
12781,-83.3333333333333,4,2,1,60,0,0
34354,-83.3333333333333,4,2,1,70,0,0
45141,-125,4,2,0,50,0,0
50534,-100,4,2,0,60,0,0
53230,-100,4,2,1,65,0,0
53568,-100,4,2,1,70,0,0
53905,-100,4,2,1,75,0,0
54242,-100,4,2,1,80,0,0
54579,-71.4285714285714,4,2,1,80,0,0
55927,-62.5,4,2,1,80,0,1
64017,-55.5555555555556,4,2,1,80,0,1
66714,-62.5,4,2,1,80,0,1
72107,-55.5555555555556,4,2,1,80,0,1
74803,-62.5,4,2,1,80,0,1
77500,-83.3333333333333,4,2,1,80,0,1
88961,-71.4285714285714,4,2,1,80,0,1
89635,-62.5,4,2,1,80,0,1
90309,-55.5555555555556,4,2,1,80,0,1
90983,-50,4,2,1,80,0,1
91657,-45.4545454545455,4,2,1,80,0,1
92332,-41.6666666666667,4,2,1,80,0,1
93006,-38.4615384615385,4,2,1,80,0,1
93680,-83.3333333333333,4,2,1,80,0,1
98399,-62.5,4,2,1,80,0,1
98736,-100,4,2,1,80,0,1
99073,-100,4,2,0,50,0,0

[Colours]
Combo1 : 173,255,95
Combo2 : 255,88,100
Combo3 : 255,94,55
Combo4 : 17,254,176

[HitObjects]
221,68,1994,6,0,P|229:137|230:207,1,140,0|2,0:2|1:2,0:2:0:0:
311,169,2500,2,0,P|306:134|305:99,1,70,2|0,0:2|0:2,0:2:0:0:
378,73,2837,1,2,0:2:0:0:
433,131,3006,1,2,1:2:0:0:
385,194,3174,1,2,0:2:0:0:
506,287,3343,6,0,P|465:276|355:276,1,140,2|0,0:2|1:2,0:2:0:0:
320,331,3848,2,0,P|294:297|303:243,1,70,2|0,0:2|0:2,0:2:0:0:
241,212,4186,1,2,0:2:0:0:
149,309,4354,1,2,1:2:0:0:
50,223,4523,1,2,0:2:0:0:
165,231,4691,6,0,P|162:178|166:144,1,70,2|0,0:2|0:2,0:2:0:0:
87,80,5028,1,2,1:2:0:0:
87,80,5197,2,0,P|90:133|86:167,1,70,2|0,0:2|0:2,0:2:0:0:
17,246,5534,1,2,0:2:0:0:
17,246,5702,2,0,P|14:193|18:159,1,70,2|0,1:2|0:2,0:2:0:0:
83,287,6039,5,2,0:2:0:0:
148,236,6208,1,2,0:2:0:0:
266,324,6377,1,2,1:2:0:0:
352,210,6545,1,2,0:2:0:0:
220,255,6714,2,0,P|262:248|301:248,1,70,2|0,0:2|0:2,0:2:0:0:
332,375,7051,2,0,P|374:368|413:368,1,70,2|0,1:2|0:2,0:2:0:0:
483,198,7388,6,0,P|474:257|470:341,1,140,2|2,0:2|1:2,0:2:0:0:
419,160,7893,2,0,P|450:125|489:122,1,70,2|0,0:2|0:2,0:2:0:0:
348,128,8230,1,2,0:2:0:0:
314,200,8399,1,2,1:2:0:0:
237,175,8568,1,2,0:2:0:0:
207,5,8736,6,0,P|271:50|265:128,1,140,2|0,0:2|1:2,0:2:0:0:
135,97,9242,2,0,P|178:80|219:84,1,70,2|0,0:2|0:2,0:2:0:0:
67,60,9579,1,2,0:2:0:0:
6,155,9747,1,2,1:2:0:0:
104,207,9916,1,2,0:2:0:0:
31,229,10084,6,0,P|31:277|34:311,1,70,2|0,0:2|0:2,0:2:0:0:
163,334,10421,2,0,P|163:286|160:252,1,70,2|0,1:2|0:2,0:2:0:0:
238,221,10674,1,0,0:2:0:0:
238,221,10759,2,0,P|238:269|241:303,1,70,2|0,0:2|0:2,0:2:0:0:
446,368,11096,2,0,P|446:320|441:256,1,105,2|0,1:2|0:2,0:2:0:0:
390,203,11433,5,2,0:2:0:0:
512,237,11601,1,2,0:2:0:0:
345,142,11770,1,2,1:2:0:0:
320,328,11938,1,2,0:2:0:0:
376,281,12107,1,2,0:2:0:0:
93,206,12444,5,0,1:2:0:0:
78,165,12528,1,0,3:2:0:0:
79,121,12612,1,0,3:2:0:0:
96,81,12696,1,0,3:2:0:0:
127,51,12781,6,0,L|235:68,1,83.9999974365235,6|0,3:2|0:2,0:2:0:0:
323,180,13118,1,10,0:2:0:0:
323,180,13202,1,0,0:2:0:0:
323,180,13287,2,0,L|250:195,1,41.9999987182618,2|0,0:2|0:2,0:2:0:0:
210,213,13455,5,2,0:2:0:0:
205,172,13539,1,0,0:2:0:0:
225,136,13623,1,0,3:2:0:0:
384,231,13792,2,0,L|376:289,1,41.9999987182618,10|0,0:2|0:2,0:2:0:0:
321,360,13961,2,0,L|313:302,1,41.9999987182618,2|0,0:2|0:2,0:2:0:0:
435,326,14129,5,2,3:2:0:0:
250,278,14298,1,2,0:2:0:0:
414,153,14466,5,10,0:2:0:0:
284,181,14635,1,2,0:2:0:0:
284,181,14719,1,0,0:2:0:0:
284,181,14803,2,0,P|274:118|284:73,1,83.9999974365235,2|0,0:2|3:2,0:2:0:0:
148,36,15141,2,0,L|190:31,3,41.9999987182618,10|2|2|2,0:3|0:3|0:3|0:3,0:3:0:0:
135,78,15478,6,0,L|33:65,1,83.9999974365235,2|0,3:2|0:2,0:2:0:0:
13,222,15815,1,10,0:2:0:0:
13,222,15899,1,0,0:2:0:0:
13,222,15983,2,0,L|63:209,1,41.9999987182618,2|0,0:2|0:2,0:2:0:0:
103,156,16152,5,2,0:2:0:0:
129,187,16236,1,0,0:2:0:0:
128,228,16320,1,2,3:2:0:0:
302,181,16489,2,0,L|356:196,1,41.9999987182618,10|0,0:2|0:2,0:2:0:0:
217,283,16657,2,0,L|163:298,1,41.9999987182618,2|0,0:2|0:2,0:2:0:0:
241,127,16826,6,0,P|223:182|235:222,1,83.9999974365235,2|0,3:2|0:2,0:2:0:0:
272,344,17163,1,10,0:2:0:0:
301,332,17247,1,0,0:2:0:0:
332,330,17331,1,0,0:2:0:0:
362,337,17415,1,0,0:2:0:0:
389,354,17500,1,2,0:2:0:0:
512,281,17669,1,0,3:2:0:0:
472,384,17837,6,0,L|459:316,1,41.9999987182618,12|0,0:2|0:2,0:2:0:0:
306,254,18006,2,0,L|319:186,1,41.9999987182618,0|0,3:2|0:2,0:2:0:0:
443,139,18174,6,0,P|442:193|451:237,1,83.9999974365235,6|0,3:2|0:2,0:2:0:0:
389,354,18511,2,0,P|390:300|381:256,1,83.9999974365235,10|0,0:2|0:2,0:2:0:0:
235,174,18848,5,2,0:2:0:0:
199,195,18932,1,0,0:2:0:0:
158,190,19016,1,0,3:2:0:0:
79,115,19186,2,0,L|147:128,1,41.9999987182618,10|0,0:2|0:2,0:2:0:0:
7,275,19354,2,0,L|75:262,1,41.9999987182618,2|0,0:2|0:2,0:2:0:0:
168,342,19523,5,2,3:2:0:0:
82,196,19691,1,2,0:2:0:0:
234,81,19860,5,10,0:2:0:0:
160,240,20028,1,2,0:2:0:0:
160,240,20112,1,0,0:2:0:0:
160,240,20197,2,0,P|221:238|259:261,1,83.9999974365235,2|0,0:2|3:2,0:2:0:0:
334,369,20534,2,0,L|479:343,1,125.999996154785,10|0,0:2|0:2,0:2:0:0:
486,370,20871,6,0,P|506:330|491:279,1,83.9999974365235,2|0,3:2|0:2,0:2:0:0:
440,99,21208,1,10,0:2:0:0:
440,99,21292,1,0,0:2:0:0:
440,99,21377,2,0,L|433:155,1,41.9999987182618,2|0,0:2|0:2,0:2:0:0:
361,163,21545,5,2,0:2:0:0:
341,126,21629,1,0,0:2:0:0:
348,85,21713,1,2,3:2:0:0:
502,221,21882,2,0,L|435:209,1,41.9999987182618,10|0,0:2|0:2,0:2:0:0:
317,363,22051,2,0,L|250:375,1,41.9999987182618,2|0,0:2|0:2,0:2:0:0:
393,238,22219,6,0,P|381:291|381:331,1,83.9999974365235,2|0,3:2|0:2,0:2:0:0:
247,217,22556,1,10,0:2:0:0:
222,197,22640,1,0,0:2:0:0:
193,186,22724,1,0,0:2:0:0:
161,187,22808,1,0,0:2:0:0:
132,198,22893,1,2,0:2:0:0:
9,258,23062,5,0,3:2:0:0:
61,155,23230,6,2,L|52:218,1,41.9999987182618,8|0,0:2|0:2,0:1:0:0:
187,307,23399,6,2,L|175:246,1,41.9999987182618,0|0,3:2|0:2,0:1:0:0:
298,150,23568,6,0,P|311:99|296:59,1,83.9999974365235,6|0,3:2|0:2,0:2:0:0:
183,18,23905,1,10,0:2:0:0:
183,18,23989,1,0,0:2:0:0:
183,18,24073,2,0,L|120:32,1,41.9999987182618,2|0,0:2|0:2,0:2:0:0:
124,102,24242,5,2,0:2:0:0:
164,108,24326,1,0,0:2:0:0:
185,142,24410,1,0,3:2:0:0:
112,219,24579,2,0,L|122:163,1,41.9999987182618,10|0,0:2|0:2,0:2:0:0:
43,30,24747,2,0,L|53:86,1,41.9999987182618,2|0,0:2|0:2,0:2:0:0:
16,142,24916,5,2,3:2:0:0:
243,79,25084,1,2,0:2:0:0:
112,219,25253,5,10,0:2:0:0:
327,285,25421,1,2,0:2:0:0:
327,285,25506,1,0,0:2:0:0:
327,285,25590,2,0,P|322:243|327:201,1,83.9999974365235,2|0,0:2|3:2,0:2:0:0:
190,380,25927,2,0,P|194:316|186:238,1,125.999996154785,10|0,0:2|0:2,0:2:0:0:
222,234,26264,5,2,3:2:0:0:
90,250,26433,1,2,0:2:0:0:
277,346,26601,1,10,0:2:0:0:
243,156,26770,1,2,0:2:0:0:
144,322,26938,6,0,P|98:324|44:334,1,83.9999974365235,2|2,0:2|3:2,0:2:0:0:
85,173,27275,2,0,P|39:175|-15:185,1,83.9999974365235,10|2,0:2|0:2,0:2:0:0:
218,246,27612,5,2,3:2:0:0:
127,71,27781,1,2,0:2:0:0:
304,109,27950,1,10,0:2:0:0:
142,238,28118,1,2,0:2:0:0:
222,0,28287,6,0,P|221:53|225:93,1,83.9999974365235,2|0,0:2|3:2,0:2:0:0:
223,83,28539,1,0,0:2:0:0:
223,83,28624,1,8,0:2:0:0:
204,163,28792,2,0,L|272:172,1,41.9999987182618,2|0,3:2|0:2,0:2:0:0:
407,222,28961,6,0,P|459:203|505:195,1,83.9999974365235,2|2,3:2|0:2,0:2:0:0:
329,131,29298,1,10,0:2:0:0:
329,131,29382,1,0,0:2:0:0:
329,131,29466,2,0,L|338:180,1,41.9999987182618,0|0,0:2|0:2,0:2:0:0:
286,232,29635,5,2,0:2:0:0:
268,269,29719,1,0,0:2:0:0:
281,308,29803,1,2,3:2:0:0:
390,340,29972,2,0,L|333:349,1,41.9999987182618,10|0,0:2|0:2,0:2:0:0:
237,167,30141,2,0,L|180:158,1,41.9999987182618,2|0,0:2|0:2,0:2:0:0:
112,318,30309,6,0,P|159:302|205:301,1,83.9999974365235,2|2,3:2|0:2,0:2:0:0:
25,374,30646,1,10,0:2:0:0:
25,374,30730,1,0,0:2:0:0:
25,374,30815,2,0,L|35:319,1,41.9999987182618,0|0,0:2|0:2,0:2:0:0:
0,207,30983,5,2,0:2:0:0:
24,240,31067,1,0,0:2:0:0:
64,250,31152,2,0,P|71:189|79:152,1,83.9999974365235,0|8,3:2|0:2,0:2:0:0:
238,78,31489,2,0,L|244:135,1,41.9999987182618,2|0,0:2|0:2,0:2:0:0:
0,99,31657,6,0,P|59:88|105:72,1,83.9999974365235,2|0,3:2|0:2,0:2:0:0:
251,195,31995,2,0,P|310:206|356:222,1,83.9999974365235,10|0,0:2|0:2,0:2:0:0:
341,247,32247,1,0,0:2:0:0:
364,261,32331,1,2,0:2:0:0:
391,258,32415,1,0,0:2:0:0:
411,239,32499,1,0,3:2:0:0:
493,311,32669,6,0,L|485:262,1,41.9999987182618,10|0,0:2|0:2,0:2:0:0:
370,171,32837,2,0,L|378:122,1,41.9999987182618,2|0,0:2|0:2,0:2:0:0:
483,18,33006,6,0,P|490:68|489:106,1,83.9999974365235,2|0,3:2|0:2,0:2:0:0:
268,187,33343,2,0,P|261:237|262:275,1,83.9999974365235,10|0,0:2|0:2,0:2:0:0:
158,80,33680,6,0,L|168:138,1,41.9999987182618,2|0,0:2|0:2,0:2:0:0:
345,221,33848,2,0,L|335:279,1,41.9999987182618,2|0,0:2|0:2,0:2:0:0:
176,362,34017,2,0,P|135:340|49:325,1,125.999996154785,10|0,0:2|0:2,0:2:0:0:
22,339,34354,5,6,3:1:0:0:
127,300,34523,1,2,0:2:0:0:
64,243,34691,1,10,0:2:0:0:
258,311,34860,1,2,0:2:0:0:
228,101,35028,1,2,0:2:0:0:
190,243,35197,1,2,3:2:0:0:
351,131,35365,1,10,0:2:0:0:
173,27,35534,1,2,0:2:0:0:
275,240,35702,6,0,P|278:189|284:136,1,83.9999974365235,2|0,3:2|0:2,0:2:0:0:
92,97,36039,1,10,0:2:0:0:
97,127,36123,1,0,0:2:0:0:
116,152,36208,1,2,0:2:0:0:
144,165,36291,1,0,0:2:0:0:
175,164,36376,1,2,0:2:0:0:
216,97,36545,5,0,3:2:0:0:
403,56,36714,2,0,P|416:116|422:195,1,125.999996154785,12|0,0:2|0:2,0:2:0:0:
459,195,37051,5,2,3:2:0:0:
370,238,37219,1,2,0:2:0:0:
491,293,37388,1,10,0:2:0:0:
339,366,37556,1,2,0:2:0:0:
304,188,37725,1,2,0:2:0:0:
414,325,37893,1,2,3:2:0:0:
180,258,38062,1,10,0:2:0:0:
344,104,38230,1,2,0:2:0:0:
251,338,38399,6,0,P|255:275|255:238,1,83.9999974365235,2|0,3:2|0:2,0:2:0:0:
115,211,38736,1,10,0:2:0:0:
102,239,38820,1,0,0:2:0:0:
101,270,38904,1,2,0:2:0:0:
112,299,38988,1,0,0:2:0:0:
134,322,39073,1,2,0:2:0:0:
71,373,39242,5,0,3:2:0:0:
27,202,39410,2,0,P|42:147|50:59,1,125.999996154785,12|0,0:2|0:2,0:2:0:0:
17,47,39747,5,2,3:2:0:0:
119,133,39916,1,2,0:2:0:0:
221,0,40084,1,10,0:2:0:0:
122,55,40253,1,2,0:2:0:0:
239,203,40421,1,2,0:2:0:0:
323,41,40590,1,2,3:2:0:0:
159,206,40759,1,10,0:2:0:0:
367,300,40927,1,2,0:2:0:0:
277,106,41096,6,0,P|221:118|170:124,1,83.9999974365235,2|0,3:2|0:2,0:2:0:0:
322,227,41433,1,10,0:2:0:0:
334,198,41517,1,0,0:2:0:0:
357,176,41601,1,2,0:2:0:0:
386,166,41685,1,0,0:2:0:0:
417,168,41770,1,2,0:2:0:0:
461,239,41938,5,0,3:2:0:0:
322,370,42107,2,0,P|266:357|163:349,1,125.999996154785,12|0,0:2|0:2,0:2:0:0:
158,370,42444,6,0,P|157:317|162:271,1,83.9999974365235,2|0,3:2|0:2,0:2:0:0:
80,366,42697,2,0,P|79:313|84:267,1,83.9999974365235,2|0,3:2|0:2,0:2:0:0:
81,282,42950,1,2,0:0:0:0:
1,207,43118,6,0,P|2:154|-3:108,1,83.9999974365235,2|0,3:2|3:2,0:2:0:0:
79,203,43371,2,0,P|80:150|75:104,1,83.9999974365235,2|0,3:2|0:2,0:2:0:0:
77,119,43624,1,2,0:0:0:0:
189,36,43792,5,2,3:2:0:0:
0,123,43961,1,2,0:2:0:0:
162,251,44129,1,10,0:2:0:0:
109,100,44298,1,2,0:2:0:0:
54,243,44466,6,0,P|109:228|158:225,1,83.9999974365235,2|0,0:2|3:2,0:2:0:0:
30,340,44803,2,0,P|105:313|217:306,1,167.999994873047,14|0,0:2|0:2,0:2:0:0:
443,241,45478,6,0,B|451:287|451:287|466:300|466:300|477:368,2,112,8|8|8,0:1|0:1|0:1,0:1:0:0:
359,136,46489,2,0,P|357:180|365:253,1,112,8|8,0:1|0:1,0:1:0:0:
364,248,46995,1,0,0:1:0:0:
285,288,47163,2,0,P|285:247|279:212,1,56,8|0,0:1|0:1,0:1:0:0:
209,206,47500,2,0,P|202:249|210:328,1,112,8|8,0:1|0:1,0:1:0:0:
69,143,48174,6,0,B|61:97|61:97|46:84|46:84|35:16,2,112,8|8|8,0:1|0:1|0:1,0:1:0:0:
153,248,49186,2,0,P|155:204|147:131,1,112,8|8,0:1|0:1,0:1:0:0:
148,136,49691,1,0,0:1:0:0:
228,96,49860,2,0,P|228:137|234:172,1,56,8|0,0:1|0:1,0:1:0:0:
304,178,50197,2,0,P|311:135|303:56,1,112,8|8,0:1|0:1,0:1:0:0:
104,352,50871,6,0,P|157:335|226:326,1,105,8|0,0:1|0:1,0:1:0:0:
247,344,51208,2,0,P|230:291|221:222,1,105,8|0,0:1|0:1,0:1:0:0:
196,210,51545,2,0,P|250:202|287:190,1,70,8|8,0:1|0:1,0:1:0:0:
324,249,51882,5,8,0:1:0:0:
368,182,52051,1,8,0:1:0:0:
304,128,52219,1,8,0:1:0:0:
255,290,52388,1,8,0:1:0:0:
441,217,52556,1,8,0:1:0:0:
225,104,52725,1,8,0:1:0:0:
306,348,52893,1,8,0:1:0:0:
493,154,53062,1,8,0:1:0:0:
204,270,53230,5,8,0:1:0:0:
185,265,53314,1,8,0:1:0:0:
165,256,53399,1,8,0:1:0:0:
147,243,53483,1,8,0:1:0:0:
129,226,53567,1,8,0:1:0:0:
115,204,53651,1,8,0:1:0:0:
104,178,53736,1,8,0:1:0:0:
100,149,53820,1,8,0:1:0:0:
102,117,53904,1,8,0:1:0:0:
114,85,53988,1,8,0:1:0:0:
136,55,54073,1,8,0:1:0:0:
167,31,54157,1,8,0:1:0:0:
207,17,54241,1,8,0:1:0:0:
251,18,54326,1,8,0:1:0:0:
297,36,54410,1,8,0:1:0:0:
334,72,54494,1,8,0:1:0:0:
354,123,54579,6,0,P|301:129|186:154,1,146.999995513916,8|0,0:2|0:2,0:2:0:0:
178,127,54916,1,0,0:2:0:0:
118,176,55084,2,0,P|104:155|101:131,1,48.9999985046387,8|0,3:3|0:2,0:2:0:0:
276,161,55253,5,4,3:3:0:0:
122,282,55421,1,4,3:3:0:0:
42,85,55590,2,0,P|53:58|78:38,3,48.9999985046387,4|0|0|0,3:3|3:3|3:3|3:3,3:3:0:0:
8,108,55927,5,6,3:1:0:0:
281,254,56096,1,2,0:2:0:0:
47,177,56264,5,2,0:2:0:0:
308,65,56433,1,2,0:2:0:0:
229,196,56601,5,2,0:2:0:0:
210,144,56685,1,0,0:2:0:0:
238,98,56769,1,0,3:2:0:0:
352,132,56938,2,0,L|365:199,1,56,10|0,0:2|0:2,0:2:0:0:
281,254,57107,2,0,L|268:321,1,56,2|0,0:2|0:2,0:2:0:0:
512,356,57275,5,2,3:2:0:0:
465,238,57444,2,0,P|409:248|356:275,1,112,2|8,0:2|0:2,0:2:0:0:
359,272,57697,1,0,0:2:0:0:
359,272,57781,1,0,0:2:0:0:
204,350,57950,5,0,0:2:0:0:
170,307,58034,1,0,0:2:0:0:
186,256,58118,1,0,3:2:0:0:
302,384,58287,2,0,L|310:319,3,56,8|0|0|0,0:2|0:2|0:2|0:2,0:2:0:0:
276,298,58624,5,2,3:2:0:0:
358,58,58792,1,2,0:2:0:0:
339,249,58961,5,10,0:2:0:0:
204,8,59129,1,2,0:2:0:0:
65,175,59298,5,2,0:2:0:0:
116,160,59382,1,0,0:2:0:0:
158,194,59466,1,2,3:2:0:0:
38,296,59635,2,0,L|16:211,1,56,10|0,0:2|0:2,0:2:0:0:
224,142,59803,2,0,L|246:57,1,56,2|0,0:2|0:2,0:2:0:0:
23,103,59972,5,2,3:2:0:0:
112,261,60141,2,0,P|170:241|248:242,1,112,2|8,0:2|0:2,0:2:0:0:
423,190,60478,1,2,0:2:0:0:
434,150,60562,1,0,0:2:0:0:
422,110,60646,1,0,0:2:0:0:
390,84,60730,1,0,0:2:0:0:
349,80,60815,5,2,3:2:0:0:
338,273,60983,2,0,L|350:197,1,56,10|0,0:2|0:2,0:2:0:0:
230,62,61152,2,0,L|242:138,1,56,2|0,3:2|0:2,0:2:0:0:
304,151,61320,6,0,B|181:119|206:217|79:169,1,224,4|8,3:1|0:2,0:2:0:0:
0,72,61826,1,2,0:2:0:0:
132,1,61995,5,0,0:2:0:0:
155,50,62079,1,0,0:2:0:0:
142,103,62163,1,2,3:2:0:0:
273,49,62332,2,0,L|346:70,1,56,10|0,0:2|0:2,0:2:0:0:
393,243,62500,2,0,L|320:264,1,56,2|0,3:2|0:2,0:2:0:0:
226,115,62669,6,0,P|209:189|237:362,1,224,4|8,3:1|0:2,0:2:0:0:
477,384,63174,1,2,0:2:0:0:
487,343,63258,1,0,0:2:0:0:
490,301,63342,1,0,0:2:0:0:
483,260,63426,1,0,0:2:0:0:
469,220,63511,6,0,L|480:154,1,56,2|0,3:2|0:2,0:2:0:0:
316,278,63680,2,0,L|305:212,1,56,10|0,0:2|0:2,0:2:0:0:
365,167,63848,2,0,L|376:101,1,56,2|0,0:2|0:2,0:2:0:0:
132,113,64017,5,4,3:2:0:0:
389,241,64186,1,0,0:2:0:0:
132,113,64354,2,0,P|145:179|151:275,1,125.999996154785,12|0,0:2|0:2,0:2:0:0:
332,20,64691,5,4,0:2:0:0:
65,171,64860,1,0,3:2:0:0:
332,20,65028,2,0,P|319:86|313:182,1,125.999996154785,12|0,0:2|0:2,0:2:0:0:
105,354,65365,6,0,P|164:328|301:331,1,188.999994232178,4|0,3:2|0:2,0:2:0:0:
337,383,65702,2,0,P|362:312|309:253,1,125.999996154785,12|0,0:2|0:2,0:2:0:0:
358,240,65955,1,0,0:2:0:0:
357,198,66039,1,4,0:2:0:0:
380,164,66123,1,0,0:2:0:0:
418,148,66207,1,0,3:2:0:0:
500,238,66377,6,0,L|417:225,1,62.9999980773926,8|0,0:2|0:2,0:2:0:0:
355,72,66545,2,0,L|272:85,1,62.9999980773926,0|0,3:2|0:2,0:2:0:0:
204,263,66714,6,0,B|233:163|159:197|178:90,1,168,4|0,3:1|0:2,0:2:0:0:
228,48,67051,1,10,0:2:0:0:
306,217,67219,1,0,0:2:0:0:
470,128,67388,5,2,0:2:0:0:
446,78,67472,1,0,0:2:0:0:
465,27,67556,1,0,3:2:0:0:
408,170,67725,2,0,L|323:152,1,56,10|0,0:2|0:2,0:2:0:0:
449,312,67893,2,0,L|534:294,1,56,2|0,0:2|0:2,0:2:0:0:
293,375,68062,5,2,3:2:0:0:
379,246,68230,2,0,P|371:305|369:372,1,112,2|8,0:2|0:2,0:2:0:0:
128,182,68568,5,2,0:2:0:0:
222,256,68736,2,0,P|213:185|190:102,1,112,2|0,0:2|3:2,0:2:0:0:
142,101,68989,1,0,0:0:0:0:
142,101,69073,2,0,P|209:67|266:108,1,112,10|0,0:2|0:2,0:2:0:0:
30,123,69410,6,0,B|59:223|-15:189|4:296,1,168,4|0,3:1|0:2,0:2:0:0:
54,338,69747,1,10,0:2:0:0:
210,226,69916,1,0,0:2:0:0:
153,384,70084,5,2,0:2:0:0:
167,330,70168,1,0,0:2:0:0:
150,278,70252,1,0,3:2:0:0:
326,287,70421,2,0,L|265:275,1,56,10|0,0:2|0:2,0:2:0:0:
229,142,70590,2,0,L|168:154,1,56,2|0,0:2|0:2,0:2:0:0:
378,194,70759,6,0,P|366:115|380:52,1,112,2|0,3:2|0:2,0:2:0:0:
459,220,71096,1,10,0:2:0:0:
501,13,71264,1,0,0:2:0:0:
508,39,71348,1,0,0:2:0:0:
512,67,71432,1,2,0:2:0:0:
512,95,71516,1,0,0:2:0:0:
508,123,71601,1,0,3:2:0:0:
412,28,71770,6,0,L|398:110,1,56,10|0,0:2|0:2,0:2:0:0:
276,130,71938,2,0,L|290:212,1,56,2|0,0:2|0:2,0:2:0:0:
170,33,72107,6,0,P|95:27|49:203,1,251.999992309571,4|8,3:1|0:2,0:2:0:0:
248,216,72612,1,0,0:2:0:0:
100,151,72781,6,0,P|108:184|112:220,1,62.9999980773926,2|0,0:2|0:2,0:2:0:0:
188,268,72950,2,0,P|180:298|176:329,1,62.9999980773926,2|0,3:2|0:2,0:2:0:0:
295,103,73118,2,0,P|303:136|307:172,1,62.9999980773926,10|0,0:2|0:2,0:2:0:0:
430,273,73287,2,0,P|422:303|418:334,1,62.9999980773926,2|0,0:2|0:2,0:2:0:0:
477,141,73455,6,0,B|375:158|375:158|346:196|346:196|244:216,1,251.999992309571,4|8,3:1|0:2,0:2:0:0:
201,25,73961,1,0,0:2:0:0:
322,89,74129,6,0,P|286:87|244:81,1,62.9999980773926,2|0,0:2|0:2,0:2:0:0:
212,149,74298,2,0,P|176:151|134:157,1,62.9999980773926,2|0,3:2|0:2,0:2:0:0:
373,282,74466,2,0,P|337:280|295:274,1,62.9999980773926,10|0,0:2|0:2,0:2:0:0:
213,379,74635,2,0,P|177:381|135:387,1,62.9999980773926,2|0,0:2|0:2,0:2:0:0:
77,75,74803,6,0,P|110:152|131:233,1,168,4|0,3:2|0:2,0:2:0:0:
105,303,75141,2,0,P|191:280|199:215,1,112,12|0,0:2|0:2,0:2:0:0:
236,273,75393,1,0,0:2:0:0:
248,238,75477,1,4,0:2:0:0:
279,218,75561,1,0,0:2:0:0:
315,222,75645,1,0,3:2:0:0:
422,94,75815,2,0,P|342:81|259:51,1,168,12|0,0:2|0:2,0:2:0:0:
186,17,76152,6,0,P|184:72|191:128,1,112,4|0,3:2|0:2,0:2:0:0:
326,367,76489,2,0,P|327:311|320:255,1,112,12|0,0:2|0:2,0:2:0:0:
505,275,76826,2,0,L|515:201,1,56,0|0,0:2|0:2,0:2:0:0:
399,231,76995,5,0,3:2:0:0:
437,198,77079,1,0,3:2:0:0:
432,149,77163,1,14,3:2:0:0:
389,125,77247,1,0,3:2:0:0:
385,75,77332,1,0,3:2:0:0:
423,43,77416,1,0,3:2:0:0:
421,30,77500,6,0,L|236:62,1,167.999994873047,4|0,3:1|0:2,0:2:0:0:
255,58,78006,1,0,3:2:0:0:
191,22,78174,5,10,0:2:0:0:
149,153,78343,1,2,0:2:0:0:
153,112,78427,1,2,0:2:0:0:
136,75,78511,1,2,3:2:0:0:
15,281,78680,1,2,3:2:0:0:
11,240,78764,1,2,0:2:0:0:
29,203,78848,1,2,3:2:0:0:
168,270,79017,5,2,0:2:0:0:
131,252,79101,1,2,0:2:0:0:
90,256,79186,1,2,0:2:0:0:
211,206,79354,1,2,0:2:0:0:
248,188,79438,1,0,0:2:0:0:
289,192,79523,2,2,L|299:251,1,41.9999987182618,2|2,3:2|0:2,0:2:0:0:
362,309,79691,2,2,L|372:250,1,41.9999987182618,2|2,0:2|0:2,0:2:0:0:
409,185,79860,6,2,L|350:195,1,41.9999987182618,10|2,0:2|0:2,0:2:0:0:
245,300,80028,2,2,L|304:310,1,41.9999987182618,2|2,0:2|0:2,0:2:0:0:
512,384,80197,6,0,B|505:317|505:317|478:297|478:297|472:222,1,167.999994873047,4|0,3:2|0:2,0:2:0:0:
473,229,80702,1,0,3:2:0:0:
512,158,80871,5,10,0:2:0:0:
385,111,81039,1,2,0:2:0:0:
425,118,81124,1,2,0:2:0:0:
460,96,81208,1,2,3:2:0:0:
255,145,81377,1,2,3:2:0:0:
295,138,81461,1,2,0:2:0:0:
329,160,81545,1,2,3:2:0:0:
192,94,81714,5,2,0:2:0:0:
198,53,81798,1,2,0:2:0:0:
176,19,81882,1,2,0:2:0:0:
16,162,82051,1,2,0:2:0:0:
9,122,82135,1,2,0:2:0:0:
32,87,82219,1,2,3:2:0:0:
117,248,82388,5,2,0:2:0:0:
126,187,82472,1,2,0:2:0:0:
90,137,82556,1,10,0:2:0:0:
287,328,82725,1,2,0:2:0:0:
278,267,82809,1,2,0:2:0:0:
314,216,82893,6,0,L|417:196,1,83.9999974365235,4|0,3:2|0:2,0:2:0:0:
219,365,83230,2,0,L|116:345,1,83.9999974365235,0|0,0:2|3:2,0:2:0:0:
64,374,83568,5,10,0:2:0:0:
26,355,83652,1,2,0:2:0:0:
4,320,83736,1,2,0:2:0:0:
5,279,83820,1,2,0:2:0:0:
26,243,83905,1,2,3:2:0:0:
97,195,84073,2,0,L|112:254,1,41.9999987182618,2|0,3:2|0:2,0:2:0:0:
179,271,84242,5,2,3:2:0:0:
198,234,84326,1,2,0:2:0:0:
199,192,84410,1,2,0:2:0:0:
181,155,84494,1,2,0:2:0:0:
148,130,84579,1,2,0:2:0:0:
253,111,84747,2,0,L|259:53,1,41.9999987182618,2|0,0:2|0:2,0:2:0:0:
200,20,84916,6,0,L|149:33,1,41.9999987182618,2|0,3:2|0:2,0:2:0:0:
330,99,85084,2,0,L|381:112,1,41.9999987182618,2|0,0:2|0:2,0:2:0:0:
193,262,85253,1,8,0:2:0:0:
219,217,85337,1,2,0:2:0:0:
262,188,85421,1,2,0:2:0:0:
314,182,85505,1,2,0:2:0:0:
363,201,85590,5,6,3:2:0:0:
163,135,85759,1,2,0:2:0:0:
314,281,85927,1,2,0:2:0:0:
240,84,86096,1,2,3:2:0:0:
221,294,86264,1,10,0:2:0:0:
330,114,86433,1,2,0:2:0:0:
154,229,86601,1,6,0:2:0:0:
143,306,86938,5,2,3:2:0:0:
307,39,87106,1,2,0:2:0:0:
274,350,87275,1,2,0:2:0:0:
168,57,87443,1,2,0:2:0:0:
392,274,87612,1,2,3:2:0:0:
95,173,87780,1,2,0:2:0:0:
405,136,87949,1,14,0:2:0:0:
476,197,88287,6,2,P|472:224|477:252,2,55.9999982910157,2|2|2,3:2|0:2|0:2,0:2:0:0:
406,321,88624,2,2,P|409:293|404:265,2,55.9999982910157,2|2|2,0:2|0:2|0:2,0:2:0:0:
340,159,88961,6,2,P|333:192|352:250,2,65.3333313395183,10|2|2,0:2|0:2|0:2,0:2:0:0:
291,346,89298,2,2,P|298:313|279:255,2,65.3333313395183,2|2|2,3:2|0:2|0:2,0:2:0:0:
236,229,89635,5,2,3:2:0:0:
221,245,89747,2,2,P|190:221|195:165,1,74.6666666666667,2|2,0:2|0:2,0:2:0:0:
211,119,89972,5,2,0:2:0:0:
181,99,90084,2,2,P|212:65|257:59,1,74.6666666666667,2|2,0:2|0:2,0:2:0:0:
308,84,90309,5,2,3:2:0:0:
317,39,90421,2,2,P|369:60|382:112,1,83.9999974365235,2|2,0:2|0:2,0:2:0:0:
403,156,90646,5,10,0:2:0:0:
454,138,90759,2,2,P|468:177|445:229,1,83.9999974365235,2|2,0:2|0:2,0:2:0:0:
392,254,90983,5,2,3:2:0:0:
421,313,91096,2,2,P|381:343|310:334,1,93.3333333333333,2|2,0:2|0:2,0:2:0:0:
272,307,91320,5,2,0:2:0:0:
230,368,91433,2,2,P|182:364|149:313,1,93.3333333333333,2|2,0:2|0:2,0:2:0:0:
139,256,91657,5,10,0:2:0:0:
55,226,91770,2,2,P|59:173|108:117,1,102.666669799805,2|2,0:2|0:2,0:2:0:0:
161,107,91995,5,2,3:2:0:0:
175,7,92107,2,2,P|244:7|297:45,1,102.666669799805,2|2,0:2|0:2,0:2:0:0:
279,230,92332,5,2,3:2:0:0:
210,193,92444,1,2,0:2:0:0:
277,152,92556,1,2,0:2:0:0:
213,271,92669,5,2,0:2:0:0:
208,115,92781,1,2,0:2:0:0:
346,188,92893,1,2,0:2:0:0:
133,196,93006,5,2,3:2:0:0:
313,83,93118,1,2,0:2:0:0:
321,296,93230,1,2,0:2:0:0:
256,192,93343,5,14,0:2:0:0:
256,192,93680,6,0,L|349:177,1,83.9999974365235,4|0,3:2|0:2,0:2:0:0:
205,31,94017,2,0,L|112:16,1,83.9999974365235,0|0,0:2|3:2,0:2:0:0:
59,64,94354,5,10,0:2:0:0:
146,128,94523,1,2,0:2:0:0:
72,212,94691,1,2,3:2:0:0:
250,253,94860,5,2,3:2:0:0:
166,336,95028,2,0,L|146:192,1,125.999996154785,2|0,3:2|0:2,0:2:0:0:
148,211,95365,2,0,L|255:229,1,83.9999974365235,2|0,0:2|0:2,0:2:0:0:
273,91,95702,6,0,L|291:185,1,83.9999974365235,2|0,3:2|0:2,0:2:0:0:
464,167,96039,2,0,L|454:301,1,125.999996154785,8|0,0:2|0:2,0:2:0:0:
481,323,96377,6,0,L|385:341,1,83.9999974365235,6|0,3:2|0:2,0:2:0:0:
108,369,96714,2,0,L|204:387,1,83.9999974365235,2|0,0:2|3:2,0:2:0:0:
330,307,97051,5,10,0:2:0:0:
208,262,97219,1,2,0:2:0:0:
345,178,97388,1,2,3:2:0:0:
165,90,97556,1,2,3:2:0:0:
339,0,97725,6,0,B|327:62|327:62|289:82|289:82|274:153,1,167.999994873047,2|2,3:2|0:2,0:2:0:0:
276,142,98230,1,0,0:2:0:0:
168,173,98399,6,0,B|180:235|180:235|218:255|218:255|233:326,1,168,2|0,3:2|0:2,0:2:0:0:
259,244,98736,2,0,L|246:390,1,140,10|2,0:2|0:2,0:2:0:0:
123,140,99410,6,0,P|88:148|45:163,1,70,2|0,0:2|0:2,0:2:0:0:
5,91,99747,2,0,P|39:83|72:72,1,70,2|0,0:2|0:2,0:2:0:0:
117,9,100084,1,2,0:2:0:0:
117,9,100253,1,2,0:2:0:0:
214,106,100421,2,0,P|201:154|187:252,1,140,2|2,0:2|0:2,0:2:0:0:
465,70,101433,6,2,P|476:117|461:70,1,140,0|0,0:2|0:2,0:1:0:0:
412,267,102107,6,0,P|405:213|405:180,1,70,2|0,0:2|0:2,0:2:0:0:
323,146,102444,2,0,P|330:200|330:233,1,70,2|0,0:2|0:2,0:2:0:0:
268,268,102781,1,2,0:2:0:0:
268,268,102950,1,2,0:2:0:0:
199,223,103118,2,0,P|146:228|60:261,1,140,2|2,0:2|0:2,0:2:0:0:
53,140,103624,5,0,0:0:0:0:
53,140,103792,2,0,L|59:186,1,35,2|0,0:3|0:2,0:2:0:0:
153,86,104129,2,0,L|147:132,1,35,2|0,0:3|0:2,0:2:0:0:
360,140,104466,2,0,L|366:186,1,35,2|0,0:3|0:2,0:2:0:0:
243,315,104803,6,0,P|286:303|320:299,1,70,2|0,0:2|0:2,0:2:0:0:
340,210,105141,2,0,P|297:222|263:226,1,70,2|0,0:2|0:2,0:2:0:0:
195,243,105478,1,2,0:2:0:0:
195,243,105646,1,2,0:2:0:0:
135,184,105815,2,0,P|140:131|130:80,1,105,2|0,0:2|0:2,0:2:0:0:
130,80,106152,6,2,P|106:39|134:78,2,140,0|0|0,0:2|0:2|0:2,0:1:0:0:
407,101,107500,6,2,P|383:123|409:102,1,105,0|0,0:2|0:2,0:1:0:0:
497,105,107837,2,2,P|439:48|504:102,1,280,0|0,0:2|0:2,0:1:0:0:
175,276,108848,6,2,P|198:298|172:277,1,105,0|0,0:2|0:2,0:1:0:0:
74,256,109186,2,2,P|102:228|70:254,1,140,0|0,0:2|0:2,0:1:0:0:
