osu file format v14

[General]
AudioFilename: A up.mp3
AudioLeadIn: 0
PreviewTime: 9386
Countdown: 0
SampleSet: Soft
StackLeniency: 0.4
Mode: 0
LetterboxInBreaks: 0
WidescreenStoryboard: 1

[Editor]
Bookmarks: 8743,9457,29507,36936,46029,50650,55172,64315
DistanceSpacing: 0.9
BeatDivisor: 4
GridSize: 4
TimelineZoom: 2.4

[Metadata]
Title:Shut up
TitleUnicode:黙れ
Artist:Takayan
ArtistUnicode:たかやん
Creator:anfeargorm
Version:xiqingwa's Extra
Source:
Tags:ABSOLUTE EPIC 4 MartinWTB Hatsune Miku FEET HatsuneMikuFEET HMF xiqingwa fleuress Some Hero hip hop rap japanese summary of single songs for 2020
BeatmapID:2820454
BeatmapSetID:1361746

[Difficulty]
HPDrainRate:7
CircleSize:4.3
OverallDifficulty:8.7
ApproachRate:9.2
SliderMultiplier:3.39999990463257
SliderTickRate:1

[Events]
//Background and Video events
0,0,"A shut.jpg",0,0
//Break Periods
//Storyboard Layer 0 (Background)
//Storyboard Layer 1 (Fail)
//Storyboard Layer 2 (Pass)
//Storyboard Layer 3 (Foreground)
//Storyboard Layer 4 (Overlay)
//Storyboard Sound Samples

[TimingPoints]
365,571.428571428571,4,2,1,60,1,0
365,-250,4,2,1,60,0,0
4365,-250,4,2,2,60,0,0
4650,-250,4,2,1,60,0,0
8936,-250,4,2,2,60,0,0
9507,-83.3333333333333,4,2,1,90,0,0
10079,-83.3333333333333,4,2,2,90,0,0
10151,-83.3333333333333,4,2,1,90,0,0
11222,-83.3333333333333,4,2,2,90,0,0
11294,-83.3333333333333,4,2,1,90,0,0
12365,-83.3333333333333,4,2,2,90,0,0
12793,-83.3333333333333,4,2,1,90,0,0
13507,-83.3333333333333,4,2,2,90,0,0
13579,-83.3333333333333,4,2,1,90,0,0
14650,-83.3333333333333,4,2,2,90,0,0
14722,-83.3333333333333,4,2,1,90,0,0
15793,-83.3333333333333,4,2,2,90,0,0
15865,-83.3333333333333,4,2,1,90,0,0
18079,-83.3333333333333,4,2,2,90,0,0
18365,-83.3333333333333,4,2,1,90,0,0
20365,-83.3333333333333,4,2,2,90,0,0
20437,-83.3333333333333,4,2,1,90,0,0
22650,-83.3333333333333,4,2,2,90,0,0
22936,-83.3333333333333,4,2,1,90,0,0
23793,-83.3333333333333,4,2,2,90,0,0
23865,-83.3333333333333,4,2,1,90,0,0
24936,-83.3333333333333,4,2,2,90,0,0
25008,-83.3333333333333,4,2,1,90,0,0
27222,-83.3333333333333,4,2,2,90,0,0
27294,-83.3333333333333,4,2,1,90,0,0
27793,-83.3333333333333,4,2,1,70,0,0
29650,-142.857142857143,4,2,1,70,0,0
30365,-100,4,2,1,70,0,0
30650,-100,4,2,2,70,0,0
30722,-100,4,2,1,70,0,0
31793,-100,4,2,2,70,0,0
32079,-100,4,2,1,70,0,0
32936,-100,4,2,2,70,0,0
33008,-100,4,2,1,70,0,0
34079,-100,4,2,2,70,0,0
34650,-100,4,2,1,70,0,0
35222,-100,4,2,2,70,0,0
35294,-100,4,2,1,70,0,0
36365,-100,4,2,2,70,0,0
36650,-100,4,2,1,70,0,0
37507,-100,4,2,2,70,0,0
37579,-100,4,2,1,70,0,0
38650,-100,4,2,2,70,0,0
38722,-100,4,2,1,70,0,0
39793,-100,4,2,2,70,0,0
39865,-100,4,2,1,70,0,0
40936,-100,4,2,2,70,0,0
41222,-100,4,2,1,70,0,0
42079,-100,4,2,2,70,0,0
42151,-100,4,2,1,70,0,0
43222,-100,4,2,2,70,0,0
43294,-100,4,2,1,70,0,0
44365,-100,4,2,2,70,0,0
44437,-100,4,2,1,70,0,0
45507,-100,4,2,2,70,0,0
45579,-100,4,2,1,70,0,0
46079,-142.857142857143,4,2,1,60,0,0
55222,-100,4,2,1,70,0,0
55793,-100,4,2,2,70,0,0
55865,-100,4,2,1,70,0,0
56936,-100,4,2,2,70,0,0
57222,-100,4,2,1,70,0,0
58079,-100,4,2,2,70,0,0
58151,-100,4,2,1,70,0,0
59222,-100,4,2,2,70,0,0
59294,-100,4,2,1,70,0,0
60365,-100,4,2,2,70,0,0
60437,-100,4,2,1,70,0,0
61507,-100,4,2,2,70,0,0
61793,-100,4,2,1,70,0,0
62650,-100,4,2,2,70,0,0
62722,-100,4,2,1,70,0,0
64079,-250,4,2,2,70,0,0
64150,-250,4,2,1,70,0,0
64365,-83.3333333333333,4,2,1,90,0,0
64936,-83.3333333333333,4,2,2,90,0,0
65008,-83.3333333333333,4,2,1,90,0,0
66079,-83.3333333333333,4,2,2,90,0,0
66151,-83.3333333333333,4,2,1,90,0,0
67222,-83.3333333333333,4,2,2,90,0,0
67649,-83.3333333333333,4,2,1,90,0,0
68365,-83.3333333333333,4,2,2,90,0,0
68437,-83.3333333333333,4,2,1,90,0,0
69507,-83.3333333333333,4,2,2,90,0,0
69935,-83.3333333333333,4,2,1,90,0,0
70650,-83.3333333333333,4,2,2,90,0,0
70722,-83.3333333333333,4,2,1,90,0,0
72936,-83.3333333333333,4,2,2,90,0,0
73008,-83.3333333333333,4,2,1,90,0,0
75222,-83.3333333333333,4,2,2,90,0,0
75294,-83.3333333333333,4,2,1,90,0,0
77507,-83.3333333333333,4,2,2,90,0,0
77579,-83.3333333333333,4,2,1,90,0,0
78650,-83.3333333333333,4,2,2,90,0,0
79079,-83.3333333333333,4,2,1,90,0,0
79793,-83.3333333333333,4,2,2,90,0,0
79865,-83.3333333333333,4,2,1,90,0,0
82079,-83.3333333333333,4,2,2,90,0,0
82151,-83.3333333333333,4,2,1,90,0,0
82650,-83.3333333333333,4,2,1,5,0,0
84385,714.285714285714,4,2,1,80,1,0
85099,-166.666666666667,4,2,1,80,0,0
85456,-166.666666666667,4,2,2,80,0,0
85545,-166.666666666667,4,2,1,80,0,0
85813,714.285714285714,4,2,1,80,1,0
85813,-142.857142857143,4,2,1,80,0,0
86527,-142.857142857143,4,2,2,80,0,0
87063,-142.857142857143,4,2,1,80,0,0
87955,-142.857142857143,4,2,2,80,0,0
88045,-142.857142857143,4,2,1,80,0,0
89384,-142.857142857143,4,2,2,80,0,0
89474,-142.857142857143,4,2,1,80,0,0
90812,-142.857142857143,4,2,2,80,0,0
91170,-142.857142857143,4,2,1,80,0,0
92241,-142.857142857143,4,2,2,80,0,0
92777,-142.857142857143,4,2,1,80,0,0
93670,-142.857142857143,4,2,2,80,0,0
93759,-142.857142857143,4,2,1,80,0,0
95098,-142.857142857143,4,2,2,80,0,0
95188,-142.857142857143,4,2,1,80,0,0
96527,-142.857142857143,4,2,2,80,0,0
96884,-142.857142857143,4,2,1,80,0,0
97955,-142.857142857143,4,2,2,80,0,0
98491,-142.857142857143,4,2,1,80,0,0
99384,-142.857142857143,4,2,2,80,0,0
99474,-142.857142857143,4,2,1,80,0,0
100813,-142.857142857143,4,2,2,80,0,0
100902,-142.857142857143,4,2,1,80,0,0
102241,-142.857142857143,4,2,2,80,0,0
102331,-142.857142857143,4,2,1,80,0,0
103670,-142.857142857143,4,2,2,80,0,0
104205,-142.857142857143,4,2,1,80,0,0
105098,-142.857142857143,4,2,2,80,0,0
105188,-142.857142857143,4,2,1,80,0,0
106527,-142.857142857143,4,2,2,80,0,0
106616,-142.857142857143,4,2,1,80,0,0
107955,-142.857142857143,4,2,2,80,0,0
108313,-142.857142857143,4,2,1,80,0,0

[Colours]
Combo1 : 242,106,143
Combo2 : 201,209,31

[HitObjects]
271,366,365,6,0,L|265:258,2,102,10|2|10,2:0|2:0|2:0,2:0:0:0:
354,374,1507,1,10,2:0:0:0:
194,225,1793,5,8,2:0:0:0:
394,201,2079,1,8,2:0:0:0:
176,217,2365,1,8,2:0:0:0:
261,30,2650,6,0,L|257:145,2,102,10|2|10,2:0|2:0|2:0,2:0:0:0:
337,51,3793,1,10,2:0:0:0:
118,53,4079,5,8,2:0:0:0:
222,226,4365,1,8,2:1:0:0:
40,72,4650,1,8,2:0:0:0:
304,132,4936,6,0,L|412:114,2,102,10|2|10,2:0|2:0|2:0,2:0:0:0:
313,213,6079,1,10,2:0:0:0:
137,318,6365,5,8,2:0:0:0:
79,126,6650,1,8,2:0:0:0:
131,289,6936,1,8,2:0:0:0:
155,52,7222,6,0,L|51:38,2,102,10|2|10,2:0|2:0|2:0,2:0:0:0:
220,92,8365,5,2,3:2:0:0:
250,15,8507,1,8,2:0:0:0:
239,107,8793,5,2,3:2:0:0:
272,17,8936,1,8,2:1:0:0:
293,15,9222,6,0,L|296:59,1,34,0|0,2:0|2:0,2:0:0:0:
494,256,9507,6,0,P|401:225|349:169,1,153,2|0,3:2|2:0,2:0:0:0:
377,89,9793,2,0,P|345:161|277:214,1,153,2|0,2:0|2:0,2:0:0:0:
20,153,10079,2,0,P|93:117|94:223,1,204,10|2,2:0|2:0,2:0:0:0:
34,243,10507,1,10,2:0:0:0:
231,373,10650,6,0,L|241:257,1,102,2|10,2:0|2:0,2:0:0:0:
263,52,10936,1,2,3:2:0:0:
264,64,11007,1,0,2:0:0:0:
265,77,11079,1,2,2:0:0:0:
266,90,11150,1,0,2:0:0:0:
297,116,11222,2,0,L|167:114,1,102,10|0,2:0|2:0,2:0:0:0:
123,184,11507,2,0,L|244:190,1,102,2|2,2:0|2:0,2:0:0:0:
449,73,11793,5,2,3:2:0:0:
371,36,11936,1,2,2:0:0:0:
292,24,12079,1,2,2:0:0:0:
379,130,12222,5,2,3:2:0:0:
507,5,12365,1,10,2:0:0:0:
420,201,12507,5,2,2:0:0:0:
303,103,12650,1,2,2:0:0:0:
241,216,12793,1,10,2:0:0:0:
357,307,12936,1,2,2:0:0:0:
357,307,13079,1,10,2:0:0:0:
507,184,13222,6,0,P|498:243|470:300,1,102,2|0,3:2|2:0,2:0:0:0:
236,359,13507,2,0,P|304:308|347:314,1,102,10|0,2:0|2:0,2:0:0:0:
55,367,13793,2,0,P|35:293|70:220,1,153,2|0,3:2|2:0,2:0:0:0:
255,180,14079,6,0,P|171:191|47:212,1,204,2|2,3:2|2:0,2:0:0:0:
245,63,14507,1,2,3:2:0:0:
344,245,14650,2,0,P|354:161|362:123,1,102,10|2,2:0|2:0,2:0:0:0:
95,0,14936,2,0,P|115:59|128:114,1,102,2|10,2:0|2:0,2:0:0:0:
186,5,15222,5,2,2:0:0:0:
186,5,15365,1,10,2:0:0:0:
102,176,15507,1,2,3:2:0:0:
114,177,15579,1,0,2:0:0:0:
127,179,15650,1,2,2:0:0:0:
139,180,15722,1,0,2:0:0:0:
167,214,15793,2,0,L|272:194,1,102,10|0,2:0|2:0,2:0:0:0:
465,127,16079,6,0,P|490:188|484:235,1,102,2|0,2:1|2:0,2:0:0:0:
283,1,16365,2,0,P|261:62|272:101,1,102,2|0,3:1|2:0,2:0:0:0:
357,102,16650,6,0,L|364:-3,1,102,2|0,2:1|3:2,2:0:0:0:
278,286,16936,2,0,L|499:262,1,204,10|2,2:1|2:0,2:0:0:0:
512,342,17365,1,10,2:0:0:0:
386,206,17507,5,2,2:0:0:0:
357,292,17650,1,10,2:0:0:0:
330,374,17793,1,2,3:2:0:0:
196,258,17936,1,2,2:0:0:0:
370,316,18079,1,10,2:0:0:0:
370,316,18365,6,0,P|449:295|499:232,1,153,2|0,3:1|2:0,2:0:0:0:
278,164,18650,2,0,L|300:380,1,204,6|2,3:1|2:1,2:0:0:0:
197,146,19079,1,0,3:2:0:0:
42,313,19222,2,0,L|146:333,1,102,10|2,2:1|2:0,2:0:0:0:
155,57,19507,5,2,2:0:0:0:
103,175,19650,1,10,2:0:0:0:
2,175,19793,1,2,2:0:0:0:
203,223,19936,5,10,2:0:0:0:
274,91,20079,1,6,3:2:0:0:
275,78,20150,1,0,2:0:0:0:
276,65,20222,1,2,2:0:0:0:
277,52,20293,1,0,2:0:0:0:
302,18,20365,2,0,P|345:57|365:102,1,102,10|0,2:0|2:0,2:0:0:0:
439,246,20650,6,0,P|339:218|334:153,1,153,2|0,2:1|2:0,2:0:0:0:
84,174,20936,2,0,P|148:136|298:111,1,204,6|2,3:1|2:1,2:0:0:0:
248,343,21365,1,0,3:2:0:0:
62,276,21507,2,0,L|49:378,1,102,10|0,2:1|2:0,2:0:0:0:
38,56,21793,5,2,2:0:0:0:
0,209,21936,1,10,2:0:0:0:
172,169,22079,1,2,2:0:0:0:
0,124,22222,5,10,2:0:0:0:
191,190,22365,1,4,3:1:0:0:
116,250,22507,1,0,2:0:0:0:
92,158,22650,1,8,2:0:0:0:
92,158,22936,6,0,P|76:70|26:2,1,153,2|0,3:1|2:0,2:0:0:0:
279,102,23222,2,0,P|385:94|458:11,1,204,6|2,3:1|2:1,2:0:0:0:
188,20,23650,1,0,3:2:0:0:
345,203,23793,2,0,L|221:178,1,102,10|2,2:0|2:0,2:0:0:0:
427,367,24079,1,2,2:0:0:0:
431,177,24222,6,0,L|213:194,1,204,10|10,2:0|2:0,2:0:0:0:
82,34,24650,1,6,3:2:0:0:
84,46,24722,1,0,2:0:0:0:
87,58,24793,1,0,2:0:0:0:
90,71,24865,1,0,2:0:0:0:
76,113,24936,2,0,P|144:98|193:73,1,102,10|0,2:0|2:0,2:0:0:0:
275,322,25222,6,0,P|213:295|138:219,1,153,2|0,2:1|2:0,2:0:0:0:
3,52,25507,2,0,P|10:226|-8:247,1,204,6|2,3:1|2:1,2:0:0:0:
277,232,25936,1,0,3:2:0:0:
102,363,26079,2,0,L|-19:383,1,102,10|0,2:1|2:0,2:0:0:0:
122,190,26365,5,2,2:0:0:0:
122,190,26507,1,10,2:0:0:0:
208,306,26650,1,2,2:0:0:0:
359,284,26793,1,10,2:0:0:0:
236,225,26936,1,6,3:2:0:0:
290,368,27079,1,2,2:0:0:0:
369,172,27222,6,0,P|398:257|411:402,1,204,10|2,2:0|3:2,2:0:0:0:
508,83,27793,5,2,2:0:0:0:
463,55,28222,1,2,2:0:0:0:
415,71,28650,1,2,2:0:0:0:
325,93,28936,5,2,2:0:0:0:
245,71,29222,1,2,2:0:0:0:
338,83,29507,5,10,2:0:0:0:
236,57,29650,2,0,L|244:206,1,148.75,2|0,2:0|2:0,2:0:0:0:
225,238,30079,5,2,3:2:0:0:
164,169,30222,1,2,2:0:0:0:
69,289,30365,2,0,P|128:276|153:262,1,85,2|0,2:0|3:2,2:0:0:0:
83,108,30650,2,0,L|79:202,1,85,10|2,2:0|2:0,2:0:0:0:
3,247,30936,1,2,2:0:0:0:
3,247,31079,1,10,2:0:0:0:
11,324,31222,6,0,L|113:332,1,85,2|10,2:0|2:0,2:0:0:0:
203,375,31507,2,0,L|297:355,1,85,2|2,3:2|2:0,2:0:0:0:
0,337,31793,5,10,2:0:0:0:
187,363,31936,1,2,2:0:0:0:
208,286,32079,2,0,P|203:209|190:166,1,85,0|0,3:2|2:0,2:0:0:0:
379,377,32365,6,0,P|422:319|513:347,1,170,2|2,3:2|2:0,2:0:0:0:
460,157,32793,1,2,3:2:0:0:
384,229,32936,2,0,L|285:230,1,85,10|2,2:0|2:0,2:0:0:0:
258,114,33222,2,0,L|366:106,1,85,2|8,2:0|2:0,2:0:0:0:
213,37,33507,2,0,P|176:96|177:133,1,85,2|8,2:0|2:0,2:0:0:0:
73,101,33793,2,0,P|90:160|124:180,1,85,2|0,3:2|2:0,2:0:0:0:
306,31,34079,1,10,2:0:0:0:
306,31,34365,6,0,L|394:25,1,85,2|2,2:0|2:0,2:0:0:0:
494,129,34650,2,0,P|392:110|313:118,1,170,2|2,3:2|2:0,2:0:0:0:
326,275,35079,1,2,3:2:0:0:
251,173,35222,2,0,P|233:95|232:60,1,85,10|2,2:0|2:0,2:0:0:0:
159,32,35507,2,0,P|143:88|127:129,1,85,2|10,2:0|2:0,2:0:0:0:
0,39,35793,5,2,2:0:0:0:
71,7,35936,1,10,2:0:0:0:
77,167,36079,1,2,3:2:0:0:
5,137,36222,1,2,2:0:0:0:
95,281,36365,1,10,2:0:0:0:
95,281,36650,2,0,L|82:144,1,127.5,2|0,3:2|2:0,2:0:0:0:
8,226,36936,6,0,L|303:251,1,255,2|0,3:2|3:2,2:0:0:0:
387,86,37507,2,0,L|392:185,1,85,10|2,2:0|2:0,2:0:0:0:
311,154,37793,2,0,L|305:55,1,85,2|10,2:0|2:0,2:0:0:0:
154,9,38079,5,2,2:0:0:0:
226,52,38222,1,10,2:0:0:0:
174,149,38365,1,2,3:2:0:0:
98,116,38507,1,2,2:0:0:0:
171,2,38650,2,0,L|182:191,1,170,10|0,2:0|2:0,2:0:0:0:
180,171,39222,6,0,P|238:145|279:143,1,85,2|2,3:2|2:0,2:0:0:0:
351,157,39507,2,0,P|328:105|322:60,1,85,2|2,2:0|3:2,2:0:0:0:
201,272,39793,2,0,P|138:248|100:247,1,85,10|2,2:0|2:0,2:0:0:0:
47,197,40079,2,0,P|29:257|29:294,1,85,2|10,2:0|2:0,2:0:0:0:
143,360,40365,5,2,2:0:0:0:
224,356,40507,1,10,2:0:0:0:
307,247,40650,1,2,3:2:0:0:
374,289,40793,1,2,2:0:0:0:
316,376,40936,1,10,2:0:0:0:
316,376,41222,6,0,L|282:246,1,127.5,2|0,3:2|2:0,2:0:0:0:
208,195,41507,2,0,P|347:198|414:107,1,255,2|0,3:2|3:2,2:0:0:0:
512,254,42079,6,0,L|415:234,1,85,10|2,2:0|2:0,2:0:0:0:
370,298,42365,2,0,L|401:386,1,85,2|10,2:0|2:0,2:0:0:0:
475,330,42650,1,2,2:0:0:0:
475,330,42793,1,10,2:0:0:0:
416,243,42936,2,0,P|408:177|413:124,1,85,2|2,3:2|2:0,2:0:0:0:
510,9,43222,2,0,P|440:26|331:74,1,170,10|0,2:0|2:0,2:0:0:0:
349,63,43793,6,0,L|442:74,1,85,2|2,3:2|2:0,2:0:0:0:
283,33,44079,1,2,2:0:0:0:
272,195,44222,1,2,3:2:0:0:
197,62,44365,2,0,L|96:43,1,85,10|2,2:0|2:0,2:0:0:0:
33,6,44650,2,0,L|31:98,1,85,2|10,2:0|2:0,2:0:0:0:
48,121,44865,1,2,2:0:0:0:
48,121,44936,1,2,2:0:0:0:
11,269,45079,5,10,2:0:0:0:
103,196,45222,2,0,P|133:146|141:106,1,85,2|2,3:2|2:0,2:0:0:0:
173,350,45507,2,0,P|97:277|15:288,1,170,10|2,2:0|3:2,2:0:0:0:
226,34,46079,6,0,L|234:168,3,119,8|10|10|10,2:0|2:0|2:0|2:0,2:0:0:0:
303,383,47222,2,0,L|316:246,3,119,8|10|10|10,2:0|2:0|2:0|2:0,2:0:0:0:
419,311,48365,6,0,L|284:299,3,119,8|10|10|10,2:0|2:0|2:0|2:0,2:0:0:0:
147,106,49507,2,0,L|16:122,1,119,8|10,2:0|2:0,2:0:0:0:
17,196,49936,1,0,2:0:0:0:
44,267,50079,2,0,L|181:247,1,119,10|10,2:0|2:0,2:0:0:0:
291,0,50650,6,0,P|325:53|311:126,3,119,8|10|10|10,2:0|2:0|2:0|2:0,2:0:0:0:
364,318,51793,2,0,P|363:243|401:193,3,119,10|10|10|10,2:0|2:0|2:0|2:0,2:0:0:0:
108,88,52936,6,0,P|175:108|232:84,1,119,10|10,2:0|2:0,2:0:0:0:
249,22,53365,1,2,2:0:0:0:
274,152,53507,2,0,P|211:178|155:155,1,119,10|10,2:0|2:0,2:0:0:0:
157,299,53936,1,2,2:0:0:0:
88,186,54079,2,0,P|80:235|91:262,1,59.4999999999999,10|2,2:0|2:0,2:0:0:0:
236,339,54365,2,0,P|243:289|236:263,1,59.4999999999999,10|2,2:0|2:0,2:0:0:0:
61,323,54650,2,0,L|-13:318,1,59.4999999999999,10|2,2:0|2:0,2:0:0:0:
127,375,54936,1,8,2:0:0:0:
127,375,55222,6,0,P|209:374|378:310,1,255,2|2,3:2|3:2,2:0:0:0:
375,55,55793,2,0,L|361:144,1,85,10|2,2:0|2:0,2:0:0:0:
462,307,56079,2,0,L|459:203,1,85,10|2,2:0|2:0,2:0:0:0:
353,68,56365,2,0,P|475:56|495:13,2,170,10|2|10,2:0|3:2|2:0,2:0:0:0:
353,68,57222,6,0,P|313:86|251:89,1,85,10|2,2:0|2:0,2:0:0:0:
121,30,57507,1,2,3:2:0:0:
187,105,57650,2,0,L|165:220,1,85,2|8,2:0|2:0,2:0:0:0:
257,352,57936,1,2,3:2:0:0:
257,352,58007,1,2,2:0:0:0:
257,352,58079,2,0,L|251:255,1,85,10|2,2:0|2:0,2:0:0:0:
137,330,58365,2,0,L|30:344,1,85,10|2,2:0|2:0,2:0:0:0:
4,205,58650,5,10,2:0:0:0:
96,185,58793,1,10,2:0:0:0:
8,103,58936,1,2,3:2:0:0:
110,157,59079,1,2,2:0:0:0:
86,284,59222,2,0,P|84:198|104:75,1,170,10|2,2:0|3:2,2:0:0:0:
94,114,59793,6,0,P|214:92|284:192,1,255,2|2,3:2|3:2,2:0:0:0:
452,54,60365,2,0,L|342:51,1,85,10|2,2:0|2:0,2:0:0:0:
376,167,60650,2,0,L|484:128,1,85,10|2,2:0|2:0,2:0:0:0:
345,23,60936,2,0,L|351:202,2,170,10|2|10,2:0|3:2|2:0,2:0:0:0:
345,23,61793,1,10,2:0:0:0:
272,39,61936,1,2,2:0:0:0:
408,116,62079,6,0,P|467:121|501:135,1,85,2|2,3:2|2:0,2:0:0:0:
269,202,62365,2,0,P|285:131|301:108,1,85,10|2,2:0|3:2,2:0:0:0:
481,267,62650,2,0,P|424:320|336:286,1,170,10|10,2:0|2:0,2:0:0:0:
353,224,63079,1,2,2:0:0:0:
206,264,63222,5,2,3:2:0:0:
231,369,63365,1,10,2:0:0:0:
178,259,63650,5,2,3:2:0:0:
206,380,63793,1,10,2:0:0:0:
178,384,64079,6,0,L|185:335,1,34,2|0,2:3|2:0,2:0:0:0:
91,128,64365,6,0,P|191:138|270:128,1,153,2|0,3:2|2:0,2:0:0:0:
358,81,64650,2,0,P|310:134|263:217,1,153,2|0,2:0|2:0,2:0:0:0:
427,367,64936,2,0,L|424:116,1,204,10|2,2:0|2:0,2:0:0:0:
276,10,65365,1,10,2:0:0:0:
457,93,65507,5,2,2:0:0:0:
299,172,65650,1,10,2:0:0:0:
119,84,65793,1,2,3:2:0:0:
121,71,65865,1,0,2:0:0:0:
123,58,65936,1,2,2:0:0:0:
125,46,66007,1,0,2:0:0:0:
169,31,66079,2,0,L|271:28,1,102,10|0,2:0|2:0,2:0:0:0:
155,185,66365,5,2,2:0:0:0:
74,177,66507,1,2,2:0:0:0:
21,102,66650,5,2,3:2:0:0:
93,259,66793,1,2,2:0:0:0:
6,130,66936,1,2,2:0:0:0:
151,90,67079,5,2,3:2:0:0:
39,195,67222,1,10,2:0:0:0:
198,250,67365,1,2,2:0:0:0:
77,384,67507,2,0,L|66:281,1,102,2|10,2:0|2:0,2:0:0:0:
246,363,67793,5,2,2:0:0:0:
246,363,67936,1,10,2:0:0:0:
217,166,68079,2,0,P|146:171|113:199,1,102,2|0,3:2|2:0,2:0:0:0:
356,328,68365,2,0,P|426:312|467:222,1,153,10|0,2:0|2:0,2:0:0:0:
431,176,68650,5,2,3:2:0:0:
431,176,68793,1,2,2:0:0:0:
333,238,68936,1,2,3:2:0:0:
307,163,69079,1,2,2:0:0:0:
313,74,69222,1,2,2:0:0:0:
279,2,69365,1,2,3:2:0:0:
193,108,69507,1,10,2:0:0:0:
385,30,69650,1,2,2:0:0:0:
179,3,69793,2,0,L|171:110,1,102,2|10,2:0|2:0,2:0:0:0:
220,303,70079,5,2,2:0:0:0:
205,225,70222,1,10,2:0:0:0:
19,263,70365,1,2,3:2:0:0:
31,263,70436,1,0,2:0:0:0:
44,264,70507,1,2,2:0:0:0:
57,264,70579,1,0,2:0:0:0:
83,291,70650,2,0,P|125:333|145:383,1,102,10|0,2:0|2:0,2:0:0:0:
11,104,70936,6,0,L|45:-17,1,102,2|0,2:1|2:0,2:0:0:0:
319,73,71222,2,0,L|288:192,1,102,2|0,3:1|2:0,2:0:0:0:
121,75,71507,6,0,L|229:100,1,102,2|0,2:1|3:2,2:0:0:0:
427,265,71793,2,0,L|224:284,1,204,10|2,2:1|2:0,2:0:0:0:
112,224,72222,1,10,2:0:0:0:
189,358,72365,1,2,2:0:0:0:
311,367,72507,1,10,2:0:0:0:
337,288,72650,1,2,3:2:0:0:
259,191,72793,1,2,2:0:0:0:
408,262,72936,2,0,P|419:318|423:380,1,102,10|0,2:0|2:0,2:0:0:0:
366,116,73222,6,0,P|404:38|483:5,1,153,2|0,3:1|2:0,2:0:0:0:
478,187,73507,2,0,L|274:159,1,204,6|2,3:1|2:1,2:0:0:0:
155,0,73936,1,0,3:2:0:0:
185,247,74079,2,0,L|196:114,1,102,10|2,2:1|2:0,2:0:0:0:
315,10,74365,5,2,2:0:0:0:
360,82,74507,1,10,2:0:0:0:
270,78,74650,1,2,2:0:0:0:
209,9,74793,1,10,2:0:0:0:
55,122,74936,1,6,3:2:0:0:
67,119,75007,1,0,2:0:0:0:
80,117,75079,1,2,2:0:0:0:
92,115,75150,1,0,2:0:0:0:
131,94,75222,2,0,P|118:34|95:-19,1,102,10|0,2:0|2:0,2:0:0:0:
24,262,75507,6,0,P|93:204|172:175,1,153,2|0,2:1|2:0,2:0:0:0:
349,355,75793,2,0,P|279:368|223:247,1,204,6|2,3:1|2:1,2:0:0:0:
300,57,76222,1,0,3:2:0:0:
389,253,76365,2,0,L|384:127,1,102,10|0,2:1|2:0,2:0:0:0:
163,65,76650,5,2,2:0:0:0:
286,176,76793,1,10,2:0:0:0:
146,220,76936,1,2,2:0:0:0:
219,123,77079,5,10,2:0:0:0:
142,183,77222,1,6,3:2:0:0:
220,253,77365,1,2,2:0:0:0:
315,176,77507,2,0,L|416:166,1,102,10|0,2:0|2:0,2:0:0:0:
322,360,77793,6,0,P|324:295|237:255,1,153,2|0,3:1|2:0,2:0:0:0:
140,42,78079,2,0,P|129:139|118:260,1,204,6|2,3:1|2:1,2:0:0:0:
253,94,78507,1,0,3:2:0:0:
33,166,78650,1,10,2:0:0:0:
83,98,78793,2,0,P|50:55|10:26,1,102,2|2,2:0|2:0,2:0:0:0:
218,220,79079,6,0,P|316:219|371:125,1,204,10|10,2:0|2:0,2:0:0:0:
491,12,79507,1,6,3:2:0:0:
488,24,79579,1,0,2:0:0:0:
485,36,79650,1,2,2:0:0:0:
482,49,79722,1,0,2:0:0:0:
506,88,79793,2,0,L|386:70,1,102,10|0,2:0|2:0,2:0:0:0:
345,319,80079,6,0,L|491:199,1,153,2|0,2:1|2:0,2:0:0:0:
303,46,80365,2,0,P|323:140|258:259,1,204,6|2,3:1|2:1,2:0:0:0:
78,31,80793,1,0,3:2:0:0:
247,143,80936,2,0,P|173:127|107:102,1,102,10|0,2:1|2:0,2:0:0:0:
29,284,81222,5,2,2:0:0:0:
135,230,81365,1,10,2:0:0:0:
242,379,81507,1,2,2:0:0:0:
326,340,81650,2,0,L|345:237,1,102,10|6,2:0|3:2,2:0:0:0:
203,70,81936,1,2,2:0:0:0:
233,296,82079,2,0,L|124:314,1,102,10|0,2:0|2:0,2:0:0:0:
317,37,82365,2,0,P|411:36|484:142,1,204,6|0,3:2|2:0,2:0:0:0:
212,213,84385,5,0,3:2:0:0:
306,78,84563,1,8,2:0:0:0:
219,227,84920,5,0,3:2:0:0:
321,71,85099,2,0,L|306:-21,1,76.4999999999998,10|0,2:0|2:0,2:0:0:0:
335,177,85456,2,0,L|340:80,1,76.4999999999998,2|0,2:3|2:0,2:0:0:0:
380,346,85813,6,0,P|322:318|269:343,1,119,2|2,3:2|2:0,2:0:0:0:
70,223,86348,1,0,3:2:0:0:
236,108,86527,5,10,2:0:0:0:
194,302,86705,1,2,2:0:0:0:
97,226,86884,5,2,2:0:0:0:
153,176,87063,1,10,2:0:0:0:
287,252,87241,6,0,L|388:272,1,89.2499999999999,2|0,2:0|2:0,2:0:0:0:
450,241,87598,1,2,3:2:0:0:
446,232,87688,1,0,2:0:0:0:
447,221,87777,1,2,2:0:0:0:
443,211,87866,1,0,2:0:0:0:
441,198,87955,2,0,L|429:132,1,59.4999999999999,10|0,2:0|2:0,2:0:0:0:
418,336,88313,6,0,P|444:361|489:374,1,59.4999999999999,2|0,2:0|2:0,2:0:0:0:
248,147,88670,2,0,P|193:183|116:178,1,119,2|2,3:2|2:0,2:0:0:0:
20,359,89205,1,2,3:2:0:0:
48,133,89384,2,0,L|65:209,1,59.4999999999999,10|2,2:0|2:0,2:0:0:0:
127,350,89741,1,2,2:0:0:0:
140,273,89920,1,10,2:0:0:0:
41,244,90098,5,2,2:0:0:0:
115,272,90277,1,10,2:0:0:0:
116,196,90455,2,0,L|-6:173,1,119,2|10,3:2|2:0,2:0:0:0:
417,26,91170,6,0,L|500:15,1,59.4999999999999,2|2,3:2|2:0,2:0:0:0:
199,9,91527,2,0,P|223:65|232:144,1,119,2|2,3:2|2:0,2:0:0:0:
198,344,92063,1,2,3:2:0:0:
331,208,92241,1,10,2:0:0:0:
398,252,92420,1,2,2:0:0:0:
267,265,92598,1,2,2:0:0:0:
186,182,92777,1,8,2:0:0:0:
315,130,92955,6,0,P|336:78|333:40,1,89.2499999999999,2|0,2:0|2:0,2:0:0:0:
218,25,93313,1,2,3:2:0:0:
227,35,93402,1,0,2:0:0:0:
234,45,93491,1,2,2:0:0:0:
236,58,93580,1,0,2:0:0:0:
234,72,93670,2,0,L|171:74,1,59.4999999999999,10|0,2:0|2:0,2:0:0:0:
68,14,94027,5,2,2:0:0:0:
0,68,94205,1,2,2:0:0:0:
132,241,94384,6,0,L|158:386,1,119,2|2,3:2|2:0,2:0:0:0:
16,149,94920,1,2,3:2:0:0:
229,233,95098,2,0,L|289:190,1,59.4999999999999,10|2,2:0|2:0,2:0:0:0:
101,232,95455,2,0,P|52:247|26:268,1,59.4999999999999,2|8,2:0|2:0,2:0:0:0:
266,358,95813,5,2,2:0:0:0:
183,284,95991,1,8,2:0:0:0:
328,237,96170,2,0,P|316:308|282:354,1,119,2|10,3:2|2:0,2:0:0:0:
160,93,96884,6,0,P|169:128|193:162,1,59.4999999999999,0|0,3:2|2:0,2:0:0:0:
145,5,97241,1,4,3:2:0:0:
145,5,97598,6,0,P|105:19|74:20,1,59.4999999999999,2|0,2:0|3:2,2:0:0:0:
190,92,97955,1,10,2:0:0:0:
297,15,98134,1,2,2:0:0:0:
426,100,98313,1,2,2:0:0:0:
360,141,98491,1,10,2:0:0:0:
435,76,98670,1,2,2:0:0:0:
435,76,99027,5,2,3:2:0:0:
445,95,99116,1,0,2:0:0:0:
447,115,99205,1,2,2:0:0:0:
452,132,99295,1,0,2:0:0:0:
453,151,99384,2,2,P|458:199|472:244,1,89.2499999999999,10|0,2:0|2:0,2:1:0:0:
413,318,99741,2,0,P|377:295|320:281,1,89.2499999999999,0|0,2:0|2:0,2:0:0:0:
141,373,100098,6,0,P|189:332|200:277,1,119,6|2,3:2|2:0,2:0:0:0:
116,48,100634,1,0,3:2:0:0:
143,210,100813,2,0,L|151:131,1,59.4999999999999,10|0,2:0|2:0,2:0:0:0:
55,107,101170,1,2,2:0:0:0:
69,234,101348,1,10,2:0:0:0:
26,95,101527,2,0,L|37:175,1,59.4999999999999,2|8,2:0|2:0,2:0:0:0:
191,262,101884,5,6,3:2:0:0:
0,249,102063,1,2,2:0:0:0:
229,146,102241,2,0,P|252:208|253:221,1,59.4999999999999,10|0,2:0|2:0,2:0:0:0:
93,347,102598,2,0,P|123:296|156:277,1,89.2499999999999,6|0,3:2|2:0,2:0:0:0:
402,330,102955,6,0,L|259:312,1,119,6|2,3:2|2:0,2:0:0:0:
124,104,103491,1,2,3:2:0:0:
359,69,103670,5,10,2:0:0:0:
344,167,103848,1,2,2:0:0:0:
194,181,104027,5,2,2:0:0:0:
201,95,104205,1,10,2:0:0:0:
26,23,104384,5,2,2:0:0:0:
45,99,104563,1,10,2:0:0:0:
77,181,104741,1,6,3:2:0:0:
80,193,104830,1,0,2:0:0:0:
82,206,104920,1,0,2:0:0:0:
83,221,105009,1,0,2:0:0:0:
81,234,105098,2,0,P|93:282|115:346,1,89.2499999999999,10|0,2:0|2:0,2:0:0:0:
162,371,105455,5,2,2:0:0:0:
162,371,105634,1,2,2:0:0:0:
369,304,105813,2,0,P|443:337|468:381,1,119,6|0,3:2|2:0,2:0:0:0:
169,194,106348,1,2,3:2:0:0:
365,125,106527,2,0,L|351:202,1,59.4999999999999,10|0,2:0|2:0,2:0:0:0:
240,380,106884,2,0,L|219:299,1,59.4999999999999,2|8,2:0|2:0,2:0:0:0:
162,106,107241,5,2,2:0:0:0:
129,216,107420,1,8,2:0:0:0:
43,193,107598,2,0,L|168:180,1,119,6|10,3:2|2:0,2:0:0:0:
358,24,108313,2,0,L|289:18,1,59.4999999999999,2|2,3:2|2:0,2:0:0:0:
