osu file format v14

[General]
AudioFilename: audio.mp3
AudioLeadIn: 0
PreviewTime: 68377
Countdown: 0
SampleSet: Soft
StackLeniency: 0.4
Mode: 0
LetterboxInBreaks: 0
WidescreenStoryboard: 0

[Editor]
Bookmarks: 23725,46051,48842,68377,79539,90702
DistanceSpacing: 1
BeatDivisor: 4
GridSize: 4
TimelineZoom: 2.1

[Metadata]
Title:Scream
TitleUnicode:叫び
Artist:Takayan
ArtistUnicode:たかやん
Creator:Jiysea
Version:Kiite
Source:
Tags:japanese pop jpop j-pop sakebi hiphop hip hop 人生がクソすぎて死にたい To you who want to die because life is trash Jinsei ga kuso sugite shinitai bad example Nugodesuga Mujina Airiesu AyameMyMommy Pile
BeatmapID:2834725
BeatmapSetID:1370987

[Difficulty]
HPDrainRate:5.5
CircleSize:4.4
OverallDifficulty:8.5
ApproachRate:9.2
SliderMultiplier:1.8
SliderTickRate:1

[Events]
//Background and Video events
0,0,"girl falling with tears.jpg",0,0
//Break Periods
//Storyboard Layer 0 (Background)
//Storyboard Layer 1 (Fail)
//Storyboard Layer 2 (Pass)
//Storyboard Layer 3 (Foreground)
//Storyboard Layer 4 (Overlay)
//Storyboard Sound Samples

[TimingPoints]
5,348.837209302326,4,2,10,30,1,0
1051,-100,4,2,10,30,0,0
1400,-200,4,2,10,30,0,0
2534,-200,4,2,10,5,0,0
2621,-200,4,2,10,30,0,0
5150,-200,4,2,10,5,0,0
5237,-200,4,2,10,30,0,0
7941,-200,4,2,10,5,0,0
8028,-200,4,2,10,30,0,0
9772,-166.666666666667,4,2,10,30,0,0
12475,-166.666666666667,4,2,10,5,0,0
12563,-133.333333333333,4,2,11,50,0,0
22330,-133.333333333333,4,2,11,75,0,0
23551,-133.333333333333,4,2,11,5,0,0
23725,-66.6666666666667,4,2,1,85,0,1
24074,-83.3333333333333,4,2,1,85,0,0
24598,-83.3333333333333,4,2,1,5,0,0
24685,-83.3333333333333,4,2,1,85,0,0
25818,-83.3333333333333,4,2,1,85,0,0
26080,-83.3333333333333,4,2,1,5,0,0
26167,-83.3333333333333,4,2,1,85,0,0
27999,-83.3333333333333,4,2,1,5,0,0
28086,-83.3333333333333,4,2,1,85,0,0
28173,-83.3333333333333,4,2,1,5,0,0
28260,-83.3333333333333,4,2,1,85,0,0
28784,-83.3333333333333,4,2,1,5,0,0
28871,-83.3333333333333,4,2,1,85,0,0
29568,-83.3333333333333,4,2,1,5,0,0
29656,-83.3333333333333,4,2,1,85,0,0
30179,-83.3333333333333,4,2,1,5,0,0
30266,-83.3333333333333,4,2,1,85,0,0
30441,-83.3333333333333,4,2,1,5,0,0
30528,-83.3333333333333,4,2,1,85,0,0
32359,-83.3333333333333,4,2,1,5,0,0
32446,-83.3333333333333,4,2,1,85,0,0
32534,-83.3333333333333,4,2,1,5,0,0
32621,-83.3333333333333,4,2,1,85,0,0
32708,-83.3333333333333,4,2,1,5,0,0
32795,-83.3333333333333,4,2,1,85,0,0
32882,-83.3333333333333,4,2,1,5,0,0
32970,-83.3333333333333,4,2,1,85,0,0
33057,-83.3333333333333,4,2,1,5,0,0
33144,-83.3333333333333,4,2,1,85,0,0
33231,-83.3333333333333,4,2,1,5,0,0
33318,-83.3333333333333,4,2,1,85,0,0
33406,-83.3333333333333,4,2,1,5,0,0
33493,-83.3333333333333,4,2,1,85,0,0
34365,-83.3333333333333,4,2,1,5,0,0
34452,-83.3333333333333,4,2,1,85,0,0
34801,-83.3333333333333,4,2,1,5,0,0
34888,-66.6666666666667,4,2,1,85,0,1
35237,-83.3333333333333,4,2,1,85,0,0
35760,-55.5555555555556,4,2,1,5,0,0
35848,-55.5555555555556,4,2,1,85,0,0
35935,-83.3333333333333,4,2,1,85,0,0
36022,-83.3333333333333,4,2,1,5,0,0
36109,-83.3333333333333,4,2,1,85,0,0
36196,-83.3333333333333,4,2,1,5,0,0
36284,-83.3333333333333,4,2,1,85,0,0
37243,-83.3333333333333,4,2,1,5,0,0
37330,-83.3333333333333,4,2,1,85,0,0
37592,-83.3333333333333,4,2,1,5,0,0
37679,-83.3333333333333,4,2,1,85,0,0
37941,-83.3333333333333,4,2,1,5,0,0
38028,-83.3333333333333,4,2,1,85,0,0
38638,-83.3333333333333,4,2,1,5,0,0
38725,-83.3333333333333,4,2,1,85,0,0
38987,-83.3333333333333,4,2,1,5,0,0
39074,-83.3333333333333,4,2,1,85,0,0
39161,-83.3333333333333,4,2,1,5,0,0
39249,-83.3333333333333,4,2,1,85,0,0
39336,-83.3333333333333,4,2,1,5,0,0
39423,-83.3333333333333,4,2,1,85,0,0
39685,-83.3333333333333,4,2,1,5,0,0
39772,-83.3333333333333,4,2,1,85,0,0
39946,-55.5555555555556,4,2,1,5,0,0
40034,-83.3333333333333,4,2,1,85,0,0
40121,-83.3333333333333,4,2,1,85,0,0
40208,-83.3333333333333,4,2,1,5,0,0
40295,-83.3333333333333,4,2,1,85,0,0
40382,-83.3333333333333,4,2,1,5,0,0
40470,-83.3333333333333,4,2,1,85,0,0
40731,-83.3333333333333,4,2,1,5,0,0
40818,-83.3333333333333,4,2,1,85,0,0
41342,-83.3333333333333,4,2,1,5,0,0
41429,-83.3333333333333,4,2,1,85,0,0
41603,-83.3333333333333,4,2,1,5,0,0
41691,-83.3333333333333,4,2,1,85,0,0
41778,-83.3333333333333,4,2,1,5,0,0
41865,-83.3333333333333,4,2,1,85,0,0
42824,-83.3333333333333,4,2,1,5,0,0
42911,-83.3333333333333,4,2,1,85,0,0
43522,-83.3333333333333,4,2,1,5,0,0
43609,-83.3333333333333,4,2,1,85,0,0
43696,-83.3333333333333,4,2,1,5,0,0
43784,-83.3333333333333,4,2,1,85,0,0
43871,-83.3333333333333,4,2,1,5,0,0
43958,-83.3333333333333,4,2,1,85,0,0
44045,-83.3333333333333,4,2,1,5,0,0
44132,-83.3333333333333,4,2,1,85,0,0
44220,-83.3333333333333,4,2,1,5,0,0
44307,-83.3333333333333,4,2,1,85,0,0
44394,-83.3333333333333,4,2,1,5,0,0
44481,-83.3333333333333,4,2,1,85,0,0
44568,-83.3333333333333,4,2,1,5,0,0
44656,-83.3333333333333,4,2,1,85,0,0
45353,-55.5555555555556,4,2,1,85,0,0
45528,-55.5555555555556,4,2,1,5,0,0
45615,-55.5555555555556,4,2,1,85,0,0
45964,-66.6666666666667,4,2,1,85,0,0
46051,-200,4,2,1,50,0,0
47708,-200,4,2,1,5,0,0
47795,-133.333333333333,4,2,1,50,0,0
48144,-133.333333333333,4,2,1,65,0,0
48667,-66.6666666666667,4,2,1,65,0,0
48842,-83.3333333333333,4,2,1,85,0,1
49103,-83.3333333333333,4,2,1,5,0,1
49191,-83.3333333333333,4,2,1,85,0,1
49278,-83.3333333333333,4,2,1,5,0,0
49365,-83.3333333333333,4,2,1,85,0,0
49627,-83.3333333333333,4,2,1,5,0,0
49714,-83.3333333333333,4,2,1,85,0,0
50150,-83.3333333333333,4,2,1,5,0,0
50237,-83.3333333333333,4,2,1,85,0,0
51109,-83.3333333333333,4,2,1,5,0,0
51196,-83.3333333333333,4,2,1,85,0,0
51371,-83.3333333333333,4,2,1,5,0,0
51458,-83.3333333333333,4,2,1,85,0,0
51894,-83.3333333333333,4,2,1,5,0,0
51981,-83.3333333333333,4,2,1,85,0,0
53987,-83.3333333333333,4,2,1,5,0,0
54074,-83.3333333333333,4,2,1,85,0,0
54510,-83.3333333333333,4,2,1,5,0,0
54598,-83.3333333333333,4,2,1,85,0,0
54685,-83.3333333333333,4,2,1,5,0,0
54772,-83.3333333333333,4,2,1,85,0,0
54859,-83.3333333333333,4,2,1,5,0,0
54946,-83.3333333333333,4,2,1,85,0,0
55034,-83.3333333333333,4,2,1,5,0,0
55121,-83.3333333333333,4,2,1,85,0,0
56691,-83.3333333333333,4,2,1,5,0,0
56778,-83.3333333333333,4,2,1,85,0,0
56952,-83.3333333333333,4,2,1,5,0,0
57039,-83.3333333333333,4,2,1,85,0,0
57127,-83.3333333333333,4,2,1,5,0,0
57214,-66.6666666666667,4,2,1,85,0,1
57563,-83.3333333333333,4,2,1,85,0,0
58086,-83.3333333333333,4,2,1,5,0,0
58173,-83.3333333333333,4,2,1,85,0,0
58522,-83.3333333333333,4,2,1,5,0,0
58609,-83.3333333333333,4,2,1,85,0,0
59568,-83.3333333333333,4,2,1,5,0,0
59656,-83.3333333333333,4,2,1,85,0,0
59743,-83.3333333333333,4,2,1,5,0,0
59830,-83.3333333333333,4,2,1,85,0,0
59917,-83.3333333333333,4,2,1,5,0,0
60005,-83.3333333333333,4,2,1,85,0,0
60266,-83.3333333333333,4,2,1,5,0,0
60353,-83.3333333333333,4,2,1,85,0,0
60789,-83.3333333333333,4,2,1,5,0,0
60877,-83.3333333333333,4,2,1,85,0,0
62272,-83.3333333333333,4,2,1,5,0,0
62359,-83.3333333333333,4,2,1,85,0,0
62534,-83.3333333333333,4,2,1,5,0,0
62621,-83.3333333333333,4,2,1,85,0,0
63057,-83.3333333333333,4,2,1,5,0,0
63144,-83.3333333333333,4,2,1,85,0,0
63231,-83.3333333333333,4,2,1,5,0,0
63318,-83.3333333333333,4,2,1,85,0,0
65150,-83.3333333333333,4,2,1,5,0,0
65237,-83.3333333333333,4,2,1,85,0,0
65848,-83.3333333333333,4,2,1,5,0,0
65935,-83.3333333333333,4,2,1,85,0,0
66022,-83.3333333333333,4,2,1,5,0,0
66109,-83.3333333333333,4,2,1,85,0,0
66196,-83.3333333333333,4,2,1,5,0,0
66284,-83.3333333333333,4,2,1,85,0,0
66371,-83.3333333333333,4,2,1,5,0,0
66458,-83.3333333333333,4,2,1,85,0,0
66545,-83.3333333333333,4,2,1,5,0,0
66632,-83.3333333333333,4,2,1,85,0,0
66720,-83.3333333333333,4,2,1,5,0,0
66807,-83.3333333333333,4,2,1,85,0,0
66894,-83.3333333333333,4,2,1,5,0,0
66981,-83.3333333333333,4,2,1,85,0,0
67679,-55.5555555555556,4,2,1,85,0,0
67853,-55.5555555555556,4,2,1,5,0,0
67941,-83.3333333333333,4,2,1,85,0,0
68115,-83.3333333333333,4,2,1,5,0,0
68202,-83.3333333333333,4,2,1,85,0,0
68289,-83.3333333333333,4,2,1,5,0,0
68377,-66.6666666666667,4,2,1,85,0,1
68725,-125,4,2,1,85,0,0
68987,-125,4,2,1,5,0,0
69074,-76.9230769230769,4,2,1,85,0,0
69249,-76.9230769230769,4,2,1,5,0,0
69336,-76.9230769230769,4,2,1,85,0,0
69510,-76.9230769230769,4,2,1,5,0,0
69598,-76.9230769230769,4,2,1,85,0,0
69685,-76.9230769230769,4,2,1,5,0,0
69772,-76.9230769230769,4,2,1,85,0,0
70470,-125,4,2,1,85,0,0
70731,-125,4,2,1,5,0,0
70818,-125,4,2,1,85,0,0
71167,-58.8235294117647,4,2,1,85,0,0
71429,-58.8235294117647,4,2,1,5,0,0
71516,-125,4,2,1,85,0,0
71778,-125,4,2,1,5,0,0
71865,-76.9230769230769,4,2,1,85,0,0
72127,-76.9230769230769,4,2,1,5,0,0
72214,-125,4,2,1,85,0,0
72475,-125,4,2,1,5,0,0
72563,-76.9230769230769,4,2,1,85,0,0
73260,-125,4,2,1,85,0,0
73435,-125,4,2,1,5,0,0
73522,-125,4,2,1,85,0,0
73609,-100,4,2,1,85,0,0
73696,-100,4,2,1,5,0,0
73784,-76.9230769230769,4,2,1,85,0,0
73871,-76.9230769230769,4,2,1,5,0,0
73958,-58.8235294117647,4,2,1,85,0,0
74220,-58.8235294117647,4,2,1,5,0,0
74307,-125,4,2,1,85,0,0
74568,-125,4,2,1,5,0,0
74656,-76.9230769230769,4,2,1,85,0,0
74830,-76.9230769230769,4,2,1,5,0,0
74917,-76.9230769230769,4,2,1,85,0,0
75092,-76.9230769230769,4,2,1,5,0,0
75179,-76.9230769230769,4,2,1,85,0,0
75266,-76.9230769230769,4,2,1,5,0,0
75353,-76.9230769230769,4,2,1,85,0,0
76051,-125,4,2,1,85,0,0
76313,-125,4,2,1,5,0,0
76400,-125,4,2,1,85,0,0
76749,-58.8235294117647,4,2,1,85,0,0
77010,-58.8235294117647,4,2,1,5,0,0
77098,-125,4,2,1,85,0,0
77359,-125,4,2,1,5,0,0
77446,-76.9230769230769,4,2,1,85,0,0
77708,-76.9230769230769,4,2,1,5,0,0
77795,-125,4,2,1,85,0,0
78057,-125,4,2,1,5,0,0
78144,-200,4,2,1,65,0,0
79539,-66.6666666666667,4,2,1,85,0,1
79888,-66.6666666666667,4,2,1,85,0,0
80237,-76.9230769230769,4,2,1,85,0,0
80673,-76.9230769230769,4,2,1,5,0,0
80760,-76.9230769230769,4,2,1,85,0,0
80848,-76.9230769230769,4,2,1,5,0,0
80935,-76.9230769230769,4,2,1,85,0,0
81632,-125,4,2,1,85,0,0
81894,-125,4,2,1,5,0,0
81981,-76.9230769230769,4,2,1,85,0,0
82243,-76.9230769230769,4,2,1,5,0,0
82330,-58.8235294117647,4,2,1,85,0,0
82592,-58.8235294117647,4,2,1,5,0,0
82679,-125,4,2,1,85,0,0
82766,-125,4,2,1,5,0,0
82853,-125,4,2,1,85,0,0
83028,-76.9230769230769,4,2,1,85,0,0
83377,-125,4,2,1,85,0,0
83638,-125,4,2,1,5,0,0
83725,-76.9230769230769,4,2,1,85,0,0
84423,-125,4,2,1,85,0,0
84598,-125,4,2,1,5,0,0
84685,-125,4,2,1,85,0,0
84772,-100,4,2,1,85,0,0
84859,-100,4,2,1,5,0,0
84946,-76.9230769230769,4,2,1,85,0,0
85034,-76.9230769230769,4,2,1,5,0,0
85121,-58.8235294117647,4,2,1,85,0,0
85382,-58.8235294117647,4,2,1,5,0,0
85470,-125,4,2,1,85,0,0
85557,-125,4,2,1,5,0,0
85644,-125,4,2,1,85,0,0
85818,-76.9230769230769,4,2,1,85,0,0
86255,-76.9230769230769,4,2,1,5,0,0
86342,-76.9230769230769,4,2,1,85,0,0
86429,-76.9230769230769,4,2,1,5,0,0
86516,-76.9230769230769,4,2,1,85,0,0
87214,-125,4,2,1,85,0,0
87475,-125,4,2,1,5,0,0
87563,-125,4,2,1,85,0,0
87911,-58.8235294117647,4,2,1,85,0,0
88173,-58.8235294117647,4,2,1,5,0,0
88260,-125,4,2,1,85,0,0
88348,-125,4,2,1,5,0,0
88435,-125,4,2,1,85,0,0
88609,-76.9230769230769,4,2,1,85,0,0
88958,-125,4,2,1,85,0,0
89220,-125,4,2,1,5,0,0
89307,-133.333333333333,4,2,1,65,0,0
90702,-200,4,2,2,30,0,0
96284,-200,4,2,3,45,0,0
101865,-200,4,2,1,5,0,0

[Colours]
Combo1 : 130,153,179
Combo2 : 0,152,225

[HitObjects]
80,68,1051,5,2,0:0:0:0:
80,68,1400,2,0,B|142:91|210:51|210:51|282:11|338:32,1,270,2|0,0:0|0:0,0:0:0:0:
412,64,2621,1,2,0:0:0:0:
412,64,2970,2,0,L|448:38,2,45,2|2|2,0:0|0:0|0:0,0:0:0:0:
388,152,3493,2,0,L|432:144,1,45,2|0,0:0|0:0,0:0:0:0:
320,200,3842,2,0,L|356:225,1,45,2|0,0:0|0:0,0:0:0:0:
196,308,4191,6,0,B|180:238|101:207|50:224|50:224|96:228|108:272,1,247.5,2|0,0:0|0:0,0:0:0:0:
113,278,5237,1,2,0:0:0:0:
198,172,5411,2,0,L|242:164,1,45,2|0,0:0|0:0,0:0:0:0:
242,164,5760,2,0,L|267:127,2,45,2|2|2,0:0|0:0|0:0,0:0:0:0:
332,264,6458,5,2,0:0:0:0:
272,316,6632,2,0,L|228:324,1,45,2|0,0:0|0:0,0:0:0:0:
496,368,6981,6,0,B|452:164|452:164|444:201,1,247.5,2|0,0:0|0:0,0:0:0:0:
430,219,8028,1,2,0:0:0:0:
511,111,8202,2,0,P|477:84|433:84,1,90,2|0,0:0|0:0,0:0:0:0:
352,88,8725,2,0,L|359:43,2,45,2|2|2,0:0|0:0|0:0,0:0:0:0:
352,88,9249,1,2,0:0:0:0:
204,32,9423,1,2,0:0:0:0:
204,32,9772,6,0,B|208:112|140:168|56:144|56:144|6:147|-38:83|36:-10|137:59|112:135|56:144|56:144|-4:160|-33:248|21:300|21:300|18:305|18:305|21:300|21:300|79:349|152:315|166:271,1,836.999974456788,2|0,0:0|0:0,0:0:0:0:
176,263,12563,6,0,B|228:203|308:251|308:251|404:311|480:223|420:135|348:175,1,405.000015449525,2|2,0:0|0:0,0:0:0:0:
244,311,13784,1,2,0:0:0:0:
244,311,14132,2,0,L|232:377,2,67.5000025749208,2|2|2,0:0|0:0|0:0,0:0:0:0:
324,351,14656,1,2,0:0:0:0:
152,379,14830,1,2,0:0:0:0:
340,347,15005,2,0,P|372:342|401:359,1,67.5000025749208,2|0,0:0|0:0,0:0:0:0:
176,263,15353,6,0,P|208:78|396:66,1,405.000015449525,2|2,0:0|0:0,0:0:0:0:
196,56,16574,2,0,L|129:44,1,67.5000025749208,2|0,0:0|0:0,0:0:0:0:
257,143,16923,2,0,L|324:132,1,67.5000025749208,2|0,0:0|0:0,0:0:0:0:
390,197,17272,2,0,P|415:176|423:143,1,67.5000025749208,2|0,0:0|0:0,0:0:0:0:
510,117,17621,2,0,P|513:84|496:56,1,67.5000025749208,2|0,0:0|0:0,0:0:0:0:
304,220,17970,6,0,L|292:286,1,67.5000025749208,2|0,0:0|0:0,0:0:0:0:
291,286,18842,2,0,P|356:294|391:349,1,135.000005149842,2|2,0:0|0:0,0:0:0:0:
220,384,19365,2,0,B|202:285|202:285|197:275|197:275|181:185,1,202.500007724762,2|2,0:0|0:0,0:0:0:0:
100,119,20063,2,0,P|60:171|82:232,1,135.000005149842,2|2,0:0|0:0,0:0:0:0:
284,188,20760,1,2,0:0:0:0:
256,192,20935,12,0,23551,0:0:0:0:
112,72,23725,6,0,L|78:66,4,33.7500012874604,6|0|0|0|0,1:2|1:0|1:0|1:0|1:0,0:0:0:0:
280,200,24074,1,2,1:2:0:0:
240,296,24249,1,2,0:0:0:0:
192,176,24423,6,0,B|313:154,1,107.999996704102,2|0,1:2|0:0,0:0:0:0:
332,88,24685,1,0,1:0:0:0:
332,88,24772,1,2,0:0:0:0:
252,0,24946,1,2,1:2:0:0:
400,216,25121,5,2,1:2:0:0:
472,140,25295,1,2,0:0:0:0:
404,56,25470,5,2,1:2:0:0:
506,234,25644,1,2,0:0:0:0:
428,332,25818,6,0,P|352:342|321:273,1,161.999995056153,2|0,1:2|0:0,0:0:0:0:
320,274,26167,1,0,1:0:0:0:
506,234,26342,1,0,1:0:0:0:
254,207,26516,6,0,L|237:100,1,107.999996704102,2|2,1:2|0:0,0:0:0:0:
156,48,26865,1,2,1:2:0:0:
336,140,27039,1,2,0:0:0:0:
148,264,27214,1,2,1:2:0:0:
236,372,27388,5,2,0:0:0:0:
256,356,27475,1,0,0:0:0:0:
256,332,27563,1,2,1:2:0:0:
152,240,27737,1,2,0:0:0:0:
32,328,27911,6,0,B|22:382,1,53.9999983520508,2|0,1:2|0:0,0:0:0:0:
52,216,28086,2,0,B|62:162,1,53.9999983520508,2|0,0:0|0:0,0:0:0:0:
0,64,28260,1,2,1:2:0:0:
152,200,28435,1,2,0:0:0:0:
352,100,28609,6,0,P|404:101|437:141,1,107.999996704102,2|0,1:2|0:0,0:0:0:0:
500,188,28871,2,0,L|509:241,1,53.9999983520508,0|2,1:0|0:0,0:0:0:0:
464,40,29132,1,0,1:0:0:0:
256,264,29307,6,0,B|214:248|209:203|209:203|190:244|143:244,1,161.999995056153,2|0,1:2|0:0,0:0:0:0:
140,164,29656,1,10,1:2:0:0:
80,312,29830,1,2,0:0:0:0:
304,344,30005,6,0,B|351:335|351:335|358:330|358:330|408:321,1,107.999996704102,0|0,1:0|0:0,0:0:0:0:
455,268,30266,1,0,1:0:0:0:
455,268,30353,2,0,P|450:241|431:222,1,53.9999983520508,10|0,0:2|0:0,0:0:0:0:
344,232,30528,1,2,1:2:0:0:
484,40,30702,5,2,1:2:0:0:
344,152,30877,2,0,P|395:139|425:95,1,107.999996704102,2|10,0:0|1:2,0:0:0:0:
348,64,31225,1,2,0:0:0:0:
480,280,31400,6,0,B|488:327|488:327|493:334|493:334|502:385,1,107.999996704102,2|0,1:2|0:0,0:0:0:0:
512,208,31749,1,10,1:2:0:0:
420,352,31923,1,0,1:0:0:0:
220,235,32098,6,0,P|143:230|118:158,1,161.999995056153,2|0,1:2|0:0,0:0:0:0:
188,96,32446,2,0,L|197:149,1,53.9999983520508,10|0,1:2|0:0,0:0:0:0:
411,116,32621,2,0,P|385:112|361:123,1,53.9999983520508,2|0,0:2|0:0,0:0:0:0:
308,64,32795,2,0,P|286:80|277:104,1,53.9999983520508,2|0,1:2|0:0,0:0:0:0:
512,368,32970,6,0,P|490:352|481:327,1,53.9999983520508,2|0,0:2|0:0,0:0:0:0:
349,229,33144,2,0,P|365:207|390:197,1,53.9999983520508,10|0,1:2|0:0,0:0:0:0:
401,331,33318,2,0,P|396:304|407:280,1,53.9999983520508,2|0,0:2|0:0,0:0:0:0:
512,160,33493,5,2,1:2:0:0:
484,244,33667,1,2,0:2:0:0:
344,92,33842,5,10,1:2:0:0:
512,0,34016,1,2,0:2:0:0:
314,162,34191,6,0,B|296:56,1,107.999996704102,2|0,1:2|0:0,0:0:0:0:
228,8,34452,1,0,1:0:0:0:
228,8,34539,1,10,0:2:0:0:
448,104,34714,2,0,L|434:156,1,53.9999983520508,0|0,1:0|0:0,0:0:0:0:
376,312,34888,6,0,L|349:292,4,33.7500012874604,2|0|0|0|0,1:2|1:2|1:2|1:2|1:2,0:0:0:0:
460,336,35237,1,10,1:2:0:0:
280,384,35412,1,2,0:0:0:0:
363,159,35586,6,0,P|399:198|452:197,1,107.999996704102,2|0,1:2|0:0,0:0:0:0:
496,127,35848,1,0,1:0:0:0:
496,127,35935,2,0,P|495:101|483:77,1,53.9999983520508,10|0,0:2|0:0,0:0:0:0:
396,68,36109,2,0,P|376:49|351:41,1,53.9999983520508,2|0,1:2|0:0,0:0:0:0:
180,112,36284,5,2,1:2:0:0:
252,200,36458,2,0,L|270:93,1,107.999996704102,2|10,0:0|1:2,0:0:0:0:
136,188,36807,1,2,0:0:0:0:
44,4,36981,6,0,B|16:48|16:48|41:154,1,161.999995056153,2|0,1:2|0:0,0:0:0:0:
41,154,37330,1,8,1:2:0:0:
176,48,37505,2,0,L|229:38,1,53.9999983520508,0|0,1:0|0:0,0:0:0:0:
128,204,37679,6,0,B|156:248|156:248|130:354,1,161.999995056153,2|0,1:2|0:0,0:0:0:0:
44,364,38028,2,0,P|58:313|106:294,1,107.999996704102,10|0,1:2|0:0,0:0:0:0:
244,120,38377,5,2,1:2:0:0:
88,64,38551,2,0,L|78:117,1,53.9999983520508,2|0,0:2|0:0,0:0:0:0:
260,124,38726,1,10,1:2:0:0:
12,152,38900,2,0,L|2:205,1,53.9999983520508,2|0,0:0|0:0,0:0:0:0:
276,128,39074,6,0,B|266:182,1,53.9999983520508,2|0,1:2|0:0,0:0:0:0:
184,56,39249,2,0,B|194:2,1,53.9999983520508,2|0,0:0|0:0,0:0:0:0:
300,268,39423,6,0,B|342:252|347:207|347:207|366:248|413:248,1,161.999995056153,10|0,1:2|0:0,0:0:0:0:
464,166,39772,6,0,P|412:165|387:119,1,107.999996704102,2|0,1:2|0:0,0:0:0:0:
400,48,40034,1,0,1:0:0:0:
400,48,40121,2,0,L|347:58,1,53.9999983520508,10|0,0:2|0:0,0:0:0:0:
280,0,40295,2,0,L|227:10,1,53.9999983520508,0|0,1:0|0:0,0:0:0:0:
41,154,40470,6,0,P|117:151|155:219,1,161.999995056153,2|0,1:2|0:0,0:0:0:0:
152,304,40819,1,10,1:2:0:0:
0,228,40993,1,2,0:0:0:0:
236,268,41168,6,0,L|254:161,1,107.999996704102,2|0,1:2|0:0,0:0:0:0:
172,100,41429,1,0,1:0:0:0:
172,100,41516,2,0,L|181:153,1,53.9999983520508,10|0,0:2|0:0,0:0:0:0:
312,80,41691,2,0,L|258:70,1,53.9999983520508,2|0,1:2|0:0,0:0:0:0:
348,196,41865,5,2,1:2:0:0:
472,156,42039,1,2,0:0:0:0:
396,128,42214,5,10,1:2:0:0:
496,236,42388,1,2,0:0:0:0:
280,376,42563,6,0,B|209:364|209:364|201:359|201:359|122:345,1,161.999995056153,2|0,1:2|0:0,0:0:0:0:
122,345,42912,1,8,1:2:0:0:
28,216,43086,1,0,1:0:0:0:
195,154,43261,6,0,B|240:137|272:174|272:174|303:212|351:195,1,161.999995056153,2|0,1:2|0:0,0:0:0:0:
420,216,43609,2,0,L|411:163,1,53.9999983520508,10|0,1:2|0:0,0:0:0:0:
384,92,43784,2,0,P|357:94|337:111,1,53.9999983520508,2|0,0:2|0:0,0:0:0:0:
268,72,43958,2,0,P|250:92|248:118,1,53.9999983520508,2|0,1:2|0:0,0:0:0:0:
320,312,44132,6,0,P|346:310|366:293,1,53.9999983520508,2|0,0:2|0:0,0:0:0:0:
432,336,44307,2,0,P|449:315|450:289,1,53.9999983520508,10|0,1:2|0:0,0:0:0:0:
512,236,44481,2,0,P|509:209|492:189,1,53.9999983520508,2|0,0:2|0:0,0:0:0:0:
248,118,44656,5,2,1:2:0:0:
112,256,44830,1,2,0:2:0:0:
339,198,45005,5,10,1:2:0:0:
96,260,45179,1,2,0:2:0:0:
324,76,45354,6,0,B|360:52|400:64|400:64|432:104|484:92,1,161.999995056153,2|0,1:2|0:0,0:0:0:0:
464,20,45615,1,0,1:0:0:0:
464,20,45702,1,8,0:2:0:0:
339,198,45877,1,0,1:0:0:0:
439,292,46051,6,0,B|381:378|291:320|291:320|286:326|286:326|291:320|291:320|253:246|158:263|158:263|156:257|156:257|158:264|158:264|116:281|103:317,1,427.5,2|0,0:0|0:0,0:0:0:0:
100,328,47795,2,0,B|89:268|89:268|91:256|91:256|80:194,2,135.000005149842,2|10|10,0:0|0:2|0:2,0:0:0:0:
192,348,48667,2,0,L|186:381,2,33.7500012874604,0|0|0,1:0|1:0|1:0,0:0:0:0:
312,192,48842,6,0,B|354:208|359:253|359:253|378:212|425:212,1,161.999995056153,6|0,1:2|0:0,0:0:0:0:
428,288,49191,2,0,P|432:314|418:336,1,53.9999983520508,10|0,1:2|0:0,0:0:0:0:
352,364,49366,1,2,0:2:0:0:
204,188,49539,6,0,P|199:214|213:236,1,53.9999983520508,2|0,1:2|0:0,0:0:0:0:
280,264,49714,1,2,0:2:0:0:
416,64,49889,2,0,B|370:47|338:84|338:84|307:122|259:106,1,161.999995056153,10|0,1:2|0:0,0:0:0:0:
188,96,50237,5,2,1:2:0:0:
152,24,50411,1,2,0:2:0:0:
400,140,50586,5,10,1:2:0:0:
360,208,50761,1,2,0:2:0:0:
124,232,50935,6,0,P|151:188|203:185,1,107.999996704102,2|0,1:2|0:0,0:0:0:0:
280,224,51196,1,0,1:0:0:0:
280,224,51284,2,0,L|290:277,1,53.9999983520508,10|0,0:2|0:0,0:0:0:0:
120,100,51458,1,0,1:0:0:0:
240,340,51633,6,0,P|315:357|367:300,1,161.999995056153,2|0,1:2|0:0,0:0:0:0:
436,264,51981,1,10,1:2:0:0:
290,277,52156,1,2,0:0:0:0:
440,356,52331,5,2,1:2:0:0:
488,168,52505,1,2,0:0:0:0:
492,148,52592,1,0,1:0:0:0:
496,128,52680,1,10,0:2:0:0:
340,200,52854,1,2,1:2:0:0:
424,248,53028,5,2,1:2:0:0:
476,40,53202,1,2,0:2:0:0:
256,76,53377,5,10,1:2:0:0:
496,128,53551,1,2,0:2:0:0:
324,216,53725,6,0,B|279:216|260:175|260:175|255:220|213:236,1,161.999995056153,2|0,1:2|0:0,0:0:0:0:
213,235,54074,1,8,1:2:0:0:
336,108,54249,1,0,1:0:0:0:
96,39,54423,6,0,P|83:63|91:88,1,53.9999983520508,2|0,1:2|0:0,0:0:0:0:
36,248,54598,2,0,P|59:260|84:252,1,53.9999983520508,2|0,0:2|0:0,0:0:0:0:
24,132,54772,2,0,P|31:157|55:170,1,53.9999983520508,10|0,1:2|0:0,0:0:0:0:
124,328,54946,2,0,P|149:320|162:296,1,53.9999983520508,2|0,0:2|0:0,0:0:0:0:
260,176,55121,6,0,B|208:166|208:166|205:162|205:162|155:153,1,107.999996704102,2|2,1:2|0:2,0:0:0:0:
268,272,55470,1,10,1:2:0:0:
216,88,55644,1,2,0:2:0:0:
484,84,55818,5,2,1:2:0:0:
324,100,55993,2,0,P|356:58|409:53,1,107.999996704102,2|10,0:2|1:2,0:0:0:0:
400,128,56342,1,2,0:2:0:0:
217,275,56517,6,0,P|165:265|138:220,1,107.999996704102,2|0,1:2|0:0,0:0:0:0:
228,144,56778,1,0,1:0:0:0:
228,144,56865,2,0,L|218:197,1,53.9999983520508,10|0,0:2|0:0,0:0:0:0:
64,256,57039,2,0,L|54:309,1,53.9999983520508,0|0,1:0|0:0,0:0:0:0:
48,64,57214,6,0,L|28:36,4,33.7500012874604,2|0|0|0|2,1:2|1:2|1:2|1:2|1:2,0:0:0:0:
228,144,57563,1,10,1:2:0:0:
68,252,57737,1,2,0:0:0:0:
224,64,57911,6,0,P|275:74|302:119,1,107.999996704102,2|0,1:2|0:0,0:0:0:0:
376,104,58173,1,0,1:0:0:0:
376,104,58260,1,10,0:2:0:0:
228,144,58435,2,0,P|232:170|251:188,1,53.9999983520508,2|0,1:2|0:0,0:0:0:0:
456,216,58609,6,0,P|406:232|388:281,1,107.999996704102,2|2,1:2|0:2,0:0:0:0:
416,384,58959,1,10,1:2:0:0:
280,264,59133,1,2,0:2:0:0:
96,380,59307,6,0,B|82:301|82:301|76:294|76:294|64:222,1,161.999995056153,2|0,1:2|0:0,0:0:0:0:
116,164,59656,2,0,L|169:173,1,53.9999983520508,10|0,1:2|0:0,0:0:0:0:
196,244,59830,2,0,L|161:285,1,53.9999983520508,0|0,1:0|0:0,0:0:0:0:
0,64,60005,6,0,B|42:80|47:125|47:125|66:84|111:84,1,161.999995056153,2|0,1:2|0:0,0:0:0:0:
184,80,60353,1,10,1:2:0:0:
68,8,60528,1,2,0:2:0:0:
280,72,60702,6,0,L|270:125,1,53.9999983520508,2|0,1:2|0:0,0:0:0:0:
92,232,60877,1,2,0:2:0:0:
184,80,61051,1,10,1:2:0:0:
216,252,61225,1,2,0:2:0:0:
169,167,61400,5,2,1:2:0:0:
405,265,61574,1,2,0:2:0:0:
276,312,61749,5,10,1:2:0:0:
416,64,61923,1,2,0:2:0:0:
512,284,62098,6,0,B|405:265,1,107.999996704102,2|0,1:2|0:0,0:0:0:0:
408,344,62359,1,0,1:0:0:0:
408,344,62446,2,0,L|461:353,1,53.9999983520508,10|0,0:2|0:0,0:0:0:0:
408,184,62621,1,0,1:0:0:0:
148,336,62795,6,0,B|100:320|74:355|74:355|44:396|-8:377,1,161.999995056153,2|0,1:2|0:0,0:0:0:0:
16,304,63144,2,0,P|21:277|39:258,1,53.9999983520508,10|0,1:2|0:0,0:0:0:0:
232,352,63318,1,2,0:2:0:0:
128,120,63493,5,2,1:2:0:0:
188,252,63667,1,2,0:2:0:0:
196,268,63755,1,0,1:0:0:0:
204,284,63842,1,10,0:2:0:0:
20,184,64016,1,2,1:2:0:0:
284,80,64191,5,2,1:2:0:0:
228,180,64365,2,0,L|246:73,1,107.999996704102,2|10,0:2|1:2,0:0:0:0:
156,0,64714,1,2,0:2:0:0:
323,203,64888,6,0,P|398:190|405:115,1,161.999995056153,2|0,1:2|0:0,0:0:0:0:
405,115,65237,1,8,1:2:0:0:
284,280,65412,1,0,1:0:0:0:
76,144,65586,6,0,B|84:112|108:106|108:106|0:126,1,161.999995056153,2|0,1:2|0:0,0:0:0:0:
0,196,65935,2,0,B|10:249,1,53.9999983520508,10|0,1:2|0:0,0:0:0:0:
92,320,66109,2,0,B|101:266,1,53.9999983520508,2|0,0:2|0:0,0:0:0:0:
212,180,66284,2,0,L|202:233,1,53.9999983520508,2|0,1:2|0:0,0:0:0:0:
324,376,66458,6,0,L|314:322,1,53.9999983520508,2|0,0:2|0:0,0:0:0:0:
420,252,66632,2,0,L|410:305,1,53.9999983520508,10|0,1:2|0:0,0:0:0:0:
512,384,66807,2,0,L|502:330,1,53.9999983520508,2|0,0:2|0:0,0:0:0:0:
432,160,66981,5,2,1:2:0:0:
201,233,67156,1,2,0:2:0:0:
288,68,67330,1,10,1:2:0:0:
460,152,67505,1,2,0:2:0:0:
208,340,67680,6,0,B|160:312|160:312|57:337,1,161.999995056153,2|0,1:2|0:0,0:0:0:0:
7,283,67941,1,0,1:0:0:0:
7,283,68028,2,0,L|17:230,1,53.9999983520508,8|0,0:2|0:0,0:0:0:0:
152,260,68202,2,0,L|162:313,1,53.9999983520508,0|0,1:0|0:0,0:0:0:0:
36,88,68377,6,0,L|2:83,4,33.7500012874604,6|0|0|0|0,1:2|1:2|1:2|1:2|1:2,0:0:0:0:
245,124,68725,2,0,P|297:122|331:81,1,108,10|0,1:2|0:0,0:0:0:0:
152,92,69074,6,0,B|142:151|142:151|137:154|137:154|129:204,1,116.999994644165,2|0,1:2|0:0,0:0:0:0:
184,292,69336,1,0,1:0:0:0:
184,292,69423,2,0,L|195:234,1,58.4999973220826,10|0,0:2|0:0,0:0:0:0:
61,164,69598,2,0,L|51:221,1,58.4999973220826,0|0,1:0|0:0,0:0:0:0:
256,320,69772,5,2,1:2:0:0:
52,384,69946,1,2,0:2:0:0:
384,364,70121,5,10,1:2:0:0:
304,256,70295,1,2,0:2:0:0:
440,296,70470,6,0,P|482:264|481:212,1,108,2|0,1:2|0:0,0:0:0:0:
441,143,70818,1,8,1:2:0:0:
512,348,70993,1,0,1:0:0:0:
312,188,71167,6,0,B|264:220|268:289|268:289|249:223|185:210,1,229.500004377365,2|0,1:2|0:0,0:0:0:0:
184,292,71516,2,0,L|78:273,1,108,10|0,1:2|0:0,0:0:0:0:
0,176,71865,6,0,B|47:176|65:128|65:128|71:180|113:196,1,175.499991966248,2|0,1:2|0:0,0:0:0:0:
144,116,72214,2,0,L|251:97,1,108,10|0,1:2|0:0,0:0:0:0:
328,84,72563,5,2,1:2:0:0:
216,24,72737,1,2,0:2:0:0:
312,192,72911,5,10,1:2:0:0:
512,0,73086,1,2,0:2:0:0:
232,196,73260,6,0,P|203:215|190:248,1,72,2|0,1:2|0:0,0:0:0:0:
228,320,73522,1,0,1:0:0:0:
228,320,73609,2,0,L|273:328,1,45,8|0,0:2|0:0,0:0:0:0:
344,312,73784,2,0,L|402:301,1,58.4999973220826,0|0,1:0|0:0,0:0:0:0:
512,107,73958,6,0,B|455:81|408:139|408:139|368:191|290:167,1,229.500004377365,2|0,1:2|0:0,0:0:0:0:
232,196,74307,2,0,P|237:143|275:106,1,108,10|0,1:2|0:0,0:0:0:0:
436,156,74656,6,0,B|472:200|472:200|456:257,1,116.999994644165,2|0,1:2|0:0,0:0:0:0:
372,352,74917,1,0,1:0:0:0:
372,352,75005,2,0,B|360:324|360:324|371:297,1,58.4999973220826,10|0,0:2|0:0,0:0:0:0:
512,328,75179,2,0,B|522:354|522:354|511:382,1,58.4999973220826,0|0,1:0|0:0,0:0:0:0:
276,352,75353,5,2,1:2:0:0:
468,200,75528,1,2,0:2:0:0:
264,364,75702,5,10,1:2:0:0:
208,236,75877,1,2,0:2:0:0:
108,348,76051,6,0,L|2:329,1,108,2|0,1:2|0:0,0:0:0:0:
20,256,76400,1,8,1:2:0:0:
200,360,76574,1,0,1:0:0:0:
250,165,76749,6,0,B|297:121|370:131|370:131|400:184|464:176,1,229.500004377365,2|0,1:2|0:0,0:0:0:0:
444,100,77098,2,0,P|419:53|368:42,1,108,10|0,1:2|0:0,0:0:0:0:
348,224,77446,6,0,B|374:365|374:365|392:340,1,175.499991966248,2|0,1:2|0:0,0:0:0:0:
296,376,77795,2,0,L|190:357,1,108,10|0,1:2|0:0,0:0:0:0:
40,324,78144,5,2,0:0:0:0:
109,284,78318,1,2,0:0:0:0:
69,215,78492,1,2,0:0:0:0:
2,255,78667,1,2,0:0:0:0:
40,336,78842,5,2,0:0:0:0:
40,352,79191,1,2,0:0:0:0:
192,128,79540,6,0,L|187:94,4,33.7500012874604,6|0|0|0|0,1:2|1:2|1:2|1:2|1:2,0:0:0:0:
336,256,79888,1,10,1:2:0:0:
432,84,80063,1,0,0:0:0:0:
500,112,80150,1,0,0:0:0:0:
512,184,80237,6,0,P|497:239|445:264,1,116.999994644165,2|0,1:2|0:0,0:0:0:0:
336,256,80499,1,0,1:0:0:0:
336,256,80586,2,0,L|325:198,1,58.4999973220826,10|0,0:2|0:0,0:0:0:0:
504,324,80761,2,0,L|494:381,1,58.4999973220826,0|0,1:0|0:0,0:0:0:0:
324,344,80935,5,2,1:2:0:0:
420,168,81109,1,2,0:2:0:0:
176,224,81284,5,10,1:2:0:0:
264,280,81458,1,2,0:2:0:0:
84,376,81633,6,0,P|116:334|168:335,1,108,2|0,1:2|0:0,0:0:0:0:
228,384,81981,1,8,1:2:0:0:
0,324,82156,2,0,L|11:266,1,58.4999973220826,0|0,1:0|0:0,0:0:0:0:
136,120,82330,6,0,B|195:98|240:147|240:147|284:201|357:179,1,229.500004377365,2|0,1:2|0:0,0:0:0:0:
344,104,82679,2,0,L|308:110,1,36,10|0,1:2|0:0,0:0:0:0:
164,196,82853,1,0,0:0:0:0:
144,204,82941,1,0,0:0:0:0:
124,212,83028,6,0,B|9:189,1,116.999994644165,2|0,1:2|0:0,0:0:0:0:
176,328,83377,2,0,P|224:305|242:255,1,108,10|0,1:2|0:0,0:0:0:0:
180,24,83726,5,2,1:2:0:0:
260,81,83900,1,2,0:2:0:0:
473,88,84074,5,10,1:2:0:0:
156,212,84249,1,2,0:2:0:0:
333,27,84423,6,0,P|357:2|392:-3,1,72,2|0,1:2|0:0,0:0:0:0:
480,44,84685,1,0,1:0:0:0:
480,44,84772,2,0,L|472:89,1,45,8|0,0:2|0:0,0:0:0:0:
364,184,84947,2,0,L|375:126,1,58.4999973220826,0|0,1:0|0:0,0:0:0:0:
508,238,85121,6,0,B|427:221|367:293|367:293|419:292|440:341,1,229.500004377365,2|0,1:2|0:0,0:0:0:0:
304,332,85470,2,0,L|310:367,1,36,10|0,1:2|0:0,0:0:0:0:
200,132,85644,1,0,0:0:0:0:
192,60,85731,1,0,0:0:0:0:
254,18,85819,6,0,P|311:16|352:56,1,116.999994644165,2|0,1:2|0:0,0:0:0:0:
376,128,86080,1,0,1:0:0:0:
376,128,86168,2,0,P|380:155|365:180,1,58.4999973220826,10|0,0:2|0:0,0:0:0:0:
317,262,86342,2,0,L|259:251,1,58.4999973220826,0|0,1:0|0:0,0:0:0:0:
0,232,86516,5,2,1:2:0:0:
136,384,86691,1,2,0:2:0:0:
178,193,86865,5,10,1:2:0:0:
104,272,87040,1,2,0:2:0:0:
0,124,87214,6,0,P|36:84|88:76,1,108,2|0,1:2|0:0,0:0:0:0:
150,31,87563,1,8,1:2:0:0:
76,164,87737,1,0,1:0:0:0:
396,92,87911,6,0,B|229:47|229:47|268:57|302:133,1,229.500004377365,2|0,1:2|0:0,0:0:0:0:
208,120,88261,2,0,B|215:156,1,36,10|0,1:2|0:0,0:0:0:0:
484,200,88435,1,0,0:0:0:0:
468,196,88522,1,0,0:0:0:0:
456,193,88609,6,0,P|408:224|398:281,1,116.999994644165,2|0,1:2|0:0,0:0:0:0:
496,380,88958,2,0,B|487:333|487:333|490:329|490:329|481:275,1,108,10|0,1:2|0:0,0:0:0:0:
320,288,89307,5,2,0:0:0:0:
251,248,89481,1,2,0:0:0:0:
291,179,89655,1,2,0:0:0:0:
224,136,89830,1,2,0:0:0:0:
320,300,90005,5,2,0:0:0:0:
320,316,90354,1,2,0:0:0:0:
240,356,90702,6,0,B|196:348,2,45,4|0|0,0:0|0:0|0:0,0:0:0:0:
116,328,91225,1,2,0:0:0:0:
56,264,91400,2,0,P|80:228|123:231,1,90,0|2,0:0|0:0,0:0:0:0:
444,296,92098,6,0,L|452:251,2,45,0|2|0,0:0|0:0|0:0,0:0:0:0:
376,344,92621,1,2,0:0:0:0:
456,384,92795,1,0,0:0:0:0:
364,256,93144,5,2,0:0:0:0:
0,132,93493,5,0,0:0:0:0:
20,24,93667,1,2,0:0:0:0:
24,0,94016,5,2,0:0:0:0:
89,64,94191,2,0,P|132:61|163:29,1,90,0|2,0:0|0:0,0:0:0:0:
482,69,94888,5,0,0:0:0:0:
420,112,95063,2,0,L|376:104,1,45,2|0,0:0|0:0,0:0:0:0:
512,148,95411,5,2,0:0:0:0:
448,192,95586,2,0,L|360:176,1,90,2|0,0:0|0:0,0:0:0:0:
72,296,96284,6,0,L|65:340,3,45,0|0|0|2,0:0|0:0|0:0|0:0,0:0:0:0:
160,272,96981,2,0,P|161:228|129:197,1,90,0|2,0:0|0:0,0:0:0:0:
84,36,97679,6,0,L|129:28,3,45,0|2|0|2,0:0|0:0|0:0|0:0,0:0:0:0:
24,104,98377,2,0,L|113:119,1,90,0|2,0:0|0:0,0:0:0:0:
188,136,98900,2,0,P|210:131|224:114,1,45
256,192,99161,12,0,101865,0:0:0:0:
