osu file format v14

[General]
AudioFilename: audio.mp3
AudioLeadIn: 0
PreviewTime: 68377
Countdown: 0
SampleSet: Soft
StackLeniency: 0.4
Mode: 0
LetterboxInBreaks: 0
WidescreenStoryboard: 1

[Editor]
DistanceSpacing: 1.2
BeatDivisor: 4
GridSize: 4
TimelineZoom: 1.4

[Metadata]
Title:Scream
TitleUnicode:叫び
Artist:Takayan
ArtistUnicode:たかやん
Creator:Jiysea
Version:Hard
Source:
Tags:japanese pop jpop j-pop sakebi hiphop hip hop 人生がクソすぎて死にたい To you who want to die because life is trash Jinsei ga kuso sugite shinitai bad example Nugodesuga Mujina Airiesu AyameMyMommy Pile
BeatmapID:2849611
BeatmapSetID:1370987

[Difficulty]
HPDrainRate:4
CircleSize:3.5
OverallDifficulty:6
ApproachRate:7.5
SliderMultiplier:1.55
SliderTickRate:1

[Events]
//Background and Video events
0,0,"girl falling with tears.jpg",0,0
//Break Periods
2,46251,47319
//Storyboard Layer 0 (Background)
//Storyboard Layer 1 (Fail)
//Storyboard Layer 2 (Pass)
//Storyboard Layer 3 (Foreground)
//Storyboard Layer 4 (Overlay)
//Storyboard Sound Samples

[TimingPoints]
5,348.837209302326,4,2,10,30,1,0
1051,-100,4,2,10,30,0,0
1400,-133.333333333333,4,2,10,30,0,0
12563,-111.111111111111,4,2,11,50,0,0
22330,-111.111111111111,4,2,11,75,0,0
23028,-111.111111111111,4,2,11,5,0,0
23725,-95.2380952380952,4,2,1,85,0,0
46051,-133.333333333333,4,2,1,30,0,0
48144,-95.2380952380952,4,2,1,65,0,0
48842,-95.2380952380952,4,2,1,85,0,0
78144,-95.2380952380952,4,2,1,65,0,0
79539,-95.2380952380952,4,2,1,85,0,0
89307,-95.2380952380952,4,2,1,65,0,0
90702,-95.2380952380952,4,2,2,50,0,0

[Colours]
Combo1 : 164,171,112
Combo2 : 186,213,0

[HitObjects]
104,60,1051,5,2,0:0:0:0:
104,60,1400,2,0,B|196:96|212:196|166:271|166:271|192:212|156:156,1,348.750013303757,2|0,0:0|0:0,0:0:0:0:
96,224,2621,5,2,0:0:0:0:
96,224,2970,2,0,L|38:213,2,58.1250022172929,2|2|2,0:0|0:0|0:0,0:0:0:0:
104,304,3493,2,0,P|144:343|200:342,1,116.250004434586,2|2,0:0|0:0,0:0:0:0:
244,208,4191,6,0,B|517:160|517:160|446:155,1,348.750013303757,2|2,0:0|0:0,0:0:0:0:
384,104,5411,1,2,0:0:0:0:
384,104,5760,2,0,L|327:93,1,58.1250022172929,2|2,0:0|0:0,0:0:0:0:
252,84,6109,1,2,0:0:0:0:
252,84,6458,2,0,L|194:94,1,58.1250022172929,2|2,0:0|0:0,0:0:0:0:
88,52,6981,6,0,P|5:181|146:241,1,348.750013303757,2|2,0:0|0:0,0:0:0:0:
216,288,8202,1,2,0:0:0:0:
216,288,8725,2,0,L|273:277,1,58.1250022172929,2|2,0:0|0:0,0:0:0:0:
340,320,9074,2,0,L|329:377,2,58.1250022172929,2|2|2,0:0|0:0|0:0,0:0:0:0:
452,292,9772,6,0,B|492:232|464:156|408:136|408:136|348:100|360:8|488:-24|532:88|480:160|408:136|408:136|344:208|212:200|188:148|188:148|228:168|264:156,1,813.7500310421,2|0,0:0|0:0,0:0:0:0:
252,20,12563,6,0,P|64:60|88:252,1,418.499987228394,2|2,0:0|0:0,0:0:0:0:
148,300,13784,2,0,L|216:287,1,69.749997871399,2|0,0:0|0:0,0:0:0:0:
276,232,14132,2,0,L|288:163,2,69.749997871399,2|2|2,0:0|0:0|0:0,0:0:0:0:
336,288,14656,2,0,P|369:292|394:316,1,69.749997871399,2|2,0:0|0:0,0:0:0:0:
460,360,15005,1,2,0:0:0:0:
511,232,15353,6,0,P|464:104|324:92,1,278.999991485596,2|0,0:0|0:0,0:0:0:0:
336,86,16400,1,2,0:0:0:0:
336,86,16574,2,0,P|311:110|277:114,1,69.749997871399,2|0,0:0|0:0,0:0:0:0:
276,200,16923,2,0,P|241:199|214:178,1,69.749997871399,2|0,0:0|0:0,0:0:0:0:
132,172,17272,6,0,L|119:103,1,69.749997871399,2|0,0:0|0:0,0:0:0:0:
40,68,17621,2,0,L|52:0,1,69.749997871399,2|0,0:0|0:0,0:0:0:0:
36,160,17970,2,0,B|65:325|65:325|74:285,1,209.249993614197,2|0,0:0|0:0,0:0:0:0:
74,285,18842,6,0,L|142:297,1,69.749997871399,2|0,0:0|0:0,0:0:0:0:
220,312,19191,1,2,0:0:0:0:
220,312,19365,2,0,L|426:275,1,209.249993614197,2|2,0:0|0:0,0:0:0:0:
400,200,20063,2,0,P|346:158|348:91,1,139.499995742798,2|2,0:0|0:0,0:0:0:0:
476,36,20760,1,2,0:0:0:0:
256,192,20935,12,0,23028,0:0:0:0:
28,352,23725,6,0,B|98:339|98:339|106:334|106:334|186:319,1,162.749995033264,6|2,1:2|1:2,0:0:0:0:
288,308,24249,1,2,0:0:0:0:
288,308,24423,2,0,P|274:270|240:251,1,81.3749975166322,2|0,1:2|0:0,0:0:0:0:
192,236,24685,2,0,L|184:195,1,40.6874987583161,0|2,1:0|0:0,0:0:0:0:
172,100,24946,1,2,1:2:0:0:
76,128,25121,6,0,P|36:133|8:161,2,81.3749975166322,2|2|2,1:2|0:0|1:2,0:0:0:0:
100,32,25644,1,2,0:0:0:0:
100,32,25818,2,0,B|174:45|174:45|182:50|182:50|258:64,1,162.749995033264,2|0,1:2|1:0,0:0:0:0:
356,80,26342,1,0,1:0:0:0:
439,31,26516,6,0,P|492:90|479:167,1,162.749995033264,2|2,1:2|1:2,0:0:0:0:
388,200,27039,1,2,0:0:0:0:
388,200,27214,2,0,L|307:185,2,81.3749975166322,2|2|2,1:2|0:0|1:2,0:0:0:0:
460,276,27737,1,2,0:0:0:0:
460,276,27911,6,0,P|446:313|412:332,1,81.3749975166322,2|2,1:2|0:0,0:0:0:0:
320,304,28260,2,0,L|239:318,1,81.3749975166322,2|2,1:2|0:0,0:0:0:0:
156,372,28609,2,0,L|75:358,1,81.3749975166322,2|0,1:2|0:0,0:0:0:0:
40,324,28871,2,0,L|0:331,1,40.6874987583161,0|2,1:0|0:0,0:0:0:0:
8,236,29132,1,0,1:0:0:0:
84,176,29307,6,0,B|150:164|150:164|169:156|169:156|243:143,1,162.749995033264,2|10,1:2|1:2,0:0:0:0:
200,56,29830,1,2,0:0:0:0:
200,56,30005,2,0,L|119:41,1,81.3749975166322,0|0,1:0|0:0,0:0:0:0:
72,48,30266,2,0,L|64:88,1,40.6874987583161,0|10,1:0|0:2,0:0:0:0:
48,184,30528,1,2,1:2:0:0:
108,260,30702,6,0,L|188:245,2,81.3749975166322,2|2|10,1:2|0:0|1:2,0:0:0:0:
168,336,31225,1,2,0:0:0:0:
168,336,31400,2,0,P|247:329|306:382,1,162.749995033264,2|10,1:2|1:2,0:0:0:0:
384,332,31923,1,0,1:0:0:0:
484,376,32098,6,0,L|512:215,1,162.749995033264,2|10,1:2|1:2,0:0:0:0:
452,148,32621,1,2,0:2:0:0:
452,148,32795,2,0,P|412:149|384:178,2,81.3749975166322,2|2|10,1:2|0:2|1:2,0:0:0:0:
508,68,33318,1,2,0:2:0:0:
508,68,33493,6,0,L|427:53,1,81.3749975166322,2|2,1:2|0:2,0:0:0:0:
332,80,33842,2,0,L|251:94,1,81.3749975166322,10|2,1:2|0:2,0:0:0:0:
156,72,34191,2,0,P|119:58|100:24,1,81.3749975166322,2|0,1:2|0:0,0:0:0:0:
56,44,34452,2,0,L|48:84,1,40.6874987583161,0|10,1:0|0:2,0:0:0:0:
32,180,34714,1,0,1:0:0:0:
116,232,34888,6,0,B|163:203|163:203|278:231,1,162.749995033264,2|10,1:2|1:2,0:0:0:0:
360,256,35411,1,2,0:0:0:0:
448,216,35586,2,0,P|497:184|498:125,1,122.062496274948,2|0,1:2|1:0,0:0:0:0:
480,80,35935,1,10,0:2:0:0:
400,24,36109,1,2,1:2:0:0:
324,88,36284,6,0,L|338:168,2,81.3749975166322,2|2|10,1:2|0:0|1:2,0:0:0:0:
240,132,36807,1,2,0:0:0:0:
240,132,36981,2,0,P|161:139|102:86,1,162.749995033264,2|8,1:2|1:2,0:0:0:0:
16,20,37505,1,0,1:0:0:0:
16,128,37679,6,0,B|27:194|27:194|47:215|47:215|59:280,1,162.749995033264,2|10,1:2|1:2,0:0:0:0:
188,380,38377,2,0,P|209:347|248:337,1,81.3749975166322,2|2,1:2|0:0,0:0:0:0:
325,276,38725,2,0,P|346:310|385:320,1,81.3749975166322,10|2,1:2|0:0,0:0:0:0:
480,300,39074,1,2,1:2:0:0:
440,212,39249,1,2,0:0:0:0:
484,124,39423,1,10,1:2:0:0:
368,0,39772,2,0,P|309:-4|266:37,1,122.062496274948,2|0,1:2|1:0,0:0:0:0:
257,84,40121,1,10,0:2:0:0:
160,108,40295,1,0,1:0:0:0:
160,108,40470,6,0,B|81:94|81:94|74:88|74:88|1:75,1,162.749995033264,2|10,1:2|1:2,0:0:0:0:
28,172,40993,1,2,0:0:0:0:
120,208,41167,2,0,L|240:186,1,122.062496274948,2|0,1:2|1:0,0:0:0:0:
288,180,41516,1,10,0:2:0:0:
228,280,41691,1,2,1:2:0:0:
116,304,41865,6,0,P|76:296|47:268,2,81.3749975166322,2|2|10,1:2|0:0|1:2,0:0:0:0:
192,376,42388,1,2,0:0:0:0:
192,376,42563,2,0,B|266:362|266:362|277:356|277:356|350:343,1,162.749995033264,2|8,1:2|1:2,0:0:0:0:
448,320,43086,1,0,1:0:0:0:
495,235,43260,6,0,P|451:170|373:158,1,162.749995033264,2|10,1:2|1:2,0:0:0:0:
280,188,43784,1,2,0:2:0:0:
236,276,43958,2,0,L|155:261,1,81.3749975166322,2|2,1:2|0:2,0:0:0:0:
84,196,44307,2,0,L|3:210,1,81.3749975166322,10|2,1:2|0:2,0:0:0:0:
36,108,44656,5,2,1:2:0:0:
88,24,44830,1,2,0:2:0:0:
164,84,45005,1,10,1:2:0:0:
216,0,45179,1,2,0:2:0:0:
296,56,45353,2,0,B|351:46|351:46|358:40|358:40|414:31,1,122.062496274948,2|0,1:2|1:0,0:0:0:0:
444,68,45702,2,0,P|476:90|486:129,1,81.3749975166322,8|0,0:2|1:0,0:0:0:0:
444,200,46051,5,2,0:0:0:0:
76,316,48144,5,10,0:2:0:0:
76,316,48493,1,10,0:2:0:0:
76,316,48842,6,0,P|141:272|218:291,1,162.749995033264,6|10,1:2|1:2,0:0:0:0:
300,344,49365,1,2,0:2:0:0:
388,300,49539,2,0,L|403:219,1,81.3749975166322,2|2,1:2|0:2,0:0:0:0:
492,184,49888,1,10,1:2:0:0:
352,52,50236,6,0,P|315:35|278:46,1,81.3749975166322,2|2,1:2|0:2,0:0:0:0:
204,112,50585,2,0,L|123:98,1,81.3749975166322,10|2,1:2|0:2,0:0:0:0:
36,136,50934,2,0,L|22:217,1,81.3749975166322,2|0,1:2|0:0,0:0:0:0:
48,256,51196,2,0,L|55:296,1,40.6874987583161,0|10,1:0|0:2,0:0:0:0:
104,380,51457,1,0,1:0:0:0:
180,320,51632,6,0,B|216:296|216:296|333:318,1,162.749995033264,2|10,1:2|1:2,0:0:0:0:
432,304,52155,1,2,0:0:0:0:
432,304,52330,2,0,P|462:279|469:240,1,81.3749975166322,2|2,1:2|0:0,0:0:0:0:
456,192,52591,2,0,L|416:184,1,40.6874987583161,0|10,1:0|0:2,0:0:0:0:
320,164,52853,1,2,1:2:0:0:
260,88,53028,6,0,L|340:73,2,81.3749975166322,2|2|10,1:2|0:2|1:2,0:0:0:0:
180,44,53550,1,2,0:2:0:0:
180,44,53725,2,0,P|127:103|134:181,1,162.749995033264,2|8,1:2|1:2,0:0:0:0:
192,260,54248,1,0,1:0:0:0:
288,268,54423,6,0,L|368:253,2,81.3749975166322,2|2|10,1:2|0:2|1:2,0:0:0:0:
252,184,54946,1,2,0:2:0:0:
252,184,55121,2,0,L|266:103,2,81.3749975166322,2|2|10,1:2|0:2|1:2,0:0:0:0:
196,264,55643,1,2,0:2:0:0:
196,264,55818,6,0,L|115:249,1,81.3749975166322,2|2,1:2|0:2,0:0:0:0:
64,332,56167,2,0,L|145:346,1,81.3749975166322,10|2,1:2|0:2,0:0:0:0:
240,360,56516,2,0,P|277:346|296:312,1,81.3749975166322,2|0,1:2|0:0,0:0:0:0:
308,264,56777,2,0,L|316:223,1,40.6874987583161,0|10,1:0|0:2,0:0:0:0:
332,128,57039,1,0,1:0:0:0:
404,60,57214,6,0,B|333:47|333:47|318:40|318:40|244:27,1,162.749995033264,2|10,1:2|1:2,0:0:0:0:
148,8,57737,1,2,0:0:0:0:
100,92,57912,2,0,P|40:91|0:134,1,122.062496274948,2|0,1:2|1:0,0:0:0:0:
16,180,58261,1,10,0:2:0:0:
108,216,58435,1,2,1:2:0:0:
36,284,58610,6,0,L|50:364,2,81.3749975166322,2|2|10,1:2|0:2|1:2,0:0:0:0:
136,316,59133,1,2,0:2:0:0:
136,316,59307,2,0,P|215:323|274:270,1,162.749995033264,2|10,1:2|1:2,0:0:0:0:
312,180,59831,1,0,1:0:0:0:
392,232,60005,6,0,B|413:354|413:354|445:376,1,162.749995033264,2|10,1:2|1:2,0:0:0:0:
504,296,60528,1,2,0:2:0:0:
504,296,60702,2,0,L|489:215,1,81.3749975166322,2|2,1:2|0:0,0:0:0:0:
472,124,61051,2,0,L|457:43,1,81.3749975166322,10|2,1:2|0:0,0:0:0:0:
360,64,61400,6,0,L|280:49,2,81.3749975166322,2|2|10,1:2|0:2|1:2,0:0:0:0:
292,144,61923,1,2,0:2:0:0:
292,144,62098,2,0,P|233:148|190:107,1,122.062496274948,2|0,1:2|1:0,0:0:0:0:
172,60,62447,1,10,0:2:0:0:
96,124,62621,1,0,1:0:0:0:
28,196,62796,6,0,B|102:209|102:209|106:213|106:213|185:227,1,162.749995033264,2|10,1:2|1:2,0:0:0:0:
284,244,63319,1,2,0:2:0:0:
248,336,63493,2,0,L|368:314,1,122.062496274948,2|0,1:2|1:0,0:0:0:0:
416,304,63842,1,10,0:2:0:0:
508,336,64017,1,2,1:2:0:0:
492,232,64191,6,0,P|458:209|417:208,2,81.3749975166322,2|2|10,1:2|0:2|1:2,0:0:0:0:
484,116,64714,1,2,0:2:0:0:
484,116,64889,2,0,B|323:87,1,162.749995033264,2|8,1:2|1:2,0:0:0:0:
228,72,65412,1,0,1:0:0:0:
136,100,65586,6,0,P|214:111|258:176,1,162.749995033264,2|10,1:2|1:2,0:0:0:0:
260,276,66110,1,2,0:2:0:0:
164,280,66284,2,0,L|149:199,1,81.3749975166322,2|2,1:2|0:2,0:0:0:0:
52,220,66633,2,0,L|66:301,1,81.3749975166322,10|2,1:2|0:2,0:0:0:0:
132,372,66982,5,2,1:2:0:0:
228,364,67156,1,2,0:2:0:0:
324,356,67331,1,10,1:2:0:0:
420,348,67505,1,2,0:2:0:0:
512,340,67679,2,0,P|490:284|435:262,1,122.062496274948,2|0,1:2|1:0,0:0:0:0:
392,240,68028,2,0,L|406:159,1,81.3749975166322,8|0,0:2|1:0,0:0:0:0:
454,61,68377,6,0,P|400:118|321:118,1,162.749995033264,6|10,1:2|1:2,0:0:0:0:
156,16,69074,2,0,L|236:1,1,81.3749975166322,2|0,1:2|0:0,0:0:0:0:
288,20,69336,1,0,1:0:0:0:
288,20,69423,2,0,L|368:34,1,81.3749975166322,10|0,0:2|1:0,0:0:0:0:
404,124,69772,6,0,P|440:108|460:73,2,81.3749975166322,2|2|10,1:2|0:2|1:2,0:0:0:0:
312,116,70295,1,2,0:2:0:0:
312,116,70470,2,0,B|324:186|324:186|331:205|331:205|344:275,1,162.749995033264,2|8,1:2|1:2,0:0:0:0:
360,372,70993,1,0,1:0:0:0:
272,348,71167,6,0,B|223:359|194:327|194:327|162:293|114:305,1,162.749995033264,2|10,1:2|1:2,0:0:0:0:
27,132,71865,2,0,P|1:162|2:201,1,81.3749975166322,2|0,1:2|0:0,0:0:0:0:
44,292,72214,2,0,P|74:318|113:317,1,81.3749975166322,10|0,1:2|0:0,0:0:0:0:
192,240,72563,5,2,1:2:0:0:
192,240,72737,1,2,0:2:0:0:
272,308,72911,1,10,1:2:0:0:
272,308,73085,1,2,0:2:0:0:
348,240,73260,2,0,L|428:225,1,81.3749975166322,2|0,1:2|0:0,0:0:0:0:
456,192,73522,2,0,P|464:174|466:154,1,40.6874987583161,0|8,1:0|0:2,0:0:0:0:
396,84,73784,1,0,1:0:0:0:
324,160,73958,6,0,B|288:136|244:148|244:148|216:188|172:180,1,162.749995033264,2|10,1:2|1:2,0:0:0:0:
96,4,74656,2,0,P|127:28|137:67,1,81.3749975166322,2|0,1:2|0:0,0:0:0:0:
108,108,74917,1,0,1:0:0:0:
108,108,75005,2,0,L|27:93,1,81.3749975166322,10|0,0:2|1:0,0:0:0:0:
52,188,75353,6,0,L|66:268,2,81.3749975166322,2|2|10,1:2|0:2|1:2,0:0:0:0:
152,220,75877,1,2,0:2:0:0:
152,220,76051,2,0,B|273:241|273:241|307:221,1,162.749995033264,2|8,1:2|1:2,0:0:0:0:
352,124,76574,1,0,1:0:0:0:
252,152,76749,6,0,B|224:188|224:188|249:302,1,162.749995033264,2|10,1:2|1:2,0:0:0:0:
460,232,77446,2,0,L|474:151,1,81.3749975166322,2|0,1:2|0:0,0:0:0:0:
388,284,77795,2,0,P|413:314|452:320,1,81.3749975166322,10|0,1:2|0:0,0:0:0:0:
268,288,78144,5,2,0:0:0:0:
268,288,78493,1,2,0:0:0:0:
268,288,78842,1,2,0:0:0:0:
268,288,79191,1,2,0:0:0:0:
268,288,79539,6,0,B|189:274|189:274|184:277|184:277|108:263,1,162.749995033264,6|10,1:2|1:2,0:0:0:0:
12,248,80063,1,0,0:0:0:0:
72,172,80237,2,0,P|100:144|140:145,1,81.3749975166322,2|0,1:2|0:0,0:0:0:0:
180,116,80499,1,0,1:0:0:0:
180,116,80586,2,0,L|165:35,1,81.3749975166322,10|0,0:2|1:0,0:0:0:0:
271,59,80935,6,0,P|311:54|339:25,2,81.3749975166322,2|2|10,1:2|0:2|1:2,0:0:0:0:
400,100,81458,1,2,0:2:0:0:
400,100,81632,2,0,B|386:140|419:173|419:173|458:208|442:257,1,162.749995033264,2|8,1:2|1:2,0:0:0:0:
384,324,82156,1,0,1:0:0:0:
352,236,82330,6,0,B|304:212|304:212|197:234,1,162.749995033264,2|10,1:2|1:2,0:0:0:0:
52,368,83028,2,0,L|37:287,1,81.3749975166322,2|0,1:2|0:0,0:0:0:0:
48,192,83377,2,0,P|86:202|108:235,1,81.3749975166322,10|0,1:2|0:0,0:0:0:0:
164,316,83725,5,2,1:2:0:0:
164,316,83900,1,2,0:2:0:0:
264,300,84074,1,10,1:2:0:0:
264,300,84249,1,2,0:2:0:0:
344,356,84423,2,0,P|383:352|411:323,1,81.3749975166322,2|0,1:2|0:0,0:0:0:0:
436,280,84685,2,0,L|476:273,1,40.6874987583161,0|8,1:0|0:2,0:0:0:0:
500,180,84946,1,0,1:0:0:0:
412,136,85121,6,0,P|413:60|485:38,1,162.749995033264,2|10,1:2|1:2,0:0:0:0:
344,0,85644,1,0,0:0:0:0:
252,36,85818,2,0,L|171:21,1,81.3749975166322,2|0,1:2|0:0,0:0:0:0:
140,60,86080,1,0,1:0:0:0:
140,60,86167,2,0,L|59:74,1,81.3749975166322,10|0,0:2|1:0,0:0:0:0:
88,168,86516,6,0,P|75:205|92:241,2,81.3749975166322,2|2|10,1:2|0:2|1:2,0:0:0:0:
200,196,87039,1,2,0:2:0:0:
200,196,87214,2,0,B|270:183|270:183|285:176|285:176|359:163,1,162.749995033264,2|8,1:2|1:2,0:0:0:0:
440,220,87737,1,0,1:0:0:0:
352,260,87911,6,0,P|429:273|468:342,1,162.749995033264,2|10,1:2|1:2,0:0:0:0:
276,380,88609,2,0,L|261:299,1,81.3749975166322,2|0,1:2|0:0,0:0:0:0:
164,280,88958,2,0,P|125:290|103:323,1,81.3749975166322,10|0,1:2|0:0,0:0:0:0:
24,264,89307,5,2,0:0:0:0:
164,180,89656,1,2,0:0:0:0:
28,92,90005,1,2,0:0:0:0:
24,248,90353,1,2,0:0:0:0:
160,336,90702,5,2,0:0:0:0:
