osu file format v14

[General]
AudioFilename: audio.mp3
AudioLeadIn: 0
PreviewTime: 68377
Countdown: 0
SampleSet: Soft
StackLeniency: 0.2
Mode: 0
LetterboxInBreaks: 0
WidescreenStoryboard: 1

[Editor]
Bookmarks: 23725,34888,46051,48842,57214,79539
DistanceSpacing: 1.2
BeatDivisor: 4
GridSize: 4
TimelineZoom: 2.599999

[Metadata]
Title:Scream
TitleUnicode:叫び
Artist:Takayan
ArtistUnicode:たかやん
Creator:Jiysea
Version:Airiesu's Insane
Source:
Tags:japanese pop jpop j-pop sakebi hiphop hip hop 人生がクソすぎて死にたい To you who want to die because life is trash Jinsei ga kuso sugite shinitai bad example Nugodesuga Mujina Airiesu AyameMyMommy Pile
BeatmapID:2837715
BeatmapSetID:1370987

[Difficulty]
HPDrainRate:5
CircleSize:3.8
OverallDifficulty:8
ApproachRate:9
SliderMultiplier:1.72
SliderTickRate:1

[Events]
//Background and Video events
0,0,"girl falling with tears.jpg",0,0
//Break Periods
//Storyboard Layer 0 (Background)
//Storyboard Layer 1 (Fail)
//Storyboard Layer 2 (Pass)
//Storyboard Layer 3 (Foreground)
//Storyboard Layer 4 (Overlay)
//Storyboard Sound Samples

[TimingPoints]
5,348.837209302326,4,2,10,30,1,0
1051,-100,4,2,10,30,0,0
1400,-133.333333333333,4,2,10,30,0,0
12563,-111.111111111111,4,2,11,50,0,0
16313,-111.111111111111,4,2,11,5,0,0
16400,-111.111111111111,4,2,11,50,0,0
23725,-66.6666666666667,4,2,1,85,0,1
24074,-66.6666666666667,4,2,1,85,0,0
24423,-90.9090909090909,4,2,1,85,0,0
25818,-66.6666666666667,4,2,1,85,0,0
26516,-90.9090909090909,4,2,1,85,0,0
29307,-66.6666666666667,4,2,1,85,0,1
29656,-90.9090909090909,4,2,1,85,0,0
32098,-66.6666666666667,4,2,1,85,0,1
32446,-90.9090909090909,4,2,1,85,0,0
34888,-66.6666666666667,4,2,1,85,0,1
35237,-66.6666666666667,4,2,1,85,0,0
35586,-90.9090909090909,4,2,1,85,0,0
36981,-66.6666666666667,4,2,1,85,0,1
37330,-66.6666666666667,4,2,1,85,0,0
37679,-66.6666666666667,4,2,1,85,0,1
38028,-90.9090909090909,4,2,1,85,0,0
40470,-66.6666666666667,4,2,1,85,0,1
40818,-66.6666666666667,4,2,1,85,0,0
41167,-90.9090909090909,4,2,1,85,0,0
43260,-66.6666666666667,4,2,1,85,0,1
43609,-66.6666666666667,4,2,1,85,0,0
43958,-90.9090909090909,4,2,1,85,0,0
46051,-153.846153846154,4,2,1,50,0,0
47707,-153.846153846154,4,2,1,5,0,0
47795,-200,4,2,1,50,0,0
48143,-200,4,2,1,65,0,0
48667,-66.6666666666667,4,2,1,65,0,0
48842,-66.6666666666667,4,2,1,85,0,1
49191,-66.6666666666667,4,2,1,85,0,0
49888,-133.333333333333,4,2,1,85,0,0
50935,-90.9090909090909,4,2,1,85,0,0
51371,-90.9090909090909,4,2,1,5,0,0
51458,-90.9090909090909,4,2,1,85,0,0
51545,-90.9090909090909,4,2,1,5,0,0
51632,-66.6666666666667,4,2,1,85,0,1
51981,-90.9090909090909,4,2,1,85,0,0
52679,-90.9090909090909,4,2,1,85,0,0
52766,-90.9090909090909,4,2,1,5,0,0
52853,-90.9090909090909,4,2,1,85,0,0
52941,-90.9090909090909,4,2,1,5,0,0
53028,-90.9090909090909,4,2,1,85,0,0
54161,-90.9090909090909,4,2,1,5,0,0
54249,-90.9090909090909,4,2,1,85,0,0
54336,-90.9090909090909,4,2,1,5,0,0
54423,-66.6666666666667,4,2,1,85,0,1
54772,-66.6666666666667,4,2,1,85,0,0
55121,-90.9090909090909,4,2,1,85,0,0
56952,-90.9090909090909,4,2,1,5,0,0
57039,-90.9090909090909,4,2,1,85,0,0
57126,-90.9090909090909,4,2,1,5,0,0
57214,-66.6666666666667,4,2,1,85,0,1
57737,-66.6666666666667,4,2,1,85,0,0
57911,-90.9090909090909,4,2,1,85,0,0
58347,-90.9090909090909,4,2,1,5,0,0
58435,-90.9090909090909,4,2,1,85,0,0
58522,-90.9090909090909,4,2,1,5,0,0
58609,-90.9090909090909,4,2,1,85,0,0
59307,-133.333333333333,4,2,1,85,0,0
60005,-66.6666666666667,4,2,1,85,0,1
60353,-66.6666666666667,4,2,1,85,0,0
61051,-90.9090909090909,4,2,1,85,0,0
62533,-90.9090909090909,4,2,1,5,0,0
62621,-90.9090909090909,4,2,1,85,0,0
62708,-90.9090909090909,4,2,1,5,0,0
62795,-66.6666666666667,4,2,1,85,0,1
63144,-66.6666666666667,4,2,1,85,0,0
63493,-90.9090909090909,4,2,1,85,0,0
64888,-66.6666666666667,4,2,1,85,0,1
65237,-90.9090909090909,4,2,1,85,0,0
65324,-90.9090909090909,4,2,1,5,0,0
65411,-90.9090909090909,4,2,1,85,0,0
65498,-90.9090909090909,4,2,1,5,0,0
65586,-66.6666666666667,4,2,1,85,0,1
65935,-66.6666666666667,4,2,1,85,0,0
67679,-90.9090909090909,4,2,1,85,0,0
68115,-90.9090909090909,4,2,1,5,0,0
68202,-90.9090909090909,4,2,1,85,0,0
68289,-90.9090909090909,4,2,1,5,0,0
68377,-66.6666666666667,4,2,1,85,0,1
68725,-133.333333333333,4,2,1,85,0,0
68986,-133.333333333333,4,2,1,5,0,0
69074,-90.9090909090909,4,2,1,85,0,0
69510,-90.9090909090909,4,2,1,5,0,0
69598,-90.9090909090909,4,2,1,85,0,0
69685,-90.9090909090909,4,2,1,5,0,0
69772,-90.9090909090909,4,2,1,85,0,0
71167,-66.6666666666667,4,2,1,85,0,1
71428,-66.6666666666667,4,2,1,5,0,1
71516,-90.9090909090909,4,2,1,85,0,0
71777,-90.9090909090909,4,2,1,5,0,0
71865,-133.333333333333,4,2,1,85,0,0
72126,-133.333333333333,4,2,1,5,0,0
72214,-133.333333333333,4,2,1,85,0,0
72475,-133.333333333333,4,2,1,5,0,0
72563,-133.333333333333,4,2,1,85,0,0
73260,-90.9090909090909,4,2,1,85,0,0
73696,-90.9090909090909,4,2,1,5,0,0
73784,-90.9090909090909,4,2,1,85,0,0
73871,-90.9090909090909,4,2,1,5,0,0
73958,-66.6666666666667,4,2,1,85,0,1
74219,-66.6666666666667,4,2,1,5,0,1
74307,-90.9090909090909,4,2,1,85,0,0
74568,-90.9090909090909,4,2,1,5,0,0
74656,-90.9090909090909,4,2,1,85,0,0
75092,-90.9090909090909,4,2,1,5,0,0
75179,-90.9090909090909,4,2,1,85,0,0
75266,-90.9090909090909,4,2,1,5,0,0
75353,-90.9090909090909,4,2,1,85,0,0
76749,-66.6666666666667,4,2,1,85,0,1
77010,-66.6666666666667,4,2,1,5,0,1
77098,-90.9090909090909,4,2,1,85,0,0
77359,-90.9090909090909,4,2,1,5,0,0
77446,-133.333333333333,4,2,1,85,0,0
77708,-133.333333333333,4,2,1,5,0,0
77795,-133.333333333333,4,2,1,85,0,0
78057,-133.333333333333,4,2,1,5,0,0
78144,-133.333333333333,4,2,1,65,0,0
79539,-66.6666666666667,4,2,1,85,0,1
79888,-66.6666666666667,4,2,1,85,0,0
80237,-90.9090909090909,4,2,1,85,0,0
80673,-90.9090909090909,4,2,1,5,0,0
80760,-90.9090909090909,4,2,1,85,0,0
80847,-90.9090909090909,4,2,1,5,0,0
80935,-90.9090909090909,4,2,1,85,0,0
81196,-90.9090909090909,4,2,1,5,0,0
81284,-90.9090909090909,4,2,1,85,0,0
81545,-90.9090909090909,4,2,1,5,0,0
81632,-90.9090909090909,4,2,1,85,0,0
82330,-66.6666666666667,4,2,1,85,0,1
82679,-66.6666666666667,4,2,1,85,0,0
83028,-90.9090909090909,4,2,1,85,0,0
83987,-90.9090909090909,4,2,1,5,0,0
84074,-90.9090909090909,4,2,1,85,0,0
84336,-90.9090909090909,4,2,1,5,0,0
84423,-90.9090909090909,4,2,1,85,0,0
84859,-90.9090909090909,4,2,1,5,0,0
84946,-90.9090909090909,4,2,1,85,0,0
85033,-90.9090909090909,4,2,1,5,0,0
85121,-66.6666666666667,4,2,1,85,0,1
85470,-66.6666666666667,4,2,1,85,0,0
85818,-90.9090909090909,4,2,1,85,0,0
86254,-90.9090909090909,4,2,1,5,0,0
86342,-90.9090909090909,4,2,1,85,0,0
86429,-90.9090909090909,4,2,1,5,0,0
86516,-90.9090909090909,4,2,1,85,0,0
86778,-90.9090909090909,4,2,1,5,0,0
86865,-90.9090909090909,4,2,1,85,0,0
87126,-90.9090909090909,4,2,1,5,0,0
87214,-90.9090909090909,4,2,1,85,0,0
87911,-66.6666666666667,4,2,1,85,0,1
88260,-66.6666666666667,4,2,1,85,0,0
88609,-90.9090909090909,4,2,1,85,0,0
89307,-90.9090909090909,4,2,1,65,0,0
90702,-133.333333333333,4,2,2,50,0,0
96284,-133.333333333333,4,2,3,50,0,0
101865,-133.333333333333,4,2,3,5,0,0

[Colours]
Combo1 : 111,151,135
Combo2 : 0,210,168

[HitObjects]
122,139,1051,5,2,0:0:0:0:
122,139,1400,2,0,B|181:114|267:121|345:173|351:268|280:312|204:302|187:227|212:205,1,387.000000000001,2|0,0:0|0:0,0:0:0:0:
301,145,2621,2,0,P|333:144|365:149,1,64.5000000000002,2|0,0:0|0:0,0:0:0:0:
446,238,2970,1,2,0:0:0:0:
446,238,3144,2,0,P|445:206|450:174,1,64.5000000000002,2|2,0:0|0:0,0:0:0:0:
512,49,3493,2,0,P|451:60|358:58,1,129,2|2,0:0|0:0,0:0:0:0:
81,103,4191,6,0,B|75:67|96:47|96:47|26:83|21:212|155:248|226:159|198:95,1,387.000000000001,2|2,0:0|0:0,0:0:0:0:
126,214,5411,2,0,L|153:358,1,129.00000492096,2|2,0:0|0:0,0:0:0:0:
236,335,5935,1,2,0:0:0:0:
236,335,6109,2,0,L|246:271,1,64.5000000000002,2|0,0:0|0:0,0:0:0:0:
334,241,6458,1,2,0:0:0:0:
334,241,6632,2,0,L|349:333,1,64.5000000000002,2|0,0:0|0:0,0:0:0:0:
400,180,6981,6,0,B|346:142|370:55|447:32|540:95|512:198|462:271|413:282,1,387.000000000001,2|2,0:0|0:0,0:0:0:0:
286,194,8202,2,0,B|203:170|180:242|76:208,1,193.5,2|2,0:0|0:0,0:0:0:0:
37,72,8900,2,0,L|42:137,2,64.5000000000002,2|2|2,0:0|0:0|0:0,0:0:0:0:
196,98,9423,2,0,L|191:175,1,64.5000000000002,2|0,0:0|0:0,0:0:0:0:
248,248,9772,2,0,B|313:191|382:-4|43:-115|-69:133|126:418|301:293|234:154|299:68|403:102|475:205|423:316|321:364|292:313|173:301|149:376,1,903.000034446718,2|0,0:0|0:0,0:0:0:0:
379,25,12563,6,0,B|391:-42|467:-44|505:33|482:98|397:116|330:34|347:8|285:-26|229:3|229:3|280:7|305:45,1,464.399985827637,2|2,0:0|0:0,0:0:0:0:
230,163,13784,2,0,L|222:55,1,77.4000000000001,2|0,0:0|0:0,0:0:0:0:
143,190,14132,1,2,0:0:0:0:
230,251,14307,1,2,0:0:0:0:
316,157,14481,1,2,0:0:0:0:
316,157,14656,2,0,L|322:234,1,77.3999976379395,2|2,0:0|0:0,0:0:0:0:
389,383,15005,2,0,L|395:305,1,77.4000000000001,2|0,0:0|0:0,0:0:0:0:
495,212,15353,6,0,B|463:207|419:166|419:166|366:112|406:25|502:55|496:135|419:166|419:166|358:187|324:153,1,425.699987008667,2|2,0:0|0:0,0:0:0:0:
316,157,16400,1,2,0:0:0:0:
197,102,16574,2,0,P|161:83|100:95,1,77.4000000000001,2|0,0:0|0:0,0:0:0:0:
180,182,16923,2,0,P|141:194|106:245,1,77.4000000000001,2|0,0:0|0:0,0:0:0:0:
319,347,17272,2,0,P|338:311|326:250,1,77.4000000000001,2|0,0:0|0:0,0:0:0:0:
239,329,17621,2,0,P|226:290|175:255,1,77.4000000000001,2|0,0:0|0:0,0:0:0:0:
17,375,17970,1,2,0:0:0:0:
27,273,18144,1,0,0:0:0:0:
62,124,18842,6,0,P|95:79|214:73,1,154.8,2|2,0:0|0:0,0:0:0:0:
287,145,19365,2,0,B|305:127|341:125|341:125|305:115|253:126|271:156|220:183|161:154,1,232.2,2|2,0:0|0:0,0:0:0:0:
92,270,20063,2,0,B|82:201|82:201|75:195|75:195|59:97,1,154.8,2|2,0:0|0:0,0:0:0:0:
115,291,20760,1,2,0:0:0:0:
256,192,20935,12,0,23377,0:0:0:0:
385,271,23725,6,0,L|376:327,4,32.25,6|0|0|0|0,1:2|1:0|1:0|1:0|1:0,0:0:0:0:
403,142,24074,1,2,1:2:0:0:
318,199,24249,1,2,0:0:0:0:
248,111,24423,2,0,L|144:93,1,94.6,2|0,1:2|0:0,0:0:0:0:
152,106,24685,2,0,L|245:122,1,94.6,2|0,1:2|0:0,0:0:0:0:
242,133,24946,1,2,1:2:0:0:
143,279,25121,5,2,1:2:0:0:
86,172,25295,1,2,0:0:0:0:
150,295,25470,5,2,1:2:0:0:
93,188,25644,1,2,0:0:0:0:
242,384,25818,6,0,B|349:324|349:324|374:369|419:368,1,193.5,2|0,1:2|0:0,0:0:0:0:
439,374,26167,1,0,1:0:0:0:
350,235,26342,1,0,1:0:0:0:
488,295,26516,6,0,L|493:186,1,94.6,2|2,1:2|0:0,0:0:0:0:
345,140,26865,2,0,L|349:234,1,94.6,2|2,1:2|0:0,0:0:0:0:
497,115,27214,5,2,1:2:0:0:
360,25,27388,1,2,0:0:0:0:
477,103,27563,5,2,1:2:0:0:
343,14,27737,1,2,0:0:0:0:
202,122,27911,6,0,P|184:76|146:45,1,94.6,2|2,1:2|0:0,0:0:0:0:
48,230,28260,1,2,1:2:0:0:
105,137,28435,1,2,0:0:0:0:
38,25,28609,2,0,P|7:63|0:111,1,94.6,2|0,1:2|0:0,0:0:0:0:
18,140,28871,1,0,1:0:0:0:
18,140,28958,1,2,0:0:0:0:
150,47,29132,1,0,1:0:0:0:
266,227,29307,6,0,B|359:207|359:207|367:209|367:209|484:188,1,193.5,2|0,1:2|0:0,0:0:0:0:
454,173,29656,2,0,L|357:192,1,94.6,10|2,1:2|0:0,0:0:0:0:
159,171,30005,2,0,L|190:323,1,141.900004330444,2|0,1:2|1:0,0:0:0:0:
169,332,30353,2,0,L|150:239,1,94.6,10|2,0:2|1:2,0:0:0:0:
96,27,30702,5,2,1:2:0:0:
235,65,30877,1,2,0:0:0:0:
83,46,31051,5,10,1:2:0:0:
222,84,31225,1,2,0:0:0:0:
61,163,31400,5,2,1:2:0:0:
61,163,31749,5,10,1:2:0:0:
292,219,31923,1,0,1:0:0:0:
200,26,32098,6,0,B|185:112|185:112|192:123|192:123|169:233,1,193.5,2|0,1:2|0:0,0:0:0:0:
155,223,32446,2,0,L|175:124,1,94.6,10|2,1:2|0:2,0:0:0:0:
212,310,32795,5,2,1:2:0:0:
95,288,32970,1,2,0:2:0:0:
232,304,33144,5,10,1:2:0:0:
75,294,33318,1,2,0:2:0:0:
339,276,33493,6,0,L|320:368,1,94.6,2|2,1:2|0:2,0:0:0:0:
426,324,33842,1,10,1:2:0:0:
281,155,34016,1,2,0:2:0:0:
372,173,34191,2,0,L|353:265,1,94.6,2|0,1:2|0:0,0:0:0:0:
339,276,34452,1,0,1:0:0:0:
339,276,34539,1,10,0:2:0:0:
280,132,34714,1,0,1:0:0:0:
481,195,34888,6,0,L|512:187,4,32.25,2|0|0|0|0,1:2|1:2|1:2|1:2|1:2,0:0:0:0:
279,109,35237,1,10,1:2:0:0:
411,64,35411,1,2,0:0:0:0:
276,84,35586,2,0,L|132:65,1,141.900004330444,2|0,1:2|1:0,0:0:0:0:
108,84,35935,2,0,L|201:97,1,94.6,10|2,0:2|1:2,0:0:0:0:
470,132,36284,5,2,1:2:0:0:
354,19,36458,1,2,0:0:0:0:
485,151,36632,5,10,1:2:0:0:
360,42,36807,1,2,0:0:0:0:
500,172,36981,6,0,B|442:199|442:199|463:332,1,193.5,2|0,1:2|0:0,0:0:0:0:
469,356,37330,1,8,1:2:0:0:
299,234,37505,1,0,1:0:0:0:
205,384,37679,6,0,B|117:352|117:352|112:340|112:340|30:312,1,193.5,2|0,1:2|0:0,0:0:0:0:
14,330,38028,2,0,L|116:365,1,94.6,10|0,1:2|0:0,0:0:0:0:
234,384,38377,5,2,1:2:0:0:
166,267,38551,1,2,0:2:0:0:
244,371,38725,5,10,1:2:0:0:
156,254,38900,1,2,0:0:0:0:
146,365,39074,5,2,1:2:0:0:
241,190,39249,1,2,0:0:0:0:
58,321,39423,2,0,L|41:211,1,94.6,10|0,1:2|0:0,0:0:0:0:
266,166,39772,2,0,L|244:319,1,141.900004330444,2|0,1:2|1:0,0:0:0:0:
270,327,40121,2,0,L|284:233,1,94.6,10|0,0:2|1:0,0:0:0:0:
314,20,40470,6,0,B|227:37|227:37|223:45|223:45|126:64,1,193.5,2|0,1:2|0:0,0:0:0:0:
97,52,40818,1,10,1:2:0:0:
28,173,40993,1,2,0:0:0:0:
28,173,41080,1,0,0:0:0:0:
28,173,41167,2,0,L|51:327,1,141.900004330444,2|0,1:2|1:0,0:0:0:0:
72,327,41516,2,0,L|58:233,1,94.6,10|2,0:2|1:2,0:0:0:0:
24,17,41865,5,2,1:2:0:0:
182,69,42039,1,2,0:0:0:0:
14,27,42214,5,10,1:2:0:0:
193,82,42388,1,2,0:0:0:0:
28,173,42563,5,2,1:2:0:0:
28,173,42911,5,8,1:2:0:0:
108,15,43086,1,0,1:0:0:0:
269,105,43260,6,0,B|357:99|357:99|377:106|377:106|474:100,1,193.5,2|0,1:2|0:0,0:0:0:0:
484,81,43609,1,10,1:2:0:0:
415,195,43784,1,2,0:2:0:0:
415,195,43871,1,0,0:0:0:0:
415,195,43958,2,0,L|411:294,1,94.6,2|2,1:2|0:2,0:0:0:0:
512,169,44307,1,10,1:2:0:0:
354,58,44481,1,2,0:2:0:0:
320,230,44656,5,2,1:2:0:0:
434,93,44830,1,2,0:2:0:0:
334,242,45005,5,10,1:2:0:0:
413,87,45179,1,2,0:2:0:0:
441,295,45353,5,2,1:2:0:0:
289,141,45528,1,0,0:0:0:0:
289,141,45615,1,0,1:0:0:0:
289,141,45702,1,8,0:2:0:0:
491,209,45877,1,0,1:0:0:0:
285,265,46051,6,1,B|256:268|228:253|213:227|213:227|199:280|227:333|278:350|278:350|330:366|384:343|404:293|404:293|424:242|403:185|357:164,1,531.049999999999,2|0,0:0|0:0,0:0:0:0:
348,150,47795,2,0,P|306:153|278:185,2,86,2|10|10,0:0|0:2|0:2,0:0:0:0:
302,53,48667,6,0,L|333:61,2,32.25,0|0|0,1:0|1:0|1:0,0:0:0:0:
296,73,48842,6,0,B|247:78|221:125|221:125|214:70|152:40,1,193.5,6|0,1:2|0:0,0:0:0:0:
141,54,49191,5,10,1:2:0:0:
17,29,49365,1,2,0:2:0:0:
123,142,49539,5,2,1:2:0:0:
26,54,49714,1,2,0:2:0:0:
220,150,49888,6,0,B|268:140|268:140|276:141|276:141|322:133,1,96.7500000000002,10|0,1:2|0:0,0:0:0:0:
323,113,50237,5,2,1:2:0:0:
352,247,50411,1,2,0:2:0:0:
469,166,50586,5,10,1:2:0:0:
306,106,50760,1,2,0:2:0:0:
481,171,50935,6,0,L|442:318,1,141.900004330444,2|0,1:2|1:0,0:0:0:0:
411,384,51284,2,0,P|387:360|366:345,1,47.3,10|0,0:2|0:0,0:0:0:0:
325,286,51458,2,0,P|291:286|265:290,1,47.3,0|0,1:0|0:0,0:0:0:0:
103,363,51632,6,0,P|27:329|82:265,1,193.5,2|0,1:2|0:0,0:0:0:0:
90,240,51981,2,0,P|26:260|4:296,1,94.6,10|2,1:2|0:0,0:0:0:0:
206,266,52330,1,2,1:2:0:0:
94,144,52505,1,2,0:0:0:0:
94,144,52592,1,0,1:0:0:0:
94,144,52679,2,0,P|54:122|27:117,1,47.3,10|0,0:2|0:0,0:0:0:0:
185,116,52853,2,0,P|172:72|156:49,1,47.3,2|0,1:2|0:0,0:0:0:0:
209,295,53028,5,2,1:2:0:0:
272,143,53202,1,2,0:2:0:0:
212,324,53377,5,10,1:2:0:0:
337,202,53551,1,2,0:2:0:0:
215,353,53725,5,2,1:2:0:0:
215,353,54074,2,0,P|228:333|248:320,1,47.3,8|0,1:2|0:0,0:0:0:0:
271,218,54249,2,0,P|294:213|317:218,1,47.3,0|0,1:0|0:0,0:0:0:0:
431,321,54423,6,0,P|481:266|441:214,2,129,2|2|10,1:2|0:2|1:2,0:0:0:0:
391,168,54946,1,2,0:2:0:0:
391,168,55034,1,0,0:0:0:0:
391,168,55121,2,0,L|404:64,1,94.6,2|2,1:2|0:2,0:0:0:0:
299,58,55470,5,10,1:2:0:0:
512,91,55644,1,2,0:2:0:0:
314,50,55818,5,2,1:2:0:0:
482,1,55993,1,2,0:2:0:0:
284,66,56167,5,10,1:2:0:0:
413,130,56342,1,2,0:2:0:0:
172,14,56516,6,0,B|101:35|101:35|101:40|101:40|25:63,1,141.900004330444,2|0,1:2|1:0,0:0:0:0:
0,80,56865,2,0,P|10:122|24:139,1,47.3,10|0,0:2|0:0,0:0:0:0:
15,221,57039,2,0,P|51:243|73:245,1,47.3,0|0,1:0|0:0,0:0:0:0:
140,327,57214,6,0,L|128:363,4,32.25,2|0|0|0|2,1:2|1:2|1:2|1:2|1:2,0:0:0:0:
154,191,57563,1,10,1:2:0:0:
285,320,57737,1,2,0:0:0:0:
366,147,57911,2,0,P|302:142|267:208,1,141.900004330444,2|0,1:2|1:0,0:0:0:0:
268,228,58260,2,0,P|254:205|228:186,1,47.3,10|0,0:2|0:0,0:0:0:0:
285,320,58435,2,0,P|258:313|227:318,1,47.3,2|0,1:2|0:0,0:0:0:0:
377,362,58609,5,2,1:2:0:0:
346,173,58784,1,2,0:2:0:0:
391,348,58958,5,10,1:2:0:0:
465,169,59132,1,2,0:2:0:0:
512,286,59307,6,0,B|470:274|470:274|467:269|467:269|409:249,1,96.7500000000002,2|0,1:2|0:0,0:0:0:0:
392,263,59656,5,10,1:2:0:0:
478,151,59830,1,0,1:0:0:0:
285,226,60005,6,0,B|228:235|179:191|179:191|130:197|96:257,1,193.5,2|0,1:2|0:0,0:0:0:0:
127,257,60353,5,10,1:2:0:0:
49,120,60528,1,2,0:2:0:0:
15,334,60702,5,2,1:2:0:0:
45,140,60877,1,2,0:2:0:0:
185,314,61051,6,0,P|145:336|96:374,1,94.6,10|2,1:2|0:2,0:0:0:0:
1,229,61400,5,2,1:2:0:0:
214,205,61574,1,2,0:2:0:0:
77,133,61749,5,10,1:2:0:0:
230,184,61923,1,2,0:2:0:0:
51,128,62098,6,0,L|30:278,1,141.900004330444,2|0,1:2|1:0,0:0:0:0:
25,308,62446,2,0,P|61:331|96:334,1,47.3,10|0,0:2|0:0,0:0:0:0:
149,384,62621,2,0,P|190:374|217:352,1,47.3,0|0,1:0|0:0,0:0:0:0:
288,232,62795,6,0,B|343:248|343:248|199:272,1,193.5,2|0,1:2|0:0,0:0:0:0:
179,256,63144,1,10,1:2:0:0:
307,113,63318,1,2,0:2:0:0:
307,113,63406,1,0,0:0:0:0:
307,113,63493,2,0,L|404:101,1,94.6,2|2,1:2|0:2,0:0:0:0:
414,79,63755,1,0,1:0:0:0:
414,79,63842,2,0,L|320:90,1,94.6,10|2,0:2|1:2,0:0:0:0:
189,86,64191,5,2,1:2:0:0:
362,196,64365,1,2,0:2:0:0:
169,247,64539,5,10,1:2:0:0:
379,179,64714,1,2,0:2:0:0:
322,77,64888,6,0,B|264:184|264:184|294:208|291:256,1,193.5,2|0,1:2|0:0,0:0:0:0:
274,268,65237,2,0,P|264:245|263:218,1,47.3,8|0,1:2|0:0,0:0:0:0:
339,344,65411,2,0,P|348:322|366:302,1,47.3,0|0,1:0|0:0,0:0:0:0:
512,290,65586,6,0,B|392:242|485:233|356:170,1,193.5,2|0,1:2|0:0,0:0:0:0:
328,184,65935,5,10,1:2:0:0:
475,132,66109,1,2,0:2:0:0:
371,65,66284,5,2,1:2:0:0:
494,141,66458,1,2,0:2:0:0:
265,95,66632,5,10,1:2:0:0:
464,39,66807,1,2,0:2:0:0:
309,168,66981,5,2,1:2:0:0:
352,0,67156,1,2,0:2:0:0:
299,192,67330,5,10,1:2:0:0:
235,45,67505,1,2,0:2:0:0:
289,215,67679,6,0,B|303:311|303:311|278:359,1,141.900004330444,2|0,1:2|1:0,0:0:0:0:
248,384,68028,2,0,P|208:358|191:338,1,47.3,8|0,0:2|0:0,0:0:0:0:
119,344,68202,2,0,P|109:297|111:271,1,47.3,0|0,1:0|0:0,0:0:0:0:
25,183,68377,6,0,L|19:233,4,32.25,6|0|0|0|0,1:2|1:2|1:2|1:2|1:2,0:0:0:0:
116,162,68725,6,0,L|102:278,1,96.7500000000002,10|0,1:2|0:0,0:0:0:0:
100,129,69074,2,0,P|68:79|105:1,1,141.9,2|0,1:2|1:0,0:0:0:0:
122,0,69423,2,0,P|118:23|113:46,1,47.3,10|0,0:2|0:0,0:0:0:0:
270,82,69598,2,0,P|251:96|230:108,1,47.3,0|0,1:0|0:0,0:0:0:0:
292,244,69772,5,2,1:2:0:0:
100,129,69946,1,2,0:2:0:0:
204,190,70121,5,10,1:2:0:0:
28,226,70295,1,2,0:2:0:0:
233,321,70470,5,2,1:2:0:0:
233,321,70818,5,8,1:2:0:0:
100,129,70993,1,0,1:0:0:0:
309,226,71167,6,0,P|394:222|381:137,1,193.5,2|0,1:2|0:0,0:0:0:0:
280,233,71516,2,0,B|244:254|244:254|264:359,1,141.9,10|0,1:2|0:0,0:0:0:0:
168,252,71865,2,0,L|189:357,1,96.7500000000002,2|0,1:2|0:0,0:0:0:0:
149,229,72214,2,0,L|170:334,1,96.7500000000002,10|0,1:2|0:0,0:0:0:0:
130,206,72563,5,2,1:2:0:0:
290,312,72737,1,2,0:2:0:0:
111,183,72911,5,10,1:2:0:0:
256,158,73086,1,2,0:2:0:0:
35,327,73260,6,0,P|96:311|198:319,1,141.9,2|0,1:2|1:0,0:0:0:0:
189,331,73609,2,0,P|223:343|270:331,1,47.3,8|0,0:2|0:0,0:0:0:0:
330,377,73784,2,0,P|362:361|387:319,1,47.3,0|0,1:0|0:0,0:0:0:0:
422,186,73958,6,0,B|361:193|361:193|504:239,1,193.5,2|0,1:2|0:0,0:0:0:0:
456,174,74307,2,0,P|451:125|349:113,1,141.9,10|0,1:2|0:0,0:0:0:0:
288,190,74656,2,0,P|269:150|176:123,1,141.9,2|0,1:2|1:0,0:0:0:0:
168,139,75005,2,0,P|190:134|209:120,1,47.3,10|0,0:2|0:0,0:0:0:0:
79,119,75179,2,0,P|91:99|95:76,1,47.3,0|0,1:0|0:0,0:0:0:0:
0,141,75353,5,2,1:2:0:0:
200,228,75528,1,2,0:2:0:0:
56,19,75702,5,10,1:2:0:0:
100,204,75877,1,2,0:2:0:0:
222,40,76051,5,2,1:2:0:0:
222,40,76400,5,8,1:2:0:0:
71,102,76574,1,0,1:0:0:0:
334,181,76749,6,0,B|310:157|266:163|266:163|314:200|321:290,1,193.5,2|0,1:2|0:0,0:0:0:0:
355,191,77098,2,0,P|409:204|472:129,1,141.900004330444,10|0,1:2|0:0,0:0:0:0:
378,29,77446,2,0,L|400:134,1,96.7500036907198,2|0,1:2|0:0,0:0:0:0:
361,18,77795,2,0,L|383:123,1,96.7500036907198,10|0,1:2|0:0,0:0:0:0:
344,7,78144,5,2,0:0:0:0:
296,84,78318,1,2,0:0:0:0:
210,49,78493,1,2,0:0:0:0:
162,126,78667,1,2,0:0:0:0:
239,174,78842,5,2,0:0:0:0:
239,174,79191,1,2,0:0:0:0:
239,174,79539,6,0,L|235:206,4,32.25,6|0|0|0|0,1:2|1:2|1:2|1:2|1:2,0:0:0:0:
387,17,79888,1,10,1:2:0:0:
334,193,80063,1,0,0:0:0:0:
334,193,80150,1,0,0:0:0:0:
334,193,80237,2,0,L|311:47,1,141.900004330444,2|0,1:2|1:0,0:0:0:0:
301,17,80586,2,0,P|275:37|250:43,1,47.3,10|0,0:2|0:0,0:0:0:0:
206,166,80760,2,0,P|173:161|151:148,1,47.3,0|0,1:0|0:0,0:0:0:0:
33,204,80935,5,2,1:2:0:0:
55,71,81109,2,0,L|42:2,1,47.3,2|0,0:2|0:0,0:0:0:0:
148,257,81284,5,10,1:2:0:0:
126,124,81458,2,0,L|139:55,1,47.3,2|0,0:2|0:0,0:0:0:0:
32,291,81632,6,0,L|49:396,1,94.6,2|0,1:2|0:0,0:0:0:0:
244,165,81981,5,8,1:2:0:0:
62,203,82156,1,0,1:0:0:0:
213,329,82330,6,0,B|327:308|286:371|420:349,1,193.5,2|0,1:2|0:0,0:0:0:0:
413,325,82679,1,10,1:2:0:0:
330,157,82853,1,0,0:0:0:0:
330,157,82941,1,0,0:0:0:0:
330,157,83028,2,0,L|341:291,1,94.6,2|0,1:2|0:0,0:0:0:0:
429,220,83377,1,10,1:2:0:0:
383,52,83551,1,0,0:0:0:0:
224,155,83725,5,2,1:2:0:0:
445,124,83900,2,0,L|503:135,1,47.3,2|0,0:2|0:0,0:0:0:0:
212,140,84074,5,10,1:2:0:0:
420,133,84249,2,0,L|478:144,1,47.3,2|0,0:2|0:0,0:0:0:0:
198,125,84423,6,0,B|135:160|135:160|132:169|132:169|65:208,1,141.900004330444,2|0,1:2|1:0,0:0:0:0:
43,217,84772,2,0,P|33:189|35:157,1,47.3,8|0,0:2|0:0,0:0:0:0:
106,303,84946,2,0,P|118:276|142:254,1,47.3,0|0,1:0|0:0,0:0:0:0:
176,367,85121,6,0,P|268:319|348:345,1,193.5,2|0,1:2|0:0,0:0:0:0:
341,372,85470,1,10,1:2:0:0:
478,184,85644,1,0,0:0:0:0:
478,184,85731,1,0,0:0:0:0:
478,184,85818,2,0,L|479:340,1,141.900004330444,2|0,1:2|1:0,0:0:0:0:
473,368,86167,2,0,P|450:361|433:345,1,47.3,10|0,0:2|0:0,0:0:0:0:
341,372,86342,2,0,P|329:351|328:327,1,47.3,0|0,1:0|0:0,0:0:0:0:
375,222,86516,5,2,1:2:0:0:
260,277,86691,2,0,L|213:285,1,47.3,2|0,0:2|0:0,0:0:0:0:
268,156,86865,5,10,1:2:0:0:
383,211,87039,2,0,L|465:196,1,47.3,2|0,0:2|0:0,0:0:0:0:
262,142,87214,6,0,L|159:160,1,94.6,2|0,1:2|0:0,0:0:0:0:
361,72,87563,5,8,1:2:0:0:
261,258,87737,1,0,1:0:0:0:
192,74,87911,6,0,B|75:34|75:34|24:82,1,193.5,2|0,1:2|0:0,0:0:0:0:
35,111,88260,1,10,1:2:0:0:
188,171,88435,1,0,0:0:0:0:
188,171,88522,1,0,0:0:0:0:
188,171,88609,2,0,L|315:157,1,94.6,2|0,1:2|0:0,0:0:0:0:
437,130,88958,1,10,1:2:0:0:
287,49,89132,1,0,0:0:0:0:
355,281,89307,5,2,0:0:0:0:
396,206,89481,1,2,0:0:0:0:
321,165,89656,1,2,0:0:0:0:
280,240,89830,1,2,0:0:0:0:
239,315,90005,5,2,0:0:0:0:
239,315,90353,1,2,0:0:0:0:
321,165,90702,6,0,P|289:155|251:151,2,64.5000024604798,4|0|0,0:0|0:0|0:0,0:0:0:0:
455,168,91225,1,2,0:0:0:0:
479,50,91400,2,0,P|430:78|435:154,1,129,0|2,0:0|0:0,0:0:0:0:
482,289,92098,2,0,L|478:357,2,64.5000000000002,0|2|0,0:0|0:0|0:0,0:0:0:0:
488,204,92621,1,2,0:0:0:0:
488,204,92795,1,0,0:0:0:0:
369,351,93144,5,2,0:0:0:0:
256,234,93493,1,0,0:0:0:0:
256,234,93667,1,2,0:0:0:0:
171,339,94016,1,2,0:0:0:0:
171,339,94191,2,0,L|22:311,1,129,0|2,0:0|0:0,0:0:0:0:
142,236,94888,5,0,0:0:0:0:
54,168,95063,2,0,L|59:244,1,64.5000000000002,2|0,0:0|0:0,0:0:0:0:
146,214,95411,5,2,0:0:0:0:
237,153,95586,2,0,L|227:297,1,129,2|0,0:0|0:0,0:0:0:0:
228,281,96284,6,0,P|258:269|290:267,3,64.5000000000002,0|0|0|2,0:0|0:0|0:0|0:0,0:0:0:0:
375,333,96981,2,0,P|371:268|373:204,1,129,0|2,0:0|0:0,0:0:0:0:
388,37,97679,6,0,P|416:71|459:80,3,64.5000000000002,0|2|0|2,0:0|0:0|0:0|0:0,0:0:0:0:
303,64,98377,2,0,P|231:48|153:35,1,129,0|2,0:0|0:0,0:0:0:0:
67,121,98900,2,0,P|75:76|67:31,1,64.5000000000002
256,192,99161,12,0,101865,0:0:0:0:
