osu file format v14

[General]
AudioFilename: audio.mp3
AudioLeadIn: 0
PreviewTime: 68377
Countdown: 0
SampleSet: Normal
StackLeniency: 0.7
Mode: 1
LetterboxInBreaks: 0
WidescreenStoryboard: 1

[Editor]
Bookmarks: 1400
DistanceSpacing: 1
BeatDivisor: 4
GridSize: 32
TimelineZoom: 2.8

[Metadata]
Title:Scream
TitleUnicode:叫び
Artist:Takayan
ArtistUnicode:たかやん
Creator:Froskya
Version:Oni
Source:
Tags:japanese pop jpop j-pop sakebi hip-hop hiphop hip hop bad example Nugodesuga tachibana_ ryxliee revialink
BeatmapID:3670549
BeatmapSetID:1746469

[Difficulty]
HPDrainRate:5.5
CircleSize:2
OverallDifficulty:5
ApproachRate:10
SliderMultiplier:1.4
SliderTickRate:1

[Events]
//Background and Video events
0,0,"sadge.jpg",0,70
//Break Periods
2,46251,47694
2,90902,95834
//Storyboard Layer 0 (Background)
//Storyboard Layer 1 (Fail)
//Storyboard Layer 2 (Pass)
//Storyboard Layer 3 (Foreground)
//Storyboard Layer 4 (Overlay)
//Storyboard Sound Samples

[TimingPoints]
5,348.837209302326,4,1,0,40,1,8
5,-125,4,1,0,40,0,0
12563,-111.111111111111,4,1,0,55,0,0
22679,-105.263157894737,4,1,0,55,0,0
23028,-100,4,1,0,55,0,0
23377,-95.2380952380952,4,1,0,55,0,0
23725,-66.6666666666667,4,1,0,75,0,0
23813,-68.9655172413793,4,1,0,75,0,0
23900,-71.4285714285714,4,1,0,75,0,0
24074,-90.9090909090909,4,1,0,75,0,0
34888,-66.6666666666667,4,1,0,75,0,0
34975,-68.9655172413793,4,1,0,75,0,0
35063,-71.4285714285714,4,1,0,75,0,0
35237,-90.9090909090909,4,1,0,75,0,0
44656,-95.2380952380952,4,1,0,75,0,0
44830,-100,4,1,0,75,0,0
45005,-105.263157894737,4,1,0,75,0,0
45179,-111.111111111111,4,1,0,75,0,0
45353,-117.647058823529,4,1,0,75,0,0
45615,-121.212121212121,4,1,0,75,0,0
45702,-125,4,1,0,75,0,0
45877,-133.333333333333,4,1,0,75,0,0
46051,-142.857142857143,4,1,0,65,0,0
48144,-111.111111111111,4,1,0,70,0,0
48493,-100,4,1,0,70,0,0
48667,-66.6666666666667,4,1,0,75,0,0
48755,-68.9655172413793,4,1,0,75,0,0
48842,-71.4285714285714,4,1,0,75,0,0
49191,-90.9090909090909,4,1,0,75,0,0
57214,-66.6666666666667,4,1,0,75,0,0
57301,-68.9655172413793,4,1,0,75,0,0
57388,-71.4285714285714,4,1,0,75,0,0
57563,-90.9090909090909,4,1,0,75,0,0
68377,-66.6666666666667,4,1,0,85,0,1
68464,-68.9655172413793,4,1,0,85,0,1
68551,-71.4285714285714,4,1,0,85,0,1
68725,-76.9230769230769,4,1,0,85,0,1
68900,-78.4313725490196,4,1,0,85,0,1
68987,-78.7401574803149,4,1,0,85,0,1
69074,-79.3650793650794,4,1,0,85,0,1
69249,-80.6451612903226,4,1,0,85,0,1
69336,-81.3008130081301,4,1,0,85,0,1
69423,-81.9672131147541,4,1,0,85,0,1
69598,-83.3333333333333,4,1,0,85,0,1
69772,-84.7457627118644,4,1,0,85,0,1
69859,-85.4700854700855,4,1,0,85,0,1
69946,-86.2068965517241,4,1,0,85,0,1
70034,-86.9565217391304,4,1,0,85,0,1
70121,-87.719298245614,4,1,0,85,0,1
70295,-89.2857142857143,4,1,0,85,0,1
70470,-90.9090909090909,4,1,0,85,0,1
70818,-94.3396226415094,4,1,0,85,0,1
70993,-96.1538461538461,4,1,0,85,0,1
71167,-74.0740740740741,4,1,0,85,0,1
71516,-76.9230769230769,4,1,0,85,0,1
71691,-78.4313725490196,4,1,0,85,0,1
71778,-78.7401574803149,4,1,0,85,0,1
71865,-79.3650793650794,4,1,0,85,0,1
72127,-81.3008130081301,4,1,0,85,0,1
72214,-81.9672131147541,4,1,0,85,0,1
72388,-83.3333333333333,4,1,0,85,0,1
72562,-84.7457627118644,4,1,0,85,0,1
72649,-85.4700854700855,4,1,0,85,0,1
72736,-86.2068965517241,4,1,0,85,0,1
72824,-86.9565217391304,4,1,0,85,0,1
72911,-87.719298245614,4,1,0,85,0,1
73085,-89.2857142857143,4,1,0,85,0,1
73260,-90.9090909090909,4,1,0,85,0,1
73521,-93.4579439252336,4,1,0,85,0,1
73608,-94.3396226415094,4,1,0,85,0,1
73783,-96.1538461538461,4,1,0,85,0,1
73957,-74.0740740740741,4,1,0,85,0,1
74306,-76.9230769230769,4,1,0,85,0,1
74481,-78.4313725490196,4,1,0,85,0,1
74568,-78.7401574803149,4,1,0,85,0,1
74655,-79.3650793650794,4,1,0,85,0,1
74829,-80.6451612903226,4,1,0,85,0,1
74917,-81.3008130081301,4,1,0,85,0,1
75004,-81.9672131147541,4,1,0,85,0,1
75179,-83.3333333333333,4,1,0,85,0,1
75353,-84.7457627118644,4,1,0,85,0,1
75440,-85.4700854700855,4,1,0,85,0,1
75527,-86.2068965517241,4,1,0,85,0,1
75615,-86.9565217391304,4,1,0,85,0,1
75702,-87.719298245614,4,1,0,85,0,1
75876,-89.2857142857143,4,1,0,85,0,1
76051,-90.9090909090909,4,1,0,85,0,1
76399,-94.3396226415094,4,1,0,85,0,1
76574,-96.1538461538461,4,1,0,85,0,1
76748,-74.0740740740741,4,1,0,85,0,1
77097,-76.9230769230769,4,1,0,85,0,1
77272,-78.4313725490196,4,1,0,85,0,1
77359,-78.7401574803149,4,1,0,85,0,1
77446,-79.3650793650794,4,1,0,85,0,1
77708,-81.3008130081301,4,1,0,85,0,1
77795,-81.9672131147541,4,1,0,85,0,1
77970,-83.3333333333333,4,1,0,85,0,1
78144,-83.3333333333333,4,1,0,65,0,0
78317,-86.9565217391304,4,1,0,65,0,0
78492,-90.9090909090909,4,1,0,65,0,0
78666,-95.2380952380952,4,1,0,65,0,0
78841,-100,4,1,0,65,0,0
79190,-111.111111111111,4,1,0,65,0,0
79539,-66.6666666666667,4,1,0,85,0,1
79627,-68.9655172413793,4,1,0,85,0,1
79714,-71.4285714285714,4,1,0,85,0,1
79887,-76.9230769230769,4,1,0,85,0,1
80062,-78.4313725490196,4,1,0,85,0,1
80149,-78.7401574803149,4,1,0,85,0,1
80236,-79.3650793650794,4,1,0,85,0,1
80411,-80.6451612903226,4,1,0,85,0,1
80498,-81.3008130081301,4,1,0,85,0,1
80585,-81.9672131147541,4,1,0,85,0,1
80760,-83.3333333333333,4,1,0,85,0,1
80934,-84.7457627118644,4,1,0,85,0,1
81021,-85.4700854700855,4,1,0,85,0,1
81108,-86.2068965517241,4,1,0,85,0,1
81196,-86.9565217391304,4,1,0,85,0,1
81283,-87.719298245614,4,1,0,85,0,1
81457,-89.2857142857143,4,1,0,85,0,1
81632,-90.9090909090909,4,1,0,85,0,1
81980,-94.3396226415094,4,1,0,85,0,1
82155,-96.1538461538461,4,1,0,85,0,1
82329,-74.0740740740741,4,1,0,85,0,1
82678,-76.9230769230769,4,1,0,85,0,1
82853,-78.4313725490196,4,1,0,85,0,1
82940,-78.7401574803149,4,1,0,85,0,1
83027,-79.3650793650794,4,1,0,85,0,1
83289,-81.3008130081301,4,1,0,85,0,1
83376,-81.9672131147541,4,1,0,85,0,1
83551,-83.3333333333333,4,1,0,85,0,1
83725,-84.7457627118644,4,1,0,85,0,1
83812,-85.4700854700855,4,1,0,85,0,1
83899,-86.2068965517241,4,1,0,85,0,1
83987,-86.9565217391304,4,1,0,85,0,1
84074,-87.719298245614,4,1,0,85,0,1
84248,-89.2857142857143,4,1,0,85,0,1
84423,-90.9090909090909,4,1,0,85,0,1
84684,-93.4579439252336,4,1,0,85,0,1
84771,-94.3396226415094,4,1,0,85,0,1
84946,-96.1538461538461,4,1,0,85,0,1
85120,-74.0740740740741,4,1,0,85,0,1
85469,-76.9230769230769,4,1,0,85,0,1
85644,-78.4313725490196,4,1,0,85,0,1
85731,-78.7401574803149,4,1,0,85,0,1
85818,-79.3650793650794,4,1,0,85,0,1
85992,-80.6451612903226,4,1,0,85,0,1
86080,-81.3008130081301,4,1,0,85,0,1
86167,-81.9672131147541,4,1,0,85,0,1
86342,-83.3333333333333,4,1,0,85,0,1
86516,-84.7457627118644,4,1,0,85,0,1
86603,-85.4700854700855,4,1,0,85,0,1
86690,-86.2068965517241,4,1,0,85,0,1
86778,-86.9565217391304,4,1,0,85,0,1
86865,-87.719298245614,4,1,0,85,0,1
87039,-89.2857142857143,4,1,0,85,0,1
87214,-90.9090909090909,4,1,0,85,0,1
87562,-94.3396226415094,4,1,0,85,0,1
87737,-96.1538461538461,4,1,0,85,0,1
87911,-74.0740740740741,4,1,0,85,0,1
88260,-76.9230769230769,4,1,0,85,0,1
88435,-78.4313725490196,4,1,0,85,0,1
88522,-78.7401574803149,4,1,0,85,0,1
88609,-79.3650793650794,4,1,0,85,0,1
88871,-81.3008130081301,4,1,0,85,0,1
88958,-81.9672131147541,4,1,0,85,0,1
89132,-83.3333333333333,4,1,0,85,0,1
89307,-83.3333333333333,4,1,0,65,0,0
89481,-86.9565217391304,4,1,0,65,0,0
89656,-90.9090909090909,4,1,0,65,0,0
89830,-95.2380952380952,4,1,0,65,0,0
90005,-100,4,1,0,65,0,0
90179,-105.263157894737,4,1,0,65,0,0
90353,-111.111111111111,4,1,0,65,0,0
90702,-125,4,1,0,50,0,0
96284,-111.111111111111,4,1,0,50,0,0
100470,-100,4,1,0,50,0,0
100818,-90.9090909090909,4,1,0,50,0,0
101167,-83.3333333333333,4,1,0,50,0,0
101516,-76.9230769230769,4,1,0,50,0,0

[HitObjects]
256,192,1400,5,8,0:0:0:0:
256,192,2621,1,8,0:0:0:0:
256,192,2970,1,0,0:0:0:0:
256,192,3144,1,8,0:0:0:0:
256,192,3318,1,8,0:0:0:0:
256,192,3493,1,0,0:0:0:0:
256,192,3842,1,8,0:0:0:0:
256,192,5237,1,0,0:0:0:0:
256,192,5411,1,8,0:0:0:0:
256,192,5760,1,8,0:0:0:0:
256,192,5935,1,8,0:0:0:0:
256,192,6109,1,0,0:0:0:0:
256,192,6458,1,0,0:0:0:0:
256,192,6632,1,8,0:0:0:0:
256,192,8028,1,0,0:0:0:0:
256,192,8202,1,8,0:0:0:0:
256,192,8725,1,8,0:0:0:0:
256,192,8900,1,0,0:0:0:0:
256,192,9074,1,8,0:0:0:0:
256,192,9249,1,8,0:0:0:0:
256,192,9423,1,0,0:0:0:0:
256,192,9772,1,8,0:0:0:0:
256,192,10295,1,0,0:0:0:0:
256,192,10470,1,8,0:0:0:0:
256,192,10818,1,0,0:0:0:0:
256,192,11516,1,8,0:0:0:0:
256,192,11865,1,8,0:0:0:0:
256,192,12563,1,8,0:0:0:0:
256,192,12911,1,0,0:0:0:0:
256,192,13086,1,8,0:0:0:0:
256,192,13173,1,8,0:0:0:0:
256,192,13260,1,8,0:0:0:0:
256,192,13609,1,0,0:0:0:0:
256,192,13784,1,8,0:0:0:0:
256,192,13958,1,0,0:0:0:0:
256,192,14132,1,8,0:0:0:0:
256,192,14307,1,8,0:0:0:0:
256,192,14481,1,0,0:0:0:0:
256,192,14656,1,8,0:0:0:0:
256,192,14830,1,8,0:0:0:0:
256,192,15005,1,8,0:0:0:0:
256,192,15179,1,0,0:0:0:0:
256,192,15266,1,0,0:0:0:0:
256,192,15353,1,8,0:0:0:0:
256,192,15702,1,0,0:0:0:0:
256,192,15877,1,8,0:0:0:0:
256,192,15964,1,8,0:0:0:0:
256,192,16051,1,8,0:0:0:0:
256,192,16400,1,0,0:0:0:0:
256,192,16574,1,8,0:0:0:0:
256,192,16749,1,0,0:0:0:0:
256,192,16923,1,8,0:0:0:0:
256,192,17098,1,8,0:0:0:0:
256,192,17272,1,8,0:0:0:0:
256,192,17446,1,0,0:0:0:0:
256,192,17621,1,8,0:0:0:0:
256,192,17795,1,0,0:0:0:0:
256,192,17970,1,8,0:0:0:0:
256,192,18057,1,0,0:0:0:0:
256,192,18144,1,8,0:0:0:0:
256,192,18493,1,0,0:0:0:0:
256,192,18667,1,8,0:0:0:0:
256,192,18755,1,8,0:0:0:0:
256,192,18842,1,8,0:0:0:0:
256,192,19191,1,0,0:0:0:0:
256,192,19365,1,8,0:0:0:0:
256,192,19539,1,0,0:0:0:0:
256,192,19888,1,0,0:0:0:0:
256,192,20063,1,8,0:0:0:0:
256,192,20237,1,0,0:0:0:0:
256,192,20411,1,8,0:0:0:0:
256,192,20586,1,0,0:0:0:0:
256,192,20760,1,8,0:0:0:0:
256,192,20848,1,0,0:0:0:0:
256,192,20935,1,8,0:0:0:0:
256,192,21284,1,0,0:0:0:0:
256,192,21458,1,8,0:0:0:0:
256,192,21545,1,8,0:0:0:0:
256,192,21632,1,8,0:0:0:0:
256,192,21981,1,0,0:0:0:0:
256,192,22330,1,8,0:0:0:0:
256,192,22679,1,0,0:0:0:0:
256,192,23028,1,0,0:0:0:0:
256,192,23377,1,0,0:0:0:0:
256,192,23725,1,0,0:0:0:0:
256,192,23813,1,0,0:0:0:0:
256,192,23900,1,0,0:0:0:0:
256,192,24074,1,8,0:0:0:0:
256,192,24249,1,0,0:0:0:0:
256,192,24423,1,8,0:0:0:0:
256,192,24685,1,0,0:0:0:0:
256,192,24772,1,8,0:0:0:0:
256,192,24946,1,0,0:0:0:0:
256,192,25121,1,8,0:0:0:0:
256,192,25295,1,8,0:0:0:0:
256,192,25470,1,0,0:0:0:0:
256,192,25644,1,0,0:0:0:0:
256,192,25818,1,8,0:0:0:0:
256,192,26167,1,0,0:0:0:0:
256,192,26342,1,0,0:0:0:0:
256,192,26516,1,8,0:0:0:0:
256,192,26691,1,8,0:0:0:0:
256,192,26865,1,0,0:0:0:0:
256,192,27039,1,8,0:0:0:0:
256,192,27127,1,0,0:0:0:0:
256,192,27214,1,8,0:0:0:0:
256,192,27388,1,0,0:0:0:0:
256,192,27563,1,8,0:0:0:0:
256,192,27737,1,0,0:0:0:0:
256,192,27911,1,8,0:0:0:0:
256,192,27999,1,8,0:0:0:0:
256,192,28086,1,0,0:0:0:0:
256,192,28260,1,8,0:0:0:0:
256,192,28435,1,0,0:0:0:0:
256,192,28609,1,8,0:0:0:0:
256,192,28871,1,0,0:0:0:0:
256,192,28958,1,8,0:0:0:0:
256,192,29132,1,0,0:0:0:0:
256,192,29307,1,8,0:0:0:0:
256,192,29656,1,8,0:0:0:0:
256,192,29830,1,8,0:0:0:0:
256,192,29917,1,8,0:0:0:0:
256,192,30005,1,0,0:0:0:0:
256,192,30266,1,0,0:0:0:0:
256,192,30353,1,8,0:0:0:0:
256,192,30528,1,0,0:0:0:0:
256,192,30702,1,8,0:0:0:0:
256,192,30877,1,8,0:0:0:0:
256,192,30964,1,8,0:0:0:0:
256,192,31051,1,0,0:0:0:0:
256,192,31225,1,0,0:0:0:0:
256,192,31400,1,8,0:0:0:0:
256,192,31749,1,8,0:0:0:0:
256,192,31923,1,0,0:0:0:0:
256,192,32098,1,8,0:0:0:0:
256,192,32446,1,8,0:0:0:0:
256,192,32621,1,0,0:0:0:0:
256,192,32708,1,0,0:0:0:0:
256,192,32795,1,8,0:0:0:0:
256,192,32970,1,8,0:0:0:0:
256,192,33144,1,8,0:0:0:0:
256,192,33318,1,0,0:0:0:0:
256,192,33493,1,8,0:0:0:0:
256,192,33580,1,8,0:0:0:0:
256,192,33667,1,0,0:0:0:0:
256,192,33842,1,8,0:0:0:0:
256,192,34016,1,0,0:0:0:0:
256,192,34191,1,8,0:0:0:0:
256,192,34452,1,0,0:0:0:0:
256,192,34539,1,8,0:0:0:0:
256,192,34714,1,0,0:0:0:0:
256,192,34888,1,0,0:0:0:0:
256,192,34975,1,0,0:0:0:0:
256,192,35063,1,0,0:0:0:0:
256,192,35237,1,0,0:0:0:0:
256,192,35411,1,8,0:0:0:0:
256,192,35499,1,8,0:0:0:0:
256,192,35586,1,8,0:0:0:0:
256,192,35848,1,0,0:0:0:0:
256,192,35935,1,8,0:0:0:0:
256,192,36109,1,0,0:0:0:0:
256,192,36284,1,8,0:0:0:0:
256,192,36371,1,0,0:0:0:0:
256,192,36458,1,8,0:0:0:0:
256,192,36632,1,0,0:0:0:0:
256,192,36807,1,0,0:0:0:0:
256,192,36981,1,8,0:0:0:0:
256,192,37330,1,8,0:0:0:0:
256,192,37505,1,0,0:0:0:0:
256,192,37679,1,8,0:0:0:0:
256,192,38028,1,0,0:0:0:0:
256,192,38202,1,8,0:0:0:0:
256,192,38289,1,8,0:0:0:0:
256,192,38377,1,8,0:0:0:0:
256,192,38551,1,0,0:0:0:0:
256,192,38638,1,0,0:0:0:0:
256,192,38725,1,8,0:0:0:0:
256,192,38900,1,0,0:0:0:0:
256,192,39074,1,8,0:0:0:0:
256,192,39161,1,0,0:0:0:0:
256,192,39249,1,8,0:0:0:0:
256,192,39423,1,0,0:0:0:0:
256,192,39598,1,0,0:0:0:0:
256,192,39772,1,8,0:0:0:0:
256,192,40034,1,0,0:0:0:0:
256,192,40121,1,8,0:0:0:0:
256,192,40295,1,0,0:0:0:0:
256,192,40470,1,8,0:0:0:0:
256,192,40818,1,0,0:0:0:0:
256,192,40993,1,8,0:0:0:0:
256,192,41080,1,8,0:0:0:0:
256,192,41167,1,8,0:0:0:0:
256,192,41429,1,0,0:0:0:0:
256,192,41516,1,8,0:0:0:0:
256,192,41691,1,0,0:0:0:0:
256,192,41865,1,8,0:0:0:0:
256,192,42039,1,8,0:0:0:0:
256,192,42127,1,8,0:0:0:0:
256,192,42214,1,0,0:0:0:0:
256,192,42388,1,0,0:0:0:0:
256,192,42563,1,8,0:0:0:0:
256,192,42911,1,0,0:0:0:0:
256,192,43086,1,0,0:0:0:0:
256,192,43260,1,8,0:0:0:0:
256,192,43609,1,0,0:0:0:0:
256,192,43784,1,8,0:0:0:0:
256,192,43871,1,8,0:0:0:0:
256,192,43958,1,8,0:0:0:0:
256,192,44132,1,0,0:0:0:0:
256,192,44220,1,0,0:0:0:0:
256,192,44307,1,8,0:0:0:0:
256,192,44481,1,0,0:0:0:0:
256,192,44656,1,8,0:0:0:0:
256,192,44830,1,0,0:0:0:0:
256,192,45005,1,8,0:0:0:0:
256,192,45179,1,8,0:0:0:0:
256,192,45353,1,0,0:0:0:0:
256,192,45615,1,0,0:0:0:0:
256,192,45702,1,8,0:0:0:0:
256,192,45877,1,0,0:0:0:0:
256,192,46051,1,8,0:0:0:0:
256,192,48144,5,0,0:0:0:0:
256,192,48493,1,8,0:0:0:0:
256,192,48667,1,0,0:0:0:0:
256,192,48755,1,0,0:0:0:0:
256,192,48842,1,0,0:0:0:0:
251,194,49191,1,0,0:0:0:0:
256,192,49365,1,8,0:0:0:0:
251,194,49452,1,8,0:0:0:0:
251,194,49539,1,8,0:0:0:0:
251,194,49714,1,0,0:0:0:0:
251,194,49888,1,8,0:0:0:0:
251,194,50237,1,8,0:0:0:0:
256,192,50324,1,8,0:0:0:0:
251,194,50411,1,0,0:0:0:0:
251,194,50586,1,8,0:0:0:0:
251,194,50760,1,0,0:0:0:0:
251,194,50935,1,8,0:0:0:0:
256,192,51196,1,0,0:0:0:0:
256,192,51284,1,8,0:0:0:0:
256,192,51458,1,0,0:0:0:0:
256,192,51632,1,8,0:0:0:0:
256,192,51981,1,0,0:0:0:0:
251,194,52156,1,8,0:0:0:0:
251,194,52243,1,8,0:0:0:0:
251,194,52330,1,8,0:0:0:0:
256,192,52505,1,8,0:0:0:0:
256,192,52592,1,0,0:0:0:0:
256,192,52679,1,8,0:0:0:0:
256,192,52853,1,0,0:0:0:0:
256,192,53028,1,8,0:0:0:0:
256,192,53115,1,8,0:0:0:0:
256,192,53202,1,0,0:0:0:0:
256,192,53377,1,8,0:0:0:0:
256,192,53551,1,0,0:0:0:0:
256,192,53725,1,8,0:0:0:0:
256,192,54074,1,0,0:0:0:0:
256,192,54249,1,0,0:0:0:0:
256,192,54423,1,8,0:0:0:0:
256,192,54598,1,8,0:0:0:0:
256,192,54772,1,0,0:0:0:0:
251,194,54946,1,8,0:0:0:0:
251,194,55034,1,8,0:0:0:0:
251,194,55121,1,8,0:0:0:0:
256,192,55295,1,0,0:0:0:0:
256,192,55382,1,0,0:0:0:0:
256,192,55470,1,8,0:0:0:0:
256,192,55644,1,0,0:0:0:0:
256,192,55818,1,8,0:0:0:0:
256,192,55906,1,0,0:0:0:0:
256,192,55993,1,8,0:0:0:0:
256,192,56167,1,0,0:0:0:0:
256,192,56342,1,0,0:0:0:0:
256,192,56516,1,8,0:0:0:0:
256,192,56778,1,0,0:0:0:0:
256,192,56865,1,8,0:0:0:0:
256,192,57039,1,0,0:0:0:0:
256,192,57214,1,0,0:0:0:0:
256,192,57301,1,0,0:0:0:0:
256,192,57388,1,0,0:0:0:0:
256,192,57563,1,0,0:0:0:0:
251,194,57737,1,8,0:0:0:0:
251,194,57824,1,8,0:0:0:0:
251,194,57911,1,8,0:0:0:0:
256,192,58173,1,0,0:0:0:0:
256,192,58260,1,8,0:0:0:0:
256,192,58435,1,0,0:0:0:0:
256,192,58609,1,8,0:0:0:0:
256,192,58696,1,8,0:0:0:0:
256,192,58784,1,0,0:0:0:0:
256,192,58958,1,8,0:0:0:0:
256,192,59132,1,8,0:0:0:0:
256,192,59307,1,0,0:0:0:0:
256,192,59656,1,8,0:0:0:0:
256,192,59830,1,0,0:0:0:0:
256,192,60005,1,8,0:0:0:0:
256,192,60353,1,0,0:0:0:0:
251,194,60528,1,8,0:0:0:0:
256,192,60615,1,8,0:0:0:0:
251,194,60702,1,8,0:0:0:0:
256,192,60877,1,0,0:0:0:0:
251,194,60964,1,0,0:0:0:0:
256,192,61051,1,8,0:0:0:0:
256,192,61225,1,0,0:0:0:0:
256,192,61400,1,8,0:0:0:0:
256,192,61574,1,8,0:0:0:0:
256,192,61661,1,0,0:0:0:0:
256,192,61749,1,8,0:0:0:0:
256,192,61923,1,0,0:0:0:0:
256,192,62098,1,8,0:0:0:0:
256,192,62359,1,0,0:0:0:0:
256,192,62446,1,8,0:0:0:0:
256,192,62621,1,0,0:0:0:0:
256,192,62795,1,8,0:0:0:0:
256,192,63144,1,0,0:0:0:0:
251,194,63318,1,8,0:0:0:0:
256,192,63406,1,8,0:0:0:0:
251,194,63493,1,8,0:0:0:0:
256,192,63667,1,8,0:0:0:0:
256,192,63755,1,0,0:0:0:0:
256,192,63842,1,8,0:0:0:0:
256,192,64016,1,0,0:0:0:0:
256,192,64191,1,8,0:0:0:0:
256,192,64365,1,8,0:0:0:0:
256,192,64452,1,8,0:0:0:0:
256,192,64539,1,0,0:0:0:0:
256,192,64714,1,0,0:0:0:0:
256,192,64888,1,8,0:0:0:0:
256,192,65237,1,0,0:0:0:0:
256,192,65411,1,0,0:0:0:0:
256,192,65586,1,8,0:0:0:0:
256,192,65935,1,0,0:0:0:0:
251,194,66109,1,8,0:0:0:0:
256,192,66196,1,8,0:0:0:0:
251,194,66284,1,8,0:0:0:0:
256,192,66458,1,0,0:0:0:0:
256,192,66545,1,0,0:0:0:0:
256,192,66632,1,8,0:0:0:0:
256,192,66807,1,0,0:0:0:0:
256,192,66981,1,8,0:0:0:0:
256,192,67068,1,0,0:0:0:0:
256,192,67156,1,8,0:0:0:0:
256,192,67330,1,8,0:0:0:0:
256,192,67505,1,0,0:0:0:0:
256,192,67679,1,8,0:0:0:0:
256,192,67941,1,0,0:0:0:0:
256,192,68028,1,8,0:0:0:0:
256,192,68202,1,0,0:0:0:0:
256,192,68377,1,0,0:0:0:0:
256,192,68464,1,0,0:0:0:0:
256,192,68551,1,0,0:0:0:0:
256,192,68725,1,0,0:0:0:0:
251,194,68900,1,8,0:0:0:0:
256,192,68987,1,8,0:0:0:0:
251,194,69074,1,8,0:0:0:0:
251,194,69249,1,8,0:0:0:0:
256,192,69336,1,0,0:0:0:0:
256,192,69423,1,8,0:0:0:0:
256,192,69598,1,0,0:0:0:0:
256,192,69772,1,8,0:0:0:0:
256,192,69859,1,8,0:0:0:0:
256,192,69946,1,0,0:0:0:0:
256,192,70034,1,0,0:0:0:0:
256,192,70121,1,8,0:0:0:0:
256,192,70295,1,8,0:0:0:0:
256,192,70470,1,0,0:0:0:0:
256,192,70818,1,8,0:0:0:0:
256,192,70993,1,0,0:0:0:0:
256,192,71167,1,8,0:0:0:0:
256,192,71516,1,0,0:0:0:0:
251,194,71691,1,8,0:0:0:0:
251,194,71778,1,8,0:0:0:0:
251,194,71865,1,8,0:0:0:0:
256,192,72127,1,0,0:0:0:0:
256,192,72214,1,8,0:0:0:0:
256,192,72388,1,0,0:0:0:0:
256,192,72563,1,8,0:0:0:0:
256,192,72650,1,0,0:0:0:0:
256,192,72737,1,8,0:0:0:0:
256,192,72824,1,0,0:0:0:0:
256,192,72911,1,8,0:0:0:0:
256,192,73086,1,0,0:0:0:0:
256,192,73260,1,8,0:0:0:0:
256,192,73522,1,0,0:0:0:0:
256,192,73609,1,8,0:0:0:0:
256,192,73784,1,0,0:0:0:0:
256,192,73958,1,8,0:0:0:0:
256,192,74307,1,0,0:0:0:0:
251,194,74481,1,8,0:0:0:0:
256,192,74568,1,8,0:0:0:0:
251,194,74656,1,8,0:0:0:0:
256,192,74830,1,8,0:0:0:0:
256,192,74917,1,0,0:0:0:0:
256,192,75005,1,8,0:0:0:0:
256,192,75179,1,0,0:0:0:0:
256,192,75353,1,8,0:0:0:0:
256,192,75441,1,0,0:0:0:0:
256,192,75528,1,0,0:0:0:0:
256,192,75615,1,0,0:0:0:0:
256,192,75702,1,8,0:0:0:0:
256,192,75877,1,8,0:0:0:0:
256,192,76051,1,0,0:0:0:0:
256,192,76400,1,0,0:0:0:0:
256,192,76574,1,0,0:0:0:0:
256,192,76749,1,8,0:0:0:0:
256,192,77098,1,0,0:0:0:0:
251,194,77272,1,8,0:0:0:0:
256,192,77359,1,8,0:0:0:0:
251,194,77446,1,8,0:0:0:0:
256,192,77708,1,0,0:0:0:0:
256,192,77795,1,8,0:0:0:0:
256,192,77970,1,0,0:0:0:0:
256,192,78144,1,8,0:0:0:0:
256,192,78318,1,8,0:0:0:0:
256,192,78493,1,0,0:0:0:0:
256,192,78667,1,0,0:0:0:0:
256,192,78842,1,8,0:0:0:0:
256,192,79191,1,0,0:0:0:0:
256,192,79539,1,0,0:0:0:0:
256,192,79627,1,0,0:0:0:0:
256,192,79714,1,0,0:0:0:0:
256,192,79888,1,0,0:0:0:0:
251,194,80063,1,8,0:0:0:0:
251,194,80150,1,8,0:0:0:0:
251,194,80237,1,8,0:0:0:0:
251,194,80411,1,8,0:0:0:0:
256,192,80499,1,0,0:0:0:0:
256,192,80586,1,8,0:0:0:0:
256,192,80760,1,0,0:0:0:0:
256,192,80935,1,8,0:0:0:0:
256,192,81022,1,8,0:0:0:0:
256,192,81109,1,0,0:0:0:0:
256,192,81196,1,0,0:0:0:0:
256,192,81284,1,8,0:0:0:0:
256,192,81458,1,8,0:0:0:0:
256,192,81632,1,0,0:0:0:0:
256,192,81981,1,8,0:0:0:0:
256,192,82156,1,0,0:0:0:0:
256,192,82330,1,8,0:0:0:0:
256,192,82679,1,0,0:0:0:0:
251,194,82853,1,8,0:0:0:0:
251,194,82941,1,8,0:0:0:0:
251,194,83028,1,8,0:0:0:0:
256,192,83289,1,0,0:0:0:0:
256,192,83377,1,8,0:0:0:0:
256,192,83551,1,0,0:0:0:0:
256,192,83725,1,8,0:0:0:0:
256,192,83813,1,0,0:0:0:0:
256,192,83900,1,8,0:0:0:0:
256,192,83987,1,0,0:0:0:0:
256,192,84074,1,8,0:0:0:0:
256,192,84249,1,0,0:0:0:0:
256,192,84423,1,8,0:0:0:0:
256,192,84685,1,0,0:0:0:0:
256,192,84772,1,8,0:0:0:0:
256,192,84946,1,0,0:0:0:0:
256,192,85121,1,8,0:0:0:0:
256,192,85470,1,0,0:0:0:0:
251,194,85644,1,8,0:0:0:0:
256,192,85731,1,8,0:0:0:0:
251,194,85818,1,8,0:0:0:0:
256,192,85993,1,8,0:0:0:0:
256,192,86080,1,0,0:0:0:0:
256,192,86167,1,8,0:0:0:0:
256,192,86342,1,0,0:0:0:0:
256,192,86516,1,8,0:0:0:0:
256,192,86603,1,0,0:0:0:0:
256,192,86691,1,0,0:0:0:0:
256,192,86778,1,0,0:0:0:0:
256,192,86865,1,8,0:0:0:0:
256,192,87039,1,8,0:0:0:0:
256,192,87214,1,0,0:0:0:0:
256,192,87563,1,0,0:0:0:0:
256,192,87737,1,0,0:0:0:0:
256,192,87911,1,8,0:0:0:0:
256,192,88260,1,0,0:0:0:0:
251,194,88435,1,8,0:0:0:0:
256,192,88522,1,8,0:0:0:0:
251,194,88609,1,8,0:0:0:0:
256,192,88871,1,0,0:0:0:0:
256,192,88958,1,8,0:0:0:0:
256,192,89132,1,0,0:0:0:0:
256,192,89307,5,8,0:0:0:0:
256,192,89481,1,8,0:0:0:0:
256,192,89656,1,0,0:0:0:0:
256,192,89830,1,0,0:0:0:0:
256,192,90005,1,8,0:0:0:0:
256,192,90179,1,0,0:0:0:0:
256,192,90353,1,8,0:0:0:0:
256,192,90702,1,8,0:0:0:0:
256,192,96284,5,0,0:0:0:0:
256,192,96632,1,0,0:0:0:0:
256,192,96807,1,8,0:0:0:0:
256,192,96894,1,8,0:0:0:0:
256,192,96981,1,8,0:0:0:0:
256,192,97330,1,8,0:0:0:0:
256,192,97679,1,0,0:0:0:0:
256,192,98028,1,0,0:0:0:0:
256,192,98202,1,8,0:0:0:0:
256,192,98377,1,0,0:0:0:0:
256,192,98725,1,8,0:0:0:0:
256,192,98900,1,8,0:0:0:0:
256,192,98987,1,8,0:0:0:0:
256,192,99074,1,0,0:0:0:0:
256,192,99423,1,8,0:0:0:0:
256,192,99598,1,8,0:0:0:0:
256,192,99685,1,8,0:0:0:0:
256,192,99772,1,8,0:0:0:0:
256,192,100121,1,0,0:0:0:0:
256,192,100470,1,8,0:0:0:0:
256,192,100818,1,8,0:0:0:0:
256,192,101167,1,8,0:0:0:0:
256,192,101516,1,8,0:0:0:0:
