osu file format v14

[General]
AudioFilename: audio.mp3
AudioLeadIn: 0
PreviewTime: 68377
Countdown: 0
SampleSet: Normal
StackLeniency: 0.7
Mode: 1
LetterboxInBreaks: 0
WidescreenStoryboard: 0

[Editor]
Bookmarks: 1400
DistanceSpacing: 1
BeatDivisor: 8
GridSize: 32
TimelineZoom: 3.2

[Metadata]
Title:Scream
TitleUnicode:叫び
Artist:Takayan
ArtistUnicode:たかやん
Creator:Froskya
Version:Aphonogelia
Source:
Tags:japanese pop jpop j-pop sakebi hip-hop hiphop hip hop bad example Nugodesuga tachibana_ ryxliee revialink
BeatmapID:3572336
BeatmapSetID:1746469

[Difficulty]
HPDrainRate:6.5
CircleSize:2
OverallDifficulty:6
ApproachRate:10
SliderMultiplier:1.4
SliderTickRate:1

[Events]
//Background and Video events
0,0,"sadge.jpg",0,70
//Break Periods
2,46251,47694
2,90902,95834
//Storyboard Layer 0 (Background)
//Storyboard Layer 1 (Fail)
//Storyboard Layer 2 (Pass)
//Storyboard Layer 3 (Foreground)
//Storyboard Layer 4 (Overlay)
//Storyboard Sound Samples

[TimingPoints]
5,348.837209302326,4,1,0,40,1,8
5,-125,4,1,0,40,0,0
12563,-111.111111111111,4,1,0,55,0,0
22505,-108.108108108108,4,1,0,55,0,0
22679,-105.263157894737,4,1,0,55,0,0
22853,-102.564102564103,4,1,0,55,0,0
23028,-100,4,1,0,55,0,0
23202,-97.5609756097561,4,1,0,55,0,0
23377,-95.2380952380952,4,1,0,55,0,0
23551,-93.0232558139535,4,1,0,55,0,0
23725,-62.5,4,1,0,75,0,0
23769,-64.5161290322581,4,1,0,75,0,0
23813,-66.6666666666667,4,1,0,75,0,0
23856,-68.9655172413793,4,1,0,75,0,0
23900,-71.4285714285714,4,1,0,75,0,0
24074,-90.9090909090909,4,1,0,75,0,0
34888,-62.5,4,1,0,75,0,0
34932,-64.5161290322581,4,1,0,75,0,0
34975,-66.6666666666667,4,1,0,75,0,0
35019,-68.9655172413793,4,1,0,75,0,0
35063,-71.4285714285714,4,1,0,75,0,0
35237,-90.9090909090909,4,1,0,75,0,0
44656,-95.2380952380952,4,1,0,75,0,0
44743,-97.5609756097561,4,1,0,75,0,0
44830,-100,4,1,0,75,0,0
44917,-102.564102564103,4,1,0,75,0,0
45005,-105.263157894737,4,1,0,75,0,0
45179,-111.111111111111,4,1,0,75,0,0
45353,-117.647058823529,4,1,0,75,0,0
45615,-121.212121212121,4,1,0,75,0,0
45702,-125,4,1,0,75,0,0
45877,-133.333333333333,4,1,0,75,0,0
46051,-142.857142857143,4,1,0,65,0,0
48144,-111.111111111111,4,1,0,75,0,0
48493,-100,4,1,0,75,0,0
48667,-62.5,4,1,0,75,0,0
48711,-64.5161290322581,4,1,0,75,0,0
48755,-66.6666666666667,4,1,0,75,0,0
48798,-68.9655172413793,4,1,0,75,0,0
48842,-71.4285714285714,4,1,0,75,0,0
49191,-90.9090909090909,4,1,0,75,0,0
57214,-62.5,4,1,0,75,0,0
57257,-64.5161290322581,4,1,0,75,0,0
57301,-66.6666666666667,4,1,0,75,0,0
57345,-68.9655172413793,4,1,0,75,0,0
57388,-71.4285714285714,4,1,0,75,0,0
57563,-90.9090909090909,4,1,0,75,0,0
68377,-62.5,4,1,0,85,0,1
68420,-64.5161290322581,4,1,0,85,0,1
68464,-66.6666666666667,4,1,0,85,0,1
68507,-68.9655172413793,4,1,0,85,0,1
68551,-71.4285714285714,4,1,0,85,0,1
68725,-66.6666666666667,4,1,0,85,0,1
68900,-68.9655172413793,4,1,0,85,0,1
68958,-69.7836706210747,4,1,0,85,0,1
69016,-70.5827381443939,4,1,0,85,0,1
69074,-71.4285714285714,4,1,0,85,0,1
69249,-74.0740740740741,4,1,0,85,0,1
69336,-75.4716981132076,4,1,0,85,0,1
69423,-76.9230769230769,4,1,0,85,0,1
69598,-80,4,1,0,85,0,1
69772,-83.3333333333333,4,1,0,85,0,1
69859,-85.1063829787234,4,1,0,85,0,1
69946,-86.9565217391304,4,1,0,85,0,1
70034,-88.8888888888889,4,1,0,85,0,1
70121,-90.9090909090909,4,1,0,85,0,1
70295,-95.2380952380952,4,1,0,85,0,1
70382,-97.5609756097561,4,1,0,85,0,1
70470,-100,4,1,0,85,0,1
70644,-105.263157894737,4,1,0,85,0,1
70731,-108.108108108108,4,1,0,85,0,1
70818,-111.111111111111,4,1,0,85,0,1
70993,-117.647058823529,4,1,0,85,0,1
71167,-62.5,4,1,0,85,0,1
71255,-63.4920634920635,4,1,0,85,0,1
71342,-64.5161290322581,4,1,0,85,0,1
71516,-66.6666666666667,4,1,0,85,0,1
71691,-68.9655172413793,4,1,0,85,0,1
71749,-69.7836706210747,4,1,0,85,0,1
71807,-70.5827381443939,4,1,0,85,0,1
71865,-71.4285714285714,4,1,0,85,0,1
72039,-74.0740740740741,4,1,0,85,0,1
72127,-75.4716981132076,4,1,0,85,0,1
72214,-76.9230769230769,4,1,0,85,0,1
72388,-80,4,1,0,85,0,1
72563,-83.3333333333333,4,1,0,85,0,1
72650,-85.1063829787234,4,1,0,85,0,1
72737,-86.9565217391304,4,1,0,85,0,1
72824,-88.8888888888889,4,1,0,85,0,1
72911,-90.9090909090909,4,1,0,85,0,1
73086,-95.2380952380952,4,1,0,85,0,1
73173,-97.5609756097561,4,1,0,85,0,1
73260,-100,4,1,0,85,0,1
73435,-105.263157894737,4,1,0,85,0,1
73522,-108.108108108108,4,1,0,85,0,1
73609,-111.111111111111,4,1,0,85,0,1
73784,-117.647058823529,4,1,0,85,0,1
73958,-62.5,4,1,0,85,0,1
74045,-63.4920634920635,4,1,0,85,0,1
74132,-64.5161290322581,4,1,0,85,0,1
74307,-66.6666666666667,4,1,0,85,0,1
74481,-68.9655172413793,4,1,0,85,0,1
74539,-69.7836706210747,4,1,0,85,0,1
74598,-70.5827381443939,4,1,0,85,0,1
74656,-71.4285714285714,4,1,0,85,0,1
74830,-74.0740740740741,4,1,0,85,0,1
74917,-75.4716981132076,4,1,0,85,0,1
75005,-76.9230769230769,4,1,0,85,0,1
75179,-80,4,1,0,85,0,1
75353,-83.3333333333333,4,1,0,85,0,1
75441,-85.1063829787234,4,1,0,85,0,1
75528,-86.9565217391304,4,1,0,85,0,1
75615,-88.8888888888889,4,1,0,85,0,1
75702,-90.9090909090909,4,1,0,85,0,1
75877,-95.2380952380952,4,1,0,85,0,1
75964,-97.5609756097561,4,1,0,85,0,1
76051,-100,4,1,0,85,0,1
76225,-105.263157894737,4,1,0,85,0,1
76313,-108.108108108108,4,1,0,85,0,1
76400,-111.111111111111,4,1,0,85,0,1
76574,-117.647058823529,4,1,0,85,0,1
76749,-62.5,4,1,0,85,0,1
76836,-63.4920634920635,4,1,0,85,0,1
76923,-64.5161290322581,4,1,0,85,0,1
77098,-66.6666666666667,4,1,0,85,0,1
77272,-68.9655172413793,4,1,0,85,0,1
77330,-69.7836706210747,4,1,0,85,0,1
77388,-70.5827381443939,4,1,0,85,0,1
77446,-71.4285714285714,4,1,0,85,0,1
77621,-74.0740740740741,4,1,0,85,0,1
77708,-75.4716981132076,4,1,0,85,0,1
77795,-76.9230769230769,4,1,0,85,0,1
77970,-80,4,1,0,85,0,1
78057,-81.6326530612245,4,1,0,85,0,1
78144,-83.3333333333333,4,1,0,65,0,0
78318,-90.9090909090909,4,1,0,65,0,0
78493,-100,4,1,0,65,0,0
78667,-111.111111111111,4,1,0,65,0,0
78842,-125,4,1,0,65,0,0
79191,-166.666666666667,4,1,0,65,0,0
79539,-62.5,4,1,0,85,0,1
79583,-64.5161290322581,4,1,0,85,0,1
79627,-66.6666666666667,4,1,0,85,0,1
79670,-68.9655172413793,4,1,0,85,0,1
79714,-71.4285714285714,4,1,0,85,0,1
79888,-66.6666666666667,4,1,0,85,0,1
80063,-68.9655172413793,4,1,0,85,0,1
80121,-69.7836706210747,4,1,0,85,0,1
80179,-70.5827381443939,4,1,0,85,0,1
80237,-71.4285714285714,4,1,0,85,0,1
80411,-74.0740740740741,4,1,0,85,0,1
80499,-75.4716981132076,4,1,0,85,0,1
80586,-76.9230769230769,4,1,0,85,0,1
80760,-80,4,1,0,85,0,1
80935,-83.3333333333333,4,1,0,85,0,1
81022,-85.1063829787234,4,1,0,85,0,1
81109,-86.9565217391304,4,1,0,85,0,1
81196,-88.8888888888889,4,1,0,85,0,1
81284,-90.9090909090909,4,1,0,85,0,1
81458,-95.2380952380952,4,1,0,85,0,1
81545,-97.5609756097561,4,1,0,85,0,1
81632,-100,4,1,0,85,0,1
81807,-105.263157894737,4,1,0,85,0,1
81894,-108.108108108108,4,1,0,85,0,1
81981,-111.111111111111,4,1,0,85,0,1
82156,-117.647058823529,4,1,0,85,0,1
82330,-62.5,4,1,0,85,0,1
82417,-63.4920634920635,4,1,0,85,0,1
82505,-64.5161290322581,4,1,0,85,0,1
82679,-66.6666666666667,4,1,0,85,0,1
82853,-68.9655172413793,4,1,0,85,0,1
82911,-69.7836706210747,4,1,0,85,0,1
82970,-70.5827381443939,4,1,0,85,0,1
83028,-71.4285714285714,4,1,0,85,0,1
83202,-74.0740740740741,4,1,0,85,0,1
83289,-75.4716981132076,4,1,0,85,0,1
83377,-76.9230769230769,4,1,0,85,0,1
83551,-80,4,1,0,85,0,1
83725,-83.3333333333333,4,1,0,85,0,1
83813,-85.1063829787234,4,1,0,85,0,1
83900,-86.9565217391304,4,1,0,85,0,1
83987,-88.8888888888889,4,1,0,85,0,1
84074,-90.9090909090909,4,1,0,85,0,1
84249,-95.2380952380952,4,1,0,85,0,1
84336,-97.5609756097561,4,1,0,85,0,1
84423,-100,4,1,0,85,0,1
84598,-105.263157894737,4,1,0,85,0,1
84685,-108.108108108108,4,1,0,85,0,1
84772,-111.111111111111,4,1,0,85,0,1
84946,-117.647058823529,4,1,0,85,0,1
85121,-62.5,4,1,0,85,0,1
85208,-63.4920634920635,4,1,0,85,0,1
85295,-64.5161290322581,4,1,0,85,0,1
85470,-66.6666666666667,4,1,0,85,0,1
85644,-68.9655172413793,4,1,0,85,0,1
85702,-69.7836706210747,4,1,0,85,0,1
85760,-70.5827381443939,4,1,0,85,0,1
85818,-71.4285714285714,4,1,0,85,0,1
85993,-74.0740740740741,4,1,0,85,0,1
86080,-75.4716981132076,4,1,0,85,0,1
86167,-76.9230769230769,4,1,0,85,0,1
86342,-80,4,1,0,85,0,1
86516,-83.3333333333333,4,1,0,85,0,1
86603,-85.1063829787234,4,1,0,85,0,1
86691,-86.9565217391304,4,1,0,85,0,1
86778,-88.8888888888889,4,1,0,85,0,1
86865,-90.9090909090909,4,1,0,85,0,1
87039,-95.2380952380952,4,1,0,85,0,1
87127,-97.5609756097561,4,1,0,85,0,1
87214,-100,4,1,0,85,0,1
87388,-105.263157894737,4,1,0,85,0,1
87475,-108.108108108108,4,1,0,85,0,1
87563,-111.111111111111,4,1,0,85,0,1
87737,-117.647058823529,4,1,0,85,0,1
87911,-62.5,4,1,0,85,0,1
87999,-63.4920634920635,4,1,0,85,0,1
88086,-64.5161290322581,4,1,0,85,0,1
88260,-66.6666666666667,4,1,0,85,0,1
88435,-68.9655172413793,4,1,0,85,0,1
88493,-69.7836706210747,4,1,0,85,0,1
88551,-70.5827381443939,4,1,0,85,0,1
88609,-71.4285714285714,4,1,0,85,0,1
88784,-74.0740740740741,4,1,0,85,0,1
88871,-75.4716981132076,4,1,0,85,0,1
88958,-76.9230769230769,4,1,0,85,0,1
89132,-80,4,1,0,85,0,1
89307,-83.3333333333333,4,1,0,65,0,0
89481,-86.9565217391304,4,1,0,65,0,0
89656,-90.9090909090909,4,1,0,65,0,0
89830,-95.2380952380952,4,1,0,65,0,0
90005,-100,4,1,0,65,0,0
90179,-105.263157894737,4,1,0,65,0,0
90353,-111.111111111111,4,1,0,65,0,0
90702,-125,4,1,0,50,0,0
96284,-111.111111111111,4,1,0,50,0,0
100295,-105.263157894737,4,1,0,50,0,0
100470,-100,4,1,0,50,0,0
100644,-95.2380952380952,4,1,0,50,0,0
100818,-90.9090909090909,4,1,0,50,0,0
100993,-86.9565217391304,4,1,0,50,0,0
101167,-83.3333333333333,4,1,0,50,0,0
101342,-80,4,1,0,50,0,0
101516,-76.9230769230769,4,1,0,50,0,0
101691,-74.0740740740741,4,1,0,50,0,0

[HitObjects]
256,192,1400,5,0,0:0:0:0:
256,192,2621,1,8,0:0:0:0:
256,192,2970,1,0,0:0:0:0:
256,192,3144,1,8,0:0:0:0:
256,192,3318,1,0,0:0:0:0:
256,192,3493,1,8,0:0:0:0:
256,192,3842,1,8,0:0:0:0:
256,192,4191,1,0,0:0:0:0:
256,192,5237,1,0,0:0:0:0:
256,192,5411,1,8,0:0:0:0:
256,192,5760,1,8,0:0:0:0:
256,192,5935,1,8,0:0:0:0:
256,192,6109,1,0,0:0:0:0:
256,192,6458,1,0,0:0:0:0:
256,192,6632,1,8,0:0:0:0:
256,192,6981,1,0,0:0:0:0:
256,192,8028,1,0,0:0:0:0:
256,192,8202,1,8,0:0:0:0:
256,192,8725,1,8,0:0:0:0:
256,192,8900,1,8,0:0:0:0:
256,192,9074,1,0,0:0:0:0:
256,192,9249,1,0,0:0:0:0:
256,192,9423,1,8,0:0:0:0:
256,192,9772,1,0,0:0:0:0:
256,192,10295,1,0,0:0:0:0:
256,192,10470,1,8,0:0:0:0:
256,192,10644,1,8,0:0:0:0:
256,192,10818,1,0,0:0:0:0:
256,192,11167,1,0,0:0:0:0:
256,192,11516,1,8,0:0:0:0:
256,192,11865,1,8,0:0:0:0:
256,192,12563,1,8,0:0:0:0:
256,192,12737,1,0,0:0:0:0:
256,192,12911,1,0,0:0:0:0:
256,192,13086,1,8,0:0:0:0:
256,192,13144,1,8,0:0:0:0:
256,192,13202,1,8,0:0:0:0:
256,192,13260,1,8,0:0:0:0:
256,192,13435,1,0,0:0:0:0:
256,192,13609,1,8,0:0:0:0:
256,192,13784,1,8,0:0:0:0:
256,192,13958,1,0,0:0:0:0:
256,192,14132,1,8,0:0:0:0:
256,192,14307,1,8,0:0:0:0:
256,192,14481,1,0,0:0:0:0:
256,192,14656,1,8,0:0:0:0:
256,192,14830,1,0,0:0:0:0:
256,192,15005,1,8,0:0:0:0:
256,192,15179,1,0,0:0:0:0:
256,192,15266,1,0,0:0:0:0:
256,192,15353,1,8,0:0:0:0:
256,192,15528,1,0,0:0:0:0:
256,192,15702,1,0,0:0:0:0:
256,192,15877,1,8,0:0:0:0:
256,192,15935,1,8,0:0:0:0:
256,192,15993,1,8,0:0:0:0:
256,192,16051,1,8,0:0:0:0:
256,192,16225,1,0,0:0:0:0:
256,192,16400,1,8,0:0:0:0:
256,192,16574,1,8,0:0:0:0:
256,192,16749,1,0,0:0:0:0:
256,192,16923,1,8,0:0:0:0:
256,192,17098,1,0,0:0:0:0:
256,192,17272,1,8,0:0:0:0:
256,192,17446,1,0,0:0:0:0:
256,192,17621,1,8,0:0:0:0:
256,192,17795,1,0,0:0:0:0:
256,192,17970,1,8,0:0:0:0:
256,192,18057,1,0,0:0:0:0:
256,192,18144,1,8,0:0:0:0:
256,192,18318,1,0,0:0:0:0:
256,192,18493,1,0,0:0:0:0:
256,192,18667,1,8,0:0:0:0:
256,192,18725,1,8,0:0:0:0:
256,192,18784,1,8,0:0:0:0:
256,192,18842,1,8,0:0:0:0:
256,192,19016,1,0,0:0:0:0:
256,192,19191,1,8,0:0:0:0:
256,192,19365,1,8,0:0:0:0:
256,192,19539,1,0,0:0:0:0:
256,192,19714,1,0,0:0:0:0:
256,192,19888,1,8,0:0:0:0:
256,192,20063,1,8,0:0:0:0:
256,192,20237,1,0,0:0:0:0:
256,192,20411,1,8,0:0:0:0:
256,192,20586,1,0,0:0:0:0:
256,192,20760,1,8,0:0:0:0:
256,192,20848,1,8,0:0:0:0:
256,192,20935,1,8,0:0:0:0:
256,192,21109,1,0,0:0:0:0:
256,192,21284,1,0,0:0:0:0:
256,192,21458,1,8,0:0:0:0:
256,192,21516,1,8,0:0:0:0:
256,192,21574,1,8,0:0:0:0:
256,192,21632,1,8,0:0:0:0:
256,192,21807,1,0,0:0:0:0:
256,192,21981,1,0,0:0:0:0:
256,192,22156,1,0,0:0:0:0:
256,192,22330,1,8,0:0:0:0:
256,192,22505,1,0,0:0:0:0:
256,192,22679,1,8,0:0:0:0:
256,192,22853,1,0,0:0:0:0:
256,192,23028,1,8,0:0:0:0:
256,192,23202,1,0,0:0:0:0:
256,192,23377,1,8,0:0:0:0:
256,192,23551,1,8,0:0:0:0:
256,192,23725,1,0,0:0:0:0:
256,192,23769,1,0,0:0:0:0:
256,192,23813,1,0,0:0:0:0:
256,192,23856,1,0,0:0:0:0:
256,192,23900,1,0,0:0:0:0:
256,192,24074,1,8,0:0:0:0:
256,192,24249,1,8,0:0:0:0:
256,192,24423,1,0,0:0:0:0:
256,192,24598,1,8,0:0:0:0:
256,192,24685,1,0,0:0:0:0:
256,192,24772,1,8,0:0:0:0:
256,192,24946,1,0,0:0:0:0:
256,192,25121,1,8,0:0:0:0:
256,192,25295,1,8,0:0:0:0:
256,192,25470,1,0,0:0:0:0:
256,192,25644,1,8,0:0:0:0:
256,192,25818,1,0,0:0:0:0:
256,192,26167,1,0,0:0:0:0:
256,192,26342,1,0,0:0:0:0:
256,192,26516,1,8,0:0:0:0:
256,192,26691,1,0,0:0:0:0:
256,192,26865,1,8,0:0:0:0:
256,192,27039,1,8,0:0:0:0:
256,192,27127,1,0,0:0:0:0:
256,192,27214,1,8,0:0:0:0:
256,192,27388,1,0,0:0:0:0:
256,192,27563,1,8,0:0:0:0:
256,192,27737,1,0,0:0:0:0:
256,192,27911,1,8,0:0:0:0:
256,192,27999,1,0,0:0:0:0:
256,192,28086,1,8,0:0:0:0:
256,192,28173,1,8,0:0:0:0:
256,192,28260,1,0,0:0:0:0:
256,192,28435,1,8,0:0:0:0:
256,192,28609,1,0,0:0:0:0:
256,192,28871,1,0,0:0:0:0:
256,192,28958,1,8,0:0:0:0:
256,192,29132,1,0,0:0:0:0:
256,192,29307,1,8,0:0:0:0:
256,192,29656,1,8,0:0:0:0:
256,192,29830,1,8,0:0:0:0:
256,192,29917,1,8,0:0:0:0:
256,192,30005,1,0,0:0:0:0:
256,192,30266,1,0,0:0:0:0:
256,192,30353,1,8,0:0:0:0:
256,192,30528,1,0,0:0:0:0:
256,192,30702,1,8,0:0:0:0:
256,192,30877,1,8,0:0:0:0:
256,192,30964,1,8,0:0:0:0:
256,192,31051,1,0,0:0:0:0:
256,192,31225,1,0,0:0:0:0:
256,192,31400,1,8,0:0:0:0:
256,192,31749,1,8,0:0:0:0:
256,192,31923,1,0,0:0:0:0:
256,192,32098,1,8,0:0:0:0:
256,192,32446,1,8,0:0:0:0:
256,192,32621,1,0,0:0:0:0:
256,192,32708,1,0,0:0:0:0:
256,192,32795,1,8,0:0:0:0:
256,192,32970,1,8,0:0:0:0:
256,192,33144,1,0,0:0:0:0:
256,192,33318,1,0,0:0:0:0:
256,192,33493,1,8,0:0:0:0:
256,192,33580,1,0,0:0:0:0:
256,192,33667,1,8,0:0:0:0:
256,192,33755,1,0,0:0:0:0:
256,192,33842,1,8,0:0:0:0:
256,192,34016,1,0,0:0:0:0:
256,192,34103,1,0,0:0:0:0:
256,192,34191,1,8,0:0:0:0:
256,192,34452,1,8,0:0:0:0:
256,192,34539,1,0,0:0:0:0:
256,192,34714,1,8,0:0:0:0:
256,192,34888,1,0,0:0:0:0:
256,192,34932,1,0,0:0:0:0:
256,192,34975,1,0,0:0:0:0:
256,192,35019,1,0,0:0:0:0:
256,192,35063,1,0,0:0:0:0:
256,192,35237,1,8,0:0:0:0:
256,192,35411,1,8,0:0:0:0:
256,192,35470,1,8,0:0:0:0:
256,192,35528,1,8,0:0:0:0:
256,192,35586,1,0,0:0:0:0:
256,192,35760,1,8,0:0:0:0:
256,192,35848,1,0,0:0:0:0:
256,192,35935,1,8,0:0:0:0:
256,192,36109,1,0,0:0:0:0:
256,192,36284,1,8,0:0:0:0:
256,192,36371,1,0,0:0:0:0:
256,192,36458,1,8,0:0:0:0:
256,192,36545,1,8,0:0:0:0:
256,192,36632,1,0,0:0:0:0:
256,192,36807,1,8,0:0:0:0:
256,192,36981,1,0,0:0:0:0:
256,192,37330,1,8,0:0:0:0:
256,192,37505,1,0,0:0:0:0:
256,192,37679,1,8,0:0:0:0:
256,192,38028,1,8,0:0:0:0:
256,192,38202,1,8,0:0:0:0:
256,192,38260,1,8,0:0:0:0:
256,192,38318,1,8,0:0:0:0:
256,192,38377,1,0,0:0:0:0:
256,192,38551,1,0,0:0:0:0:
256,192,38638,1,0,0:0:0:0:
256,192,38725,1,8,0:0:0:0:
256,192,38900,1,0,0:0:0:0:
256,192,39074,1,8,0:0:0:0:
256,192,39249,1,0,0:0:0:0:
256,192,39336,1,0,0:0:0:0:
256,192,39423,1,8,0:0:0:0:
256,192,39510,1,8,0:0:0:0:
256,192,39598,1,0,0:0:0:0:
256,192,39772,1,8,0:0:0:0:
256,192,40034,1,0,0:0:0:0:
256,192,40121,1,8,0:0:0:0:
256,192,40295,1,0,0:0:0:0:
256,192,40470,1,8,0:0:0:0:
256,192,40818,1,8,0:0:0:0:
256,192,40993,1,8,0:0:0:0:
256,192,41051,1,8,0:0:0:0:
256,192,41109,1,8,0:0:0:0:
256,192,41167,1,0,0:0:0:0:
256,192,41342,1,8,0:0:0:0:
256,192,41429,1,0,0:0:0:0:
256,192,41516,1,8,0:0:0:0:
256,192,41691,1,0,0:0:0:0:
256,192,41865,1,8,0:0:0:0:
256,192,41952,1,0,0:0:0:0:
256,192,42039,1,8,0:0:0:0:
256,192,42127,1,8,0:0:0:0:
256,192,42214,1,0,0:0:0:0:
256,192,42388,1,8,0:0:0:0:
256,192,42563,1,0,0:0:0:0:
256,192,42911,1,0,0:0:0:0:
256,192,43086,1,0,0:0:0:0:
256,192,43260,1,8,0:0:0:0:
256,192,43609,1,8,0:0:0:0:
256,192,43784,1,8,0:0:0:0:
256,192,43842,1,8,0:0:0:0:
256,192,43900,1,8,0:0:0:0:
256,192,43958,1,0,0:0:0:0:
256,192,44132,1,0,0:0:0:0:
256,192,44220,1,0,0:0:0:0:
256,192,44307,1,8,0:0:0:0:
256,192,44481,1,0,0:0:0:0:
256,192,44656,1,8,0:0:0:0:
256,192,44743,1,8,0:0:0:0:
256,192,44830,1,0,0:0:0:0:
256,192,44917,1,0,0:0:0:0:
256,192,45005,1,8,0:0:0:0:
256,192,45179,1,8,0:0:0:0:
256,192,45353,1,0,0:0:0:0:
256,192,45615,1,0,0:0:0:0:
256,192,45702,1,8,0:0:0:0:
256,192,45877,1,0,0:0:0:0:
256,192,46051,1,8,0:0:0:0:
256,192,48144,5,0,0:0:0:0:
256,192,48493,1,8,0:0:0:0:
256,192,48667,1,0,0:0:0:0:
256,192,48711,1,0,0:0:0:0:
256,192,48755,1,0,0:0:0:0:
256,192,48798,1,0,0:0:0:0:
256,192,48842,1,0,0:0:0:0:
256,192,49191,1,8,0:0:0:0:
256,192,49365,1,8,0:0:0:0:
256,192,49423,1,8,0:0:0:0:
256,192,49481,1,8,0:0:0:0:
256,192,49539,1,0,0:0:0:0:
256,192,49714,1,0,0:0:0:0:
256,192,49801,1,0,0:0:0:0:
256,192,49888,1,8,0:0:0:0:
256,192,50237,1,8,0:0:0:0:
256,192,50324,1,0,0:0:0:0:
256,192,50411,1,8,0:0:0:0:
256,192,50499,1,0,0:0:0:0:
256,192,50586,1,8,0:0:0:0:
256,192,50760,1,0,0:0:0:0:
256,192,50935,1,8,0:0:0:0:
256,192,51196,1,0,0:0:0:0:
256,192,51284,1,8,0:0:0:0:
256,192,51458,1,0,0:0:0:0:
256,192,51632,1,8,0:0:0:0:
256,192,51981,1,8,0:0:0:0:
256,192,52156,1,8,0:0:0:0:
256,192,52214,1,8,0:0:0:0:
256,192,52272,1,8,0:0:0:0:
256,192,52330,1,0,0:0:0:0:
256,192,52505,1,8,0:0:0:0:
256,192,52592,1,0,0:0:0:0:
256,192,52679,1,8,0:0:0:0:
256,192,52853,1,0,0:0:0:0:
256,192,53028,1,8,0:0:0:0:
256,192,53115,1,0,0:0:0:0:
256,192,53202,1,8,0:0:0:0:
256,192,53289,1,8,0:0:0:0:
256,192,53377,1,0,0:0:0:0:
256,192,53551,1,0,0:0:0:0:
256,192,53725,1,8,0:0:0:0:
256,192,54074,1,0,0:0:0:0:
256,192,54249,1,0,0:0:0:0:
256,192,54423,1,8,0:0:0:0:
256,192,54510,1,0,0:0:0:0:
256,192,54598,1,8,0:0:0:0:
256,192,54685,1,8,0:0:0:0:
256,192,54772,1,0,0:0:0:0:
256,192,54946,1,8,0:0:0:0:
256,192,55005,1,8,0:0:0:0:
256,192,55063,1,8,0:0:0:0:
256,192,55121,1,0,0:0:0:0:
256,192,55295,1,0,0:0:0:0:
256,192,55382,1,0,0:0:0:0:
256,192,55470,1,8,0:0:0:0:
256,192,55644,1,0,0:0:0:0:
256,192,55818,1,8,0:0:0:0:
256,192,55906,1,0,0:0:0:0:
256,192,55993,1,0,0:0:0:0:
256,192,56080,1,8,0:0:0:0:
256,192,56167,1,0,0:0:0:0:
256,192,56342,1,8,0:0:0:0:
256,192,56516,1,0,0:0:0:0:
256,192,56778,1,8,0:0:0:0:
256,192,56865,1,0,0:0:0:0:
256,192,57039,1,8,0:0:0:0:
256,192,57214,1,0,0:0:0:0:
256,192,57257,1,0,0:0:0:0:
256,192,57301,1,0,0:0:0:0:
256,192,57345,1,0,0:0:0:0:
256,192,57388,1,0,0:0:0:0:
256,192,57563,1,8,0:0:0:0:
256,192,57737,1,8,0:0:0:0:
256,192,57795,1,8,0:0:0:0:
256,192,57853,1,8,0:0:0:0:
256,192,57911,1,0,0:0:0:0:
256,192,58086,1,8,0:0:0:0:
256,192,58173,1,0,0:0:0:0:
256,192,58260,1,8,0:0:0:0:
256,192,58435,1,0,0:0:0:0:
256,192,58609,1,8,0:0:0:0:
256,192,58696,1,8,0:0:0:0:
256,192,58784,1,0,0:0:0:0:
256,192,58871,1,0,0:0:0:0:
256,192,58958,1,8,0:0:0:0:
256,192,59132,1,8,0:0:0:0:
256,192,59307,1,0,0:0:0:0:
256,192,59656,1,8,0:0:0:0:
256,192,59830,1,0,0:0:0:0:
256,192,60005,1,8,0:0:0:0:
256,192,60353,1,8,0:0:0:0:
256,192,60528,1,8,0:0:0:0:
256,192,60586,1,8,0:0:0:0:
256,192,60644,1,8,0:0:0:0:
256,192,60702,1,0,0:0:0:0:
256,192,60877,1,0,0:0:0:0:
256,192,60964,1,0,0:0:0:0:
256,192,61051,1,8,0:0:0:0:
256,192,61225,1,0,0:0:0:0:
256,192,61400,1,8,0:0:0:0:
256,192,61487,1,0,0:0:0:0:
256,192,61574,1,8,0:0:0:0:
256,192,61661,1,0,0:0:0:0:
256,192,61749,1,8,0:0:0:0:
256,192,61923,1,0,0:0:0:0:
256,192,62098,1,8,0:0:0:0:
256,192,62359,1,0,0:0:0:0:
256,192,62446,1,8,0:0:0:0:
256,192,62621,1,0,0:0:0:0:
256,192,62795,1,8,0:0:0:0:
256,192,63144,1,8,0:0:0:0:
256,192,63318,1,8,0:0:0:0:
256,192,63377,1,8,0:0:0:0:
256,192,63435,1,8,0:0:0:0:
256,192,63493,1,0,0:0:0:0:
256,192,63667,1,0,0:0:0:0:
256,192,63755,1,8,0:0:0:0:
256,192,63842,1,0,0:0:0:0:
256,192,64016,1,8,0:0:0:0:
256,192,64191,1,0,0:0:0:0:
256,192,64278,1,0,0:0:0:0:
256,192,64365,1,8,0:0:0:0:
256,192,64452,1,0,0:0:0:0:
256,192,64539,1,8,0:0:0:0:
256,192,64714,1,0,0:0:0:0:
256,192,64888,1,8,0:0:0:0:
256,192,65237,1,0,0:0:0:0:
256,192,65411,1,0,0:0:0:0:
256,192,65586,1,8,0:0:0:0:
256,192,65935,1,8,0:0:0:0:
256,192,66109,1,8,0:0:0:0:
256,192,66167,1,8,0:0:0:0:
256,192,66225,1,8,0:0:0:0:
256,192,66284,1,0,0:0:0:0:
256,192,66458,1,0,0:0:0:0:
256,192,66545,1,0,0:0:0:0:
256,192,66632,1,8,0:0:0:0:
256,192,66807,1,0,0:0:0:0:
256,192,66981,1,8,0:0:0:0:
256,192,67068,1,8,0:0:0:0:
256,192,67156,1,0,0:0:0:0:
256,192,67243,1,0,0:0:0:0:
256,192,67330,1,8,0:0:0:0:
256,192,67505,1,0,0:0:0:0:
256,192,67679,1,8,0:0:0:0:
256,192,67941,1,8,0:0:0:0:
256,192,68028,1,0,0:0:0:0:
256,192,68202,1,8,0:0:0:0:
256,192,68377,1,0,0:0:0:0:
256,192,68420,1,0,0:0:0:0:
256,192,68464,1,0,0:0:0:0:
256,192,68507,1,0,0:0:0:0:
256,192,68551,1,0,0:0:0:0:
256,192,68725,1,8,0:0:0:0:
256,192,68900,1,8,0:0:0:0:
256,192,68958,1,8,0:0:0:0:
256,192,69016,1,8,0:0:0:0:
256,192,69074,1,0,0:0:0:0:
256,192,69249,1,0,0:0:0:0:
256,192,69336,1,8,0:0:0:0:
256,192,69423,1,0,0:0:0:0:
256,192,69598,1,8,0:0:0:0:
256,192,69772,1,0,0:0:0:0:
256,192,69859,1,0,0:0:0:0:
256,192,69946,1,8,0:0:0:0:
256,192,70034,1,8,0:0:0:0:
256,192,70121,1,0,0:0:0:0:
256,192,70295,1,8,0:0:0:0:
256,192,70382,1,0,0:0:0:0:
256,192,70470,1,8,0:0:0:0:
256,192,70644,1,8,0:0:0:0:
256,192,70731,1,8,0:0:0:0:
256,192,70818,1,0,0:0:0:0:
256,192,70993,1,0,0:0:0:0:
256,192,71167,1,8,0:0:0:0:
256,192,71255,1,8,0:0:0:0:
256,192,71342,1,0,0:0:0:0:
256,192,71516,1,8,0:0:0:0:
256,192,71691,1,8,0:0:0:0:
256,192,71749,1,8,0:0:0:0:
256,192,71807,1,8,0:0:0:0:
256,192,71865,1,0,0:0:0:0:
256,192,72039,1,8,0:0:0:0:
256,192,72127,1,8,0:0:0:0:
256,192,72214,1,0,0:0:0:0:
256,192,72388,1,8,0:0:0:0:
256,192,72563,1,0,0:0:0:0:
256,192,72650,1,0,0:0:0:0:
256,192,72737,1,8,0:0:0:0:
256,192,72824,1,0,0:0:0:0:
256,192,72911,1,8,0:0:0:0:
256,192,73086,1,0,0:0:0:0:
256,192,73173,1,0,0:0:0:0:
256,192,73260,1,8,0:0:0:0:
256,192,73435,1,8,0:0:0:0:
256,192,73522,1,0,0:0:0:0:
256,192,73609,1,8,0:0:0:0:
256,192,73784,1,0,0:0:0:0:
256,192,73958,1,8,0:0:0:0:
256,192,74045,1,8,0:0:0:0:
256,192,74132,1,0,0:0:0:0:
256,192,74307,1,8,0:0:0:0:
256,192,74481,1,8,0:0:0:0:
256,192,74539,1,8,0:0:0:0:
256,192,74598,1,8,0:0:0:0:
256,192,74656,1,0,0:0:0:0:
256,192,74830,1,0,0:0:0:0:
256,192,74917,1,8,0:0:0:0:
256,192,75005,1,0,0:0:0:0:
256,192,75179,1,8,0:0:0:0:
256,192,75353,1,8,0:0:0:0:
256,192,75441,1,0,0:0:0:0:
256,192,75528,1,8,0:0:0:0:
256,192,75615,1,0,0:0:0:0:
256,192,75702,1,8,0:0:0:0:
256,192,75877,1,8,0:0:0:0:
256,192,75964,1,0,0:0:0:0:
256,192,76051,1,8,0:0:0:0:
256,192,76225,1,0,0:0:0:0:
256,192,76313,1,8,0:0:0:0:
256,192,76400,1,0,0:0:0:0:
256,192,76574,1,0,0:0:0:0:
256,192,76749,1,8,0:0:0:0:
256,192,76836,1,8,0:0:0:0:
256,192,76923,1,0,0:0:0:0:
256,192,77098,1,8,0:0:0:0:
256,192,77272,1,8,0:0:0:0:
256,192,77330,1,8,0:0:0:0:
256,192,77388,1,8,0:0:0:0:
256,192,77446,1,0,0:0:0:0:
256,192,77621,1,8,0:0:0:0:
256,192,77708,1,0,0:0:0:0:
256,192,77795,1,8,0:0:0:0:
256,192,77970,1,0,0:0:0:0:
256,192,78057,1,0,0:0:0:0:
256,192,78144,1,8,0:0:0:0:
256,192,78318,1,8,0:0:0:0:
256,192,78493,1,0,0:0:0:0:
256,192,78667,1,0,0:0:0:0:
256,192,78842,1,8,0:0:0:0:
256,192,79191,1,0,0:0:0:0:
256,192,79539,1,0,0:0:0:0:
256,192,79583,1,0,0:0:0:0:
256,192,79627,1,0,0:0:0:0:
256,192,79670,1,0,0:0:0:0:
256,192,79714,1,0,0:0:0:0:
256,192,79888,1,8,0:0:0:0:
256,192,80063,1,8,0:0:0:0:
256,192,80121,1,8,0:0:0:0:
256,192,80179,1,8,0:0:0:0:
256,192,80237,1,0,0:0:0:0:
256,192,80411,1,8,0:0:0:0:
256,192,80499,1,0,0:0:0:0:
256,192,80586,1,8,0:0:0:0:
256,192,80760,1,0,0:0:0:0:
256,192,80935,1,8,0:0:0:0:
256,192,81022,1,8,0:0:0:0:
256,192,81109,1,0,0:0:0:0:
256,192,81196,1,0,0:0:0:0:
256,192,81284,1,8,0:0:0:0:
256,192,81458,1,0,0:0:0:0:
256,192,81545,1,0,0:0:0:0:
256,192,81632,1,8,0:0:0:0:
256,192,81807,1,0,0:0:0:0:
256,192,81894,1,8,0:0:0:0:
256,192,81981,1,0,0:0:0:0:
256,192,82156,1,0,0:0:0:0:
256,192,82330,1,8,0:0:0:0:
256,192,82417,1,8,0:0:0:0:
256,192,82505,1,0,0:0:0:0:
256,192,82679,1,8,0:0:0:0:
256,192,82853,1,8,0:0:0:0:
256,192,82911,1,8,0:0:0:0:
256,192,82970,1,8,0:0:0:0:
256,192,83028,1,0,0:0:0:0:
256,192,83202,1,0,0:0:0:0:
256,192,83289,1,0,0:0:0:0:
256,192,83377,1,8,0:0:0:0:
256,192,83551,1,0,0:0:0:0:
256,192,83725,1,8,0:0:0:0:
256,192,83813,1,0,0:0:0:0:
256,192,83900,1,8,0:0:0:0:
256,192,83987,1,8,0:0:0:0:
256,192,84074,1,0,0:0:0:0:
256,192,84249,1,8,0:0:0:0:
256,192,84336,1,0,0:0:0:0:
256,192,84423,1,8,0:0:0:0:
256,192,84598,1,0,0:0:0:0:
256,192,84685,1,8,0:0:0:0:
256,192,84772,1,0,0:0:0:0:
256,192,84946,1,0,0:0:0:0:
256,192,85121,1,8,0:0:0:0:
254,199,85208,1,8,0:0:0:0:
256,192,85295,1,0,0:0:0:0:
256,192,85470,1,8,0:0:0:0:
256,192,85644,1,8,0:0:0:0:
256,192,85702,1,8,0:0:0:0:
256,192,85760,1,8,0:0:0:0:
256,192,85818,1,0,0:0:0:0:
256,192,85993,1,8,0:0:0:0:
256,192,86080,1,0,0:0:0:0:
256,192,86167,1,8,0:0:0:0:
256,192,86342,1,0,0:0:0:0:
256,192,86516,1,8,0:0:0:0:
256,192,86603,1,0,0:0:0:0:
256,192,86691,1,8,0:0:0:0:
256,192,86778,1,0,0:0:0:0:
256,192,86865,1,8,0:0:0:0:
256,192,87039,1,8,0:0:0:0:
256,192,87127,1,8,0:0:0:0:
256,192,87214,1,0,0:0:0:0:
256,192,87388,1,0,0:0:0:0:
256,192,87475,1,8,0:0:0:0:
256,192,87563,1,0,0:0:0:0:
256,192,87737,1,0,0:0:0:0:
256,192,87911,1,8,0:0:0:0:
256,192,87999,1,8,0:0:0:0:
256,192,88086,1,0,0:0:0:0:
256,192,88260,1,8,0:0:0:0:
256,192,88435,1,8,0:0:0:0:
256,192,88493,1,8,0:0:0:0:
256,192,88551,1,8,0:0:0:0:
256,192,88609,1,0,0:0:0:0:
256,192,88784,1,0,0:0:0:0:
256,192,88871,1,0,0:0:0:0:
256,192,88958,1,8,0:0:0:0:
256,192,89132,1,0,0:0:0:0:
256,192,89307,1,8,0:0:0:0:
256,192,89481,1,0,0:0:0:0:
256,192,89656,1,8,0:0:0:0:
256,192,89830,1,8,0:0:0:0:
256,192,90005,1,8,0:0:0:0:
256,192,90179,1,0,0:0:0:0:
256,192,90353,1,8,0:0:0:0:
256,192,90702,1,0,0:0:0:0:
256,192,96284,5,8,0:0:0:0:
256,192,96458,1,0,0:0:0:0:
256,192,96632,1,8,0:0:0:0:
256,192,96807,1,8,0:0:0:0:
256,192,96865,1,8,0:0:0:0:
256,192,96923,1,8,0:0:0:0:
256,192,96981,1,8,0:0:0:0:
256,192,97156,1,0,0:0:0:0:
256,192,97330,1,8,0:0:0:0:
256,192,97505,1,0,0:0:0:0:
256,192,97679,1,8,0:0:0:0:
256,192,97853,1,0,0:0:0:0:
256,192,98028,1,0,0:0:0:0:
256,192,98202,1,8,0:0:0:0:
256,192,98377,1,8,0:0:0:0:
256,192,98551,1,0,0:0:0:0:
256,192,98725,1,8,0:0:0:0:
256,192,98900,1,0,0:0:0:0:
256,192,98987,1,0,0:0:0:0:
256,192,99074,1,8,0:0:0:0:
256,192,99249,1,0,0:0:0:0:
256,192,99423,1,8,0:0:0:0:
256,192,99598,1,8,0:0:0:0:
256,192,99656,1,8,0:0:0:0:
256,192,99714,1,8,0:0:0:0:
256,192,99772,1,8,0:0:0:0:
256,192,99946,1,0,0:0:0:0:
256,192,100121,1,8,0:0:0:0:
256,192,100295,1,0,0:0:0:0:
256,192,100470,1,8,0:0:0:0:
256,192,100644,1,0,0:0:0:0:
256,192,100818,1,8,0:0:0:0:
256,192,100993,1,0,0:0:0:0:
256,192,101167,1,8,0:0:0:0:
256,192,101342,1,0,0:0:0:0:
256,192,101516,1,8,0:0:0:0:
256,192,101691,1,8,0:0:0:0:
