osu file format v14

[General]
AudioFilename: audio.mp3
AudioLeadIn: 0
PreviewTime: 64687
Countdown: 0
SampleSet: Soft
StackLeniency: 0.2
Mode: 0
LetterboxInBreaks: 0
WidescreenStoryboard: 0

[Editor]
Bookmarks: 5082,25293,45503,65714,85924,96030,116240,136451,156661,166766,176872,197082,217293
DistanceSpacing: 3.7
BeatDivisor: 4
GridSize: 32
TimelineZoom: 3.599999

[Metadata]
Title:Kusarikitta Jinsei da.
TitleUnicode:腐りきった人生だ。
Artist:Takayan
ArtistUnicode:たかやん
Creator:goopert
Version:Disappearance
Source:
Tags:全部くだらねえ。Zenbu Kudaranee japanese rock alternative hip hop rap hip-hop chaoticred rotten life yudragen newton- wafer
BeatmapID:2557258
BeatmapSetID:1229990

[Difficulty]
HPDrainRate:6
CircleSize:4.2
OverallDifficulty:8.8
ApproachRate:9.2
SliderMultiplier:1.4
SliderTickRate:1

[Events]
//Background and Video events
0,0,"2222.png",0,0
//Break Periods
2,156861,166196
//Storyboard Layer 0 (Background)
//Storyboard Layer 1 (Fail)
//Storyboard Layer 2 (Pass)
//Storyboard Layer 3 (Foreground)
//Storyboard Layer 4 (Overlay)
//Storyboard Sound Samples

[TimingPoints]
30,315.789473684211,4,2,0,45,1,0
5082,-66.6666666666667,4,2,0,60,0,0
5714,-76.9230769230769,4,2,0,60,0,0
10135,-66.6666666666667,4,2,0,60,0,0
10767,-76.9230769230769,4,2,0,60,0,0
15187,-66.6666666666667,4,2,0,60,0,0
15819,-76.9230769230769,4,2,0,60,0,0
20240,-66.6666666666667,4,2,0,60,0,0
20872,-76.9230769230769,4,2,0,60,0,0
25293,-117.647058823529,4,2,0,45,0,0
45503,-100,4,2,0,50,0,0
64451,-100,4,2,0,45,0,0
65714,-52.6315789473684,4,2,0,70,0,1
66030,-133.333333333333,4,2,0,70,0,1
66661,-66.6666666666667,4,2,0,70,0,1
68240,-52.6315789473684,4,2,0,70,0,1
68556,-133.333333333333,4,2,0,70,0,1
69187,-66.6666666666667,4,2,0,70,0,1
70135,-100,4,2,0,70,0,1
70451,-66.6666666666667,4,2,0,70,0,1
70766,-55.5555555555556,4,2,0,70,0,1
71398,-66.6666666666667,4,2,0,70,0,1
75819,-52.6315789473684,4,2,0,70,0,1
76135,-133.333333333333,4,2,0,70,0,1
76766,-66.6666666666667,4,2,0,70,0,1
78345,-52.6315789473684,4,2,0,70,0,1
78661,-133.333333333333,4,2,0,70,0,1
79292,-66.6666666666667,4,2,0,70,0,1
80240,-100,4,2,0,70,0,1
80556,-66.6666666666667,4,2,0,70,0,1
80871,-55.5555555555556,4,2,0,70,0,1
81503,-66.6666666666667,4,2,0,70,0,1
85924,-66.6666666666667,4,2,0,70,0,0
86240,-66.6666666666667,4,2,0,60,0,0
86556,-76.9230769230769,4,2,0,60,0,0
90977,-66.6666666666667,4,2,0,60,0,0
91608,-76.9230769230769,4,2,0,60,0,0
96030,-100,4,2,0,50,0,0
116240,-62.5,4,2,0,50,0,0
116556,-83.3333333333333,4,2,0,50,0,0
126661,-71.4285714285714,4,2,0,50,0,0
130766,-62.5,4,2,0,50,0,0
131714,-71.4285714285714,4,2,0,50,0,0
135503,-100,4,2,0,50,0,0
136451,-52.6315789473684,4,2,0,70,0,1
136767,-133.333333333333,4,2,0,70,0,1
137398,-66.6666666666667,4,2,0,70,0,1
138977,-52.6315789473684,4,2,0,70,0,1
139293,-133.333333333333,4,2,0,70,0,1
139924,-66.6666666666667,4,2,0,70,0,1
140872,-100,4,2,0,70,0,1
141187,-66.6666666666667,4,2,0,70,0,1
141503,-55.5555555555556,4,2,0,70,0,1
142135,-66.6666666666667,4,2,0,70,0,1
146556,-52.6315789473684,4,2,0,70,0,1
146872,-133.333333333333,4,2,0,70,0,1
147503,-66.6666666666667,4,2,0,70,0,1
149082,-52.6315789473684,4,2,0,70,0,1
149398,-133.333333333333,4,2,0,70,0,1
150029,-66.6666666666667,4,2,0,70,0,1
150977,-100,4,2,0,70,0,1
151293,-66.6666666666667,4,2,0,70,0,1
151608,-55.5555555555556,4,2,0,70,0,1
152240,-66.6666666666667,4,2,0,70,0,1
156661,-66.6666666666667,4,2,0,70,0,0
166766,-66.6666666666667,4,2,0,55,0,0
167082,-111.111111111111,4,2,0,55,0,0
171819,-66.6666666666667,4,2,0,55,0,0
172135,-111.111111111111,4,2,0,70,0,0
176872,-52.6315789473684,4,2,0,70,0,1
177188,-133.333333333333,4,2,0,70,0,1
177819,-66.6666666666667,4,2,0,70,0,1
179398,-52.6315789473684,4,2,0,70,0,1
180187,-66.6666666666667,4,2,0,70,0,1
180345,-66.6666666666667,4,2,0,70,0,1
181293,-100,4,2,0,70,0,1
181609,-66.6666666666667,4,2,0,70,0,1
181924,-55.5555555555556,4,2,0,70,0,1
182556,-66.6666666666667,4,2,0,70,0,1
186977,-52.6315789473684,4,2,0,70,0,1
187293,-133.333333333333,4,2,0,70,0,1
187924,-66.6666666666667,4,2,0,70,0,1
189503,-52.6315789473684,4,2,0,70,0,1
189819,-133.333333333333,4,2,0,70,0,1
190450,-66.6666666666667,4,2,0,70,0,1
191398,-100,4,2,0,70,0,1
191714,-66.6666666666667,4,2,0,70,0,1
192029,-55.5555555555556,4,2,0,70,0,1
192661,-66.6666666666667,4,2,0,70,0,1
196766,-66.6666666666667,4,2,0,70,0,0
197082,-52.6315789473684,4,2,0,70,0,1
197398,-133.333333333333,4,2,0,70,0,1
198029,-66.6666666666667,4,2,0,70,0,1
199608,-52.6315789473684,4,2,0,70,0,1
199924,-133.333333333333,4,2,0,70,0,1
200555,-66.6666666666667,4,2,0,70,0,1
201503,-100,4,2,0,70,0,1
201819,-66.6666666666667,4,2,0,70,0,1
202134,-55.5555555555556,4,2,0,70,0,1
202766,-66.6666666666667,4,2,0,70,0,1
207187,-52.6315789473684,4,2,0,70,0,1
207503,-133.333333333333,4,2,0,70,0,1
208134,-66.6666666666667,4,2,0,70,0,1
209713,-52.6315789473684,4,2,0,70,0,1
210029,-133.333333333333,4,2,0,70,0,1
210660,-66.6666666666667,4,2,0,70,0,1
211608,-100,4,2,0,70,0,1
211924,-66.6666666666667,4,2,0,70,0,1
212239,-55.5555555555556,4,2,0,70,0,1
212871,-66.6666666666667,4,2,0,70,0,1
216030,-66.6666666666667,4,2,0,50,0,1
216345,-66.6666666666667,4,2,0,50,0,0
217293,-100,4,2,0,40,0,0

[Colours]
Combo1 : 207,211,180
Combo2 : 168,176,200
Combo3 : 175,189,197
Combo4 : 199,173,193

[HitObjects]
88,90,30,5,2,0:0:0:0:
156,80,187,1,2,0:0:0:0:
156,80,503,1,2,0:0:0:0:
166,148,660,1,2,0:0:0:0:
166,148,977,1,2,0:0:0:0:
280,229,1293,5,2,0:0:0:0:
212,219,1450,1,2,0:0:0:0:
212,219,1766,1,2,0:0:0:0:
202,287,1923,1,2,0:0:0:0:
202,287,2240,1,2,0:0:0:0:
342,287,2556,5,2,0:0:0:0:
410,277,2713,1,2,0:0:0:0:
410,277,3029,1,2,0:0:0:0:
420,345,3186,1,2,0:0:0:0:
420,345,3503,1,2,0:0:0:0:
434,205,3819,5,2,0:0:0:0:
502,215,3976,1,2,0:0:0:0:
385,149,4135,5,2,0:0:0:0:
364,220,4293,2,0,P|295:207|219:194,1,140,2|0,0:0|0:0,0:0:0:0:
158,178,4766,1,2,0:0:0:0:
158,178,4924,1,2,0:0:0:0:
227,98,5082,6,0,B|184:54|124:74|124:74|89:132|24:116,1,210.000008010865,4|8,1:1|0:2,0:0:0:0:
50,39,5556,1,2,0:0:0:0:
158,177,5714,2,0,L|125:283,1,90.9999958343508,2|0,0:3|1:2,0:0:0:0:
29,360,6030,2,0,P|18:318|56:287,1,90.9999958343508,8|2,0:2|0:0,0:0:0:0:
282,336,6345,6,0,B|202:355|219:237|127:265,1,181.999991668702,6|8,1:2|0:2,0:0:0:0:
263,166,6819,1,2,0:0:0:0:
263,166,6977,2,0,L|278:279,1,90.9999958343508,2|0,0:3|1:2,0:0:0:0:
351,384,7293,2,0,P|377:349|354:292,1,90.9999958343508,10|0,0:2|0:0,0:0:0:0:
501,178,7608,6,0,B|423:130|423:130|383:237,1,181.999991668702,4|8,1:2|0:2,0:0:0:0:
465,250,8082,1,2,0:3:0:0:
338,140,8240,2,0,L|234:170,1,90.9999958343508,2|0,0:0|1:2,0:0:0:0:
398,50,8556,2,0,L|502:80,1,90.9999958343508,8|0,0:2|0:0,0:0:0:0:
269,72,8872,5,6,1:2:0:0:
326,16,9030,1,2,0:0:0:0:
121,89,9187,5,10,0:2:0:0:
178,33,9345,1,2,0:0:0:0:
24,188,9503,6,0,B|3:214|3:214|22:284,1,90.9999958343508,2|2,0:3|1:2,0:0:0:0:
130,363,9819,1,10,0:2:0:0:
214,243,9977,1,2,0:0:0:0:
387,257,10135,6,0,B|328:221|294:300|261:369|201:324,1,210.000008010865,4|8,1:1|0:2,0:0:0:0:
84,232,10608,1,2,0:0:0:0:
214,243,10766,1,2,0:3:0:0:
324,384,10924,5,0,1:2:0:0:
214,243,11082,2,0,P|248:213|285:186,1,90.9999958343508,8|2,0:2|0:0,0:0:0:0:
440,339,11398,6,0,B|399:311|399:311|432:141,1,181.999991668702,6|8,1:2|0:2,0:0:0:0:
303,97,11872,1,2,0:0:0:0:
303,97,12030,2,0,L|280:213,1,90.9999958343508,2|0,0:3|1:2,0:0:0:0:
494,181,12346,2,0,P|485:138|431:113,1,90.9999958343508,10|0,0:2|0:0,0:0:0:0:
285,186,12661,6,0,B|238:161|179:160|179:160|220:141|225:91,1,181.999991668702,4|8,1:2|0:2,0:0:0:0:
149,16,13135,1,2,0:3:0:0:
27,131,13293,2,0,L|131:101,1,90.9999958343508,2|0,0:0|1:2,0:0:0:0:
115,337,13608,2,0,L|10:304,1,90.9999958343508,10|2,0:2|0:2,0:0:0:0:
285,186,13924,5,6,1:2:0:0:
188,316,14082,1,4,0:3:0:0:
131,260,14239,5,2,1:2:0:0:
342,242,14397,1,4,0:3:0:0:
338,311,14556,6,0,B|370:270|370:270|335:234,1,90.9999958343508,2|4,1:2|0:3,0:0:0:0:
491,97,14872,5,4,0:3:0:0:
447,89,14951,1,4,0:3:0:0:
410,113,15030,1,4,0:3:0:0:
399,156,15109,1,4,0:3:0:0:
419,195,15187,6,0,B|429:161|447:153|447:153|285:106,1,210.000008010865,4|8,1:1|0:2,0:0:0:0:
168,78,15661,1,2,0:0:0:0:
259,8,15819,1,2,0:3:0:0:
259,8,15977,1,0,1:2:0:0:
301,212,16135,2,0,P|248:199|216:133,1,90.9999958343508,8|2,0:2|0:0,0:0:0:0:
26,78,16451,6,0,P|98:88|128:195,1,181.999991668702,6|8,1:2|0:2,0:0:0:0:
44,299,16924,1,2,0:0:0:0:
44,299,17082,2,0,L|21:183,1,90.9999958343508,2|0,0:3|1:2,0:0:0:0:
225,172,17398,2,0,P|221:220|161:271,1,90.9999958343508,10|0,0:2|0:0,0:0:0:0:
94,384,17714,6,0,B|126:300|126:300|204:348,1,181.999991668702,4|8,1:2|0:2,0:0:0:0:
356,272,18188,1,2,0:3:0:0:
356,272,18346,2,0,L|252:302,1,90.9999958343508,2|0,0:0|1:2,0:0:0:0:
410,145,18662,2,0,L|514:175,1,90.9999958343508,8|0,0:2|0:0,0:0:0:0:
306,162,18977,5,6,1:2:0:0:
250,105,19135,1,2,0:0:0:0:
468,81,19292,5,10,0:2:0:0:
412,24,19450,1,2,0:0:0:0:
285,190,19608,6,0,B|259:211|259:211|189:192,1,90.9999958343508,2|2,0:3|1:2,0:0:0:0:
88,92,19924,1,10,0:2:0:0:
218,0,20082,1,2,0:0:0:0:
42,23,20240,6,0,B|-3:57|-3:57|35:206,1,210.000008010865,4|8,1:1|0:2,0:0:0:0:
88,345,20714,1,2,0:0:0:0:
120,225,20872,1,2,0:3:0:0:
252,121,21030,5,0,1:2:0:0:
120,225,21188,2,0,P|133:267|184:270,1,90.9999958343508,8|2,0:2|0:0,0:0:0:0:
335,192,21503,6,0,B|334:276|241:246|245:363,1,181.999991668702,6|8,1:2|0:2,0:0:0:0:
415,384,21977,1,2,0:0:0:0:
415,384,22135,2,0,L|392:268,1,90.9999958343508,2|0,0:3|1:2,0:0:0:0:
481,142,22451,2,0,L|463:231,1,90.9999958343508,10|0,0:2|0:0,0:0:0:0:
258,197,22766,6,0,B|378:180|378:180|400:89,1,181.999991668702,4|8,1:2|0:2,0:0:0:0:
275,30,23240,1,2,0:3:0:0:
158,131,23398,2,0,L|269:116,1,90.9999958343508,2|0,0:0|1:2,0:0:0:0:
90,247,23714,2,0,L|-21:232,1,90.9999958343508,10|2,0:2|0:2,0:0:0:0:
81,50,24030,5,6,1:2:0:0:
181,235,24187,1,4,0:3:0:0:
51,321,24345,5,2,1:2:0:0:
90,247,24502,1,4,0:3:0:0:
263,223,24661,5,2,1:2:0:0:
263,223,24818,1,4,0:3:0:0:
119,353,24977,5,4,0:3:0:0:
163,361,25056,1,4,0:3:0:0:
200,337,25135,1,4,0:3:0:0:
211,294,25214,1,4,0:3:0:0:
191,255,25293,6,0,B|256:253|245:284|312:290,1,119.000002269745,2|2,0:0|0:0,0:0:0:0:
342,373,25766,2,0,B|386:325|400:355|452:312,1,119.000002269745,2|2,0:3|0:0,0:0:0:0:
383,254,26240,2,0,B|382:221|397:226|400:193,1,59.5000011348725,2|0,0:3|0:0,0:0:0:0:
340,133,26556,5,2,0:0:0:0:
340,133,26872,1,2,0:0:0:0:
291,198,27030,1,2,0:3:0:0:
238,140,27187,1,2,0:0:0:0:
175,185,27345,2,0,B|232:187|232:187|242:194|242:194|293:198,1,119.000002269745,2|0,0:0|0:0,0:0:0:0:
141,255,27819,6,0,B|143:190|112:201|106:134,1,119.000002269745,2|2,0:3|0:0,0:0:0:0:
23,104,28292,2,0,B|71:60|41:46|84:-6,1,119.000002269745,2|2,0:3|0:3,0:0:0:0:
198,46,28766,2,0,B|170:49|175:64|142:63,1,59.5000011348725,2|0,0:0|0:0,0:0:0:0:
23,104,29082,6,0,P|18:177|15:239,1,119.000002269745,2|2,0:0|0:0,0:0:0:0:
72,289,29556,1,2,0:3:0:0:
23,341,29714,2,0,P|19:281|15:222,1,119.000002269745,2|0,0:0|0:0,0:0:0:0:
129,342,30345,6,0,B|195:333|175:379|248:375,1,119.000002269745,2|2,1:3|0:3,0:0:0:0:
302,325,30819,1,0,0:0:0:0:
286,249,30977,2,0,B|236:216|236:216|239:275,1,119.000002269745,2|2,0:0|0:3,0:0:0:0:
408,358,31608,6,0,B|472:353|447:310|520:305,1,119.000002269745,2|2,0:0|0:3,0:0:0:0:
425,230,32082,2,0,B|360:225|385:182|312:177,1,119.000002269745,2|2,0:3|0:3,0:0:0:0:
502,149,32556,6,0,B|501:105|501:105|485:146,1,89.2500017023087,2|0,0:0|0:0,0:0:0:0:
495,161,32872,6,0,L|381:106,1,119.000002269745,2|2,0:3|0:3,0:0:0:0:
321,178,33345,1,2,0:3:0:0:
321,178,33661,1,2,0:0:0:0:
260,129,33819,1,2,0:3:0:0:
310,70,33977,1,0,0:0:0:0:
254,204,34135,6,0,B|189:202|200:233|133:239,1,119.000002269745,2|2,0:0|0:0,0:0:0:0:
81,298,34608,1,2,0:3:0:0:
40,225,34766,1,2,0:0:0:0:
122,227,34924,1,2,0:0:0:0:
32,233,35082,1,2,0:3:0:0:
180,138,35398,6,0,P|190:73|201:3,1,119.000002269745,2|2,0:3|0:0,0:0:0:0:
96,29,35872,2,0,P|98:61|113:89,1,59.5000011348725,2|0,0:3|0:0,0:0:0:0:
180,138,36187,1,2,0:3:0:0:
265,100,36345,2,0,P|277:73|279:43,1,59.5000011348725,2|2,0:0|0:0,0:0:0:0:
258,190,36661,6,0,P|294:180|340:171,1,59.5000011348725,2|2,0:0|0:0,0:0:0:0:
439,117,36977,1,2,0:3:0:0:
408,202,37135,1,2,0:3:0:0:
315,175,37293,1,2,0:0:0:0:
412,190,37451,2,0,L|402:255,1,59.5000011348725,2|2,0:3|0:0,0:0:0:0:
403,249,37924,6,0,L|422:379,1,119.000002269745,2|2,0:3|0:3,0:0:0:0:
327,313,38398,1,2,0:3:0:0:
327,313,38714,1,2,0:3:0:0:
256,358,38872,6,0,P|226:341|197:329,1,59.5000011348725,2|0,0:0|0:0,0:0:0:0:
105,332,39187,2,0,P|122:302|134:273,1,59.5000011348725,2|0,0:0|0:0,0:0:0:0:
4,194,39503,6,0,B|50:186|50:186|77:201|77:201|121:196,1,119.000002269745,2|2,0:0|0:0,0:0:0:0:
118,196,39977,1,2,0:3:0:0:
211,80,40135,6,0,B|206:106|210:124|210:124|205:106|194:80,1,89.2500017023087,2|0,0:0|0:0,0:0:0:0:
204,68,40451,6,0,P|151:93|90:123,1,119.000002269745,2|2,1:3|0:0,0:0:0:0:
209,38,40924,1,2,0:3:0:0:
308,68,41082,2,0,P|361:93|422:123,1,119.000002269745,2|2,0:0|0:3,0:0:0:0:
415,119,41714,6,0,P|389:173|364:227,1,119.000002269745,2|2,0:3|0:0,0:0:0:0:
362,322,42187,1,2,0:3:0:0:
253,246,42345,2,0,P|272:282|284:322,1,59.5000011348725,2|2,0:0|0:3,0:0:0:0:
234,384,42661,2,0,P|200:361|213:306,1,89.2500017023087,2|0,0:0|0:0,0:0:0:0:
198,298,42977,6,0,B|116:269|114:358|30:344,2,178.500003404617,2|2|2,0:3|0:3|0:3,0:0:0:0:
180,194,44082,1,2,0:2:0:0:
116,267,44240,1,2,0:3:0:0:
167,181,44398,1,2,0:2:0:0:
43,137,44556,5,2,0:3:0:0:
105,80,44714,1,2,0:3:0:0:
42,20,44872,1,2,0:2:0:0:
96,84,45030,1,2,0:3:0:0:
174,50,45187,2,0,P|213:37|250:28,1,59.5000011348725,2|2,0:3|0:2,0:0:0:0:
299,157,45503,6,0,B|262:142|216:158|216:158|240:142|241:100,1,140,6|10,1:2|0:2,0:0:0:0:
382,129,45977,2,0,P|391:95|404:62,1,70,2|0,0:2|3:2,0:0:0:0:
299,157,46293,2,0,P|311:189|321:223,1,70,2|10,1:2|0:2,0:0:0:0:
436,278,46608,1,2,0:2:0:0:
436,278,46766,2,0,B|379:277|379:277|355:302|355:302|279:304,1,140,0|8,1:2|0:2,0:0:0:0:
233,243,47240,1,2,0:3:0:0:
166,353,47398,6,0,L|154:281,1,70,2|0,0:2|1:2,0:0:0:0:
49,285,47714,2,0,L|61:355,1,70,10|0,0:2|0:0,0:0:0:0:
218,223,48030,6,0,P|181:182|89:194,1,140,6|10,1:2|0:2,0:0:0:0:
40,269,48503,1,2,0:2:0:0:
102,185,48661,1,0,3:2:0:0:
45,134,48819,1,2,1:2:0:0:
83,72,48977,2,0,B|60:47|60:47|23:62,1,70,10|2,0:2|0:2,0:0:0:0:
45,134,49293,2,0,B|115:126|86:63|195:77,1,140,0|8,1:2|0:2,0:0:0:0:
239,127,49766,1,2,0:3:0:0:
395,152,49924,5,2,0:2:0:0:
327,50,50083,1,2,1:2:0:0:
225,119,50241,1,10,0:2:0:0:
294,221,50399,1,2,0:2:0:0:
395,152,50556,5,6,1:2:0:0:
223,204,50714,1,2,0:2:0:0:
395,239,50872,1,10,0:2:0:0:
314,141,51030,5,2,0:3:0:0:
359,329,51187,1,2,0:2:0:0:
320,122,51345,5,2,1:2:0:0:
351,346,51502,1,10,0:2:0:0:
294,221,51661,1,2,0:3:0:0:
431,310,51819,5,2,1:2:0:0:
273,318,51977,2,0,B|167:293|167:293|184:325,1,140,2|2,0:2|0:3,0:0:0:0:
103,236,52451,6,0,L|77:301,1,70,2|2,0:2|1:2,0:0:0:0:
232,229,52766,2,0,L|207:164,1,70,10|2,0:2|0:3,0:0:0:0:
330,255,53082,5,6,1:2:0:0:
392,127,53241,1,2,0:2:0:0:
441,179,53398,2,0,P|403:204|371:196,1,70,10|2,0:2|0:3,0:0:0:0:
268,67,53714,5,2,0:2:0:0:
299,159,53873,1,2,1:2:0:0:
392,127,54031,1,10,0:2:0:0:
359,33,54187,1,2,0:2:0:0:
268,67,54345,5,2,1:2:0:0:
198,146,54503,2,0,B|134:125|138:183|56:176,1,140,2|2,0:2|0:2,0:0:0:0:
6,114,54977,1,2,0:3:0:0:
0,228,55135,5,2,1:2:0:0:
0,228,55293,2,0,B|64:207|60:265|142:258,1,140,10|6,0:2|1:2,0:0:0:0:
131,258,55924,6,0,L|112:328,1,70,10|2,0:2|0:3,0:0:0:0:
254,280,56240,2,0,L|235:212,1,70,2|2,0:2|1:2,0:0:0:0:
203,357,56556,1,10,0:2:0:0:
203,357,56714,1,2,0:2:0:0:
254,280,56872,5,0,1:2:0:0:
131,258,57030,2,0,L|58:245,1,70,2|8,0:2|0:2,0:0:0:0:
12,314,57345,5,2,0:2:0:0:
174,185,57503,2,0,L|247:198,1,70,2|0,0:3|1:2,0:0:0:0:
97,140,57819,2,0,B|74:108|74:108|123:4,1,140,10|6,0:2|1:2,0:0:0:0:
117,17,58451,6,0,L|187:1,1,70,10|2,0:2|0:3,0:0:0:0:
238,120,58767,2,0,L|170:100,1,70,2|2,0:2|1:2,0:0:0:0:
332,45,59083,1,10,0:2:0:0:
436,142,59241,1,2,0:2:0:0:
315,249,59399,6,0,L|302:180,1,70,0|2,1:2|0:2,0:0:0:0:
332,45,59714,1,8,0:2:0:0:
436,142,59872,1,2,0:2:0:0:
409,295,60030,2,0,L|397:227,1,70,2|0,0:3|1:2,0:0:0:0:
325,340,60346,2,0,B|266:303|266:303|189:366,1,140,10|6,0:2|1:2,0:0:0:0:
212,348,60977,6,0,L|123:336,1,70,10|0,0:2|0:0,0:0:0:0:
24,255,61293,2,0,L|113:243,1,70,2|2,0:2|1:2,0:0:0:0:
203,161,61608,2,0,L|186:285,1,105,10|0,0:2|0:0,0:0:0:0:
188,265,61924,6,0,B|270:248|236:195|334:193,1,140,0|8,1:2|0:2,0:0:0:0:
390,250,62398,1,2,0:2:0:0:
354,89,62556,1,2,0:3:0:0:
354,89,62714,1,0,1:2:0:0:
449,141,62872,1,10,0:2:0:0:
449,141,63187,5,6,1:2:0:0:
332,181,63345,1,2,0:2:0:0:
373,298,63503,1,10,0:2:0:0:
488,257,63662,1,2,0:3:0:0:
317,175,63819,5,2,0:2:0:0:
501,263,63977,1,2,1:2:0:0:
456,127,64135,5,10,0:2:0:0:
366,312,64294,1,2,0:2:0:0:
256,256,64451,5,2,0:3:0:0:
256,256,64924,1,2,0:3:0:0:
256,256,65398,1,2,0:3:0:0:
256,256,65714,6,2,L|34:231,1,199.499994672775,6|0,1:1|0:0,0:1:0:0:
58,234,66030,2,0,P|60:263|104:285,1,78.7500030040742,8|0,0:2|0:0,0:3:0:0:
135,217,66345,5,2,0:2:0:0:
167,108,66503,1,2,1:2:0:0:
34,109,66661,2,0,B|119:112|77:25|200:33,1,157.500006008148,8|0,0:2|0:0,0:0:0:0:
242,26,66977,6,0,B|293:48|274:82|274:82|215:183,1,157.500006008148,2|0,1:2|0:0,0:0:0:0:
243,162,67293,1,8,0:2:0:0:
351,123,67451,1,2,0:0:0:0:
424,233,67608,1,2,0:0:0:0:
473,177,67766,5,2,1:2:0:0:
322,204,67924,2,0,B|297:250|297:250|361:346,1,157.500006008148,10|0,0:0|0:0,0:0:0:0:
392,255,68240,6,2,B|294:231|310:337|200:322,1,199.499994672775,2|0,1:1|0:0,0:1:0:0:
215,324,68556,2,0,P|195:302|211:255,1,78.7500030040742,8|0,0:2|0:0,0:0:0:0:
245,187,68872,5,2,0:0:0:0:
136,219,69030,1,2,1:2:0:0:
16,144,69187,2,0,L|46:259,1,105.000004005432,10|2,0:2|0:0,0:0:0:0:
233,56,69503,6,0,B|162:47|162:47|150:57|150:57|68:51,1,157.500006008148,2|0,1:2|0:0,0:0:0:0:
70,58,69819,1,10,0:2:0:0:
184,137,69977,1,2,0:0:0:0:
233,56,70134,1,2,0:0:0:0:
345,114,70292,1,2,1:2:0:0:
184,137,70451,6,0,B|175:222|268:194|243:309,1,157.500006008148,10|0,2:0|0:0,0:0:0:0:
314,196,70766,6,0,B|322:281|229:253|254:368,1,188.999994232178,6|0,1:2|0:0,0:0:0:0:
264,373,71082,1,8,0:2:0:0:
165,303,71240,1,2,0:0:0:0:
326,328,71398,6,0,L|428:305,1,105.000004005432,2|0,3:0|1:0,0:0:0:0:
165,303,71714,2,0,L|63:280,1,105.000004005432,10|0,0:2|0:0,0:0:0:0:
241,205,72030,6,0,B|342:182|295:100|434:101,1,210.000008010865,2|10,1:2|0:2,0:0:0:0:
215,89,72503,2,0,L|117:33,1,105.000004005432,2|2,0:0|3:3,0:0:0:0:
241,205,72819,1,2,1:2:0:0:
387,184,72977,2,0,L|364:286,1,105.000004005432,10|0,0:2|0:0,0:0:0:0:
119,378,73293,6,0,B|114:338|146:298|146:298|307:288,1,210.000008010865,6|10,1:2|0:2,0:0:0:0:
321,382,73766,1,2,0:0:0:0:
448,258,73924,1,2,3:0:0:0:
364,287,74082,1,0,3:0:0:0:
241,205,74240,2,0,L|132:212,1,105.000004005432,10|0,0:2|0:0,0:0:0:0:
26,320,74556,5,6,1:2:0:0:
137,212,74714,1,4,0:3:0:0:
15,109,74872,5,2,1:2:0:0:
75,161,75030,1,4,0:3:0:0:
169,56,75187,1,2,1:2:0:0:
320,96,75345,1,4,0:3:0:0:
440,20,75503,5,4,0:3:0:0:
445,70,75581,1,4,0:3:0:0:
415,111,75660,1,4,0:3:0:0:
364,123,75739,1,4,0:3:0:0:
320,96,75819,6,2,B|296:194|402:178|387:288,1,199.499994672775,6|0,1:1|0:0,0:1:0:0:
388,273,76135,2,0,P|366:293|319:277,1,78.7500030040742,8|0,0:2|0:0,0:0:0:0:
252,243,76451,5,2,0:0:0:0:
284,352,76609,1,2,1:2:0:0:
120,289,76766,2,0,B|126:208|217:252|196:123,1,157.500006008148,8|0,0:2|0:0,0:0:0:0:
95,167,77082,6,0,B|62:166|44:189|44:189|45:233|118:316,1,157.500006008148,2|0,1:2|0:0,0:0:0:0:
192,293,77398,1,8,0:2:0:0:
271,197,77556,1,2,0:0:0:0:
139,104,77713,1,2,0:0:0:0:
193,45,77871,5,2,1:2:0:0:
95,167,78029,2,0,B|55:132|55:132|83:20,1,157.500006008148,10|0,0:0|0:0,0:0:0:0:
139,104,78345,6,2,P|232:81|309:139,1,199.499994672775,2|0,1:3|0:3,0:3:0:0:
309,139,78661,2,0,P|282:152|241:125,1,78.7500030040742,8|0,0:2|0:0,0:0:0:0:
288,71,78977,5,2,0:0:0:0:
378,50,79135,1,2,1:2:0:0:
492,131,79293,2,0,L|465:29,1,105.000004005432,10|2,0:2|0:0,0:0:0:0:
427,211,79608,6,0,B|358:222|358:222|347:233|347:233|266:248,1,157.500006008148,2|0,1:2|0:0,0:0:0:0:
254,236,79924,1,8,0:2:0:0:
364,320,80082,1,2,0:0:0:0:
397,136,80239,1,2,0:0:0:0:
500,202,80397,1,2,1:2:0:0:
364,320,80556,6,0,B|284:289|287:386|182:332,1,157.500006008148,10|0,2:0|0:0,0:0:0:0:
82,322,80872,6,0,B|133:333|155:291|155:291|129:150,1,188.999994232178,6|0,1:2|0:0,0:0:0:0:
128,177,81187,1,8,0:2:0:0:
29,247,81345,1,2,0:0:0:0:
220,225,81503,1,2,0:0:0:0:
220,225,81661,1,2,1:2:0:0:
103,104,81819,2,0,L|-3:123,1,105.000004005432,10|0,0:2|0:0,0:0:0:0:
220,225,82135,6,0,B|264:227|281:172|281:172|332:116|416:154,2,210.000008010865,6|8|2,1:2|0:0|3:0,0:0:0:0:
136,191,82924,1,0,1:0:0:0:
233,312,83082,2,0,P|308:283|346:210,1,157.500006008148,10|0,0:2|0:0,0:0:0:0:
393,145,83398,6,0,B|446:134|460:173|463:185|463:185|492:312,1,210.000008010865,6|8,1:2|0:0,0:0:0:0:
396,364,83872,1,2,0:0:0:0:
258,228,84030,1,2,3:0:0:0:
343,217,84188,1,2,1:2:0:0:
161,355,84345,2,0,L|39:343,1,105.000004005432,10|2,0:0|0:0,0:0:0:0:
144,144,84661,5,6,1:2:0:0:
254,269,84819,1,4,0:3:0:0:
120,277,84977,5,0,1:2:0:0:
180,218,85135,1,4,0:3:0:0:
64,82,85293,1,6,0:3:0:0:
261,143,85450,1,4,0:3:0:0:
476,29,85608,5,4,0:3:0:0:
428,11,85686,1,4,0:3:0:0:
381,29,85765,1,4,0:3:0:0:
356,75,85844,1,4,0:3:0:0:
371,125,85924,6,0,B|404:124|429:108|429:108|412:263,1,210.000008010865,4|8,1:2|0:2,0:0:0:0:
405,360,86398,1,2,0:0:0:0:
253,309,86557,2,0,L|343:297,1,90.9999958343508,2|0,0:3|1:2,0:0:0:0:
195,237,86873,2,0,P|157:258|162:307,1,90.9999958343508,8|2,0:2|0:0,0:0:0:0:
29,367,87187,6,0,B|14:288|104:271|51:169,1,181.999991668702,6|8,1:2|0:2,0:0:0:0:
1,130,87661,1,2,0:0:0:0:
147,31,87819,2,0,B|101:97|26:45|-8:155,1,181.999991668702,2|10,0:3|0:2,0:0:0:0:
1,130,88451,6,0,B|78:108|103:196|200:134,1,181.999991668702,4|8,1:2|0:2,0:0:0:0:
264,75,88924,1,2,0:3:0:0:
439,57,89082,2,0,B|361:35|336:123|239:61,1,181.999991668702,2|8,0:0|0:2,0:0:0:0:
176,146,89556,1,0,0:0:0:0:
264,75,89714,6,0,P|293:215|303:267,1,181.999991668702,6|10,1:2|0:2,0:0:0:0:
261,352,90187,2,0,P|232:329|223:272,1,90.9999958343508,2|2,0:0|0:3,0:0:0:0:
367,186,90503,5,2,1:2:0:0:
454,276,90661,2,0,B|376:258|405:336|310:324,1,136.499993751526,10|0,0:2|0:0,0:0:0:0:
261,352,90977,6,0,P|202:292|71:313,1,210.000008010865,4|8,1:1|0:2,0:0:0:0:
36,382,91451,1,2,0:0:0:0:
84,303,91608,2,0,B|82:222|174:221|140:111,1,181.999991668702,2|8,0:3|0:2,0:0:0:0:
72,71,92082,1,2,0:0:0:0:
146,138,92240,6,0,B|214:116|214:116|288:143|266:242,1,181.999991668702,6|8,1:2|0:2,0:0:0:0:
208,262,92714,1,2,0:0:0:0:
344,187,92872,2,0,P|341:142|316:100,1,90.9999958343508,2|0,0:3|1:2,0:0:0:0:
365,273,93187,6,0,B|430:280|401:202|496:214,1,136.499993751526,10|0,0:2|0:0,0:0:0:0:
507,281,93503,6,0,P|493:343|382:342,1,181.999991668702,6|8,1:2|0:2,0:0:0:0:
286,276,93977,1,2,0:3:0:0:
203,356,94135,2,0,L|105:339,1,90.9999958343508,2|0,0:0|1:2,0:0:0:0:
236,182,94451,2,0,L|325:166,1,90.9999958343508,10|2,0:2|0:2,0:0:0:0:
138,242,94766,5,2,2:3:0:0:
138,242,95082,1,2,2:3:0:0:
138,242,95398,1,2,2:3:0:0:
138,242,95714,1,2,2:3:0:0:
138,242,96030,6,0,B|143:178|58:197|79:97,1,140,6|8,1:2|0:2,0:0:0:0:
146,64,96503,1,2,0:2:0:0:
4,178,96661,1,2,3:3:0:0:
63,250,96819,1,0,1:2:0:0:
15,316,96977,1,8,0:2:0:0:
15,316,97293,5,2,1:2:0:0:
81,364,97451,1,2,0:2:0:0:
204,290,97608,1,8,0:2:0:0:
138,242,97766,1,2,0:2:0:0:
193,366,97924,2,0,L|266:352,1,70,2|2,3:3|1:2,0:0:0:0:
357,255,98240,1,10,0:2:0:0:
453,338,98398,1,2,0:0:0:0:
453,338,98477,1,2,0:0:0:0:
453,338,98556,6,0,B|427:308|441:282|441:282|487:248|444:190,1,140,6|8,1:2|0:2,0:0:0:0:
458,213,99187,1,2,3:3:0:0:
492,137,99345,1,0,1:2:0:0:
399,38,99503,2,0,B|365:69|365:69|388:131,1,105,10|0,0:2|0:0,0:0:0:0:
400,136,99819,6,0,B|325:137|335:202|250:191,1,140,2|10,1:2|0:2,0:0:0:0:
186,143,100293,1,2,0:2:0:0:
79,234,100451,1,2,3:3:0:0:
9,206,100608,1,0,1:2:0:0:
158,212,100766,1,8,0:2:0:0:
158,212,101082,6,0,B|155:275|155:275|159:285|159:285|154:363,1,140,6|8,1:2|0:2,0:0:0:0:
256,304,101556,1,2,0:2:0:0:
357,351,101714,1,2,3:3:0:0:
357,351,101872,2,0,B|377:318|377:318|361:282,1,70,0|8,1:2|0:2,0:0:0:0:
364,289,102345,6,0,B|443:284|416:227|514:234,1,140,2|10,1:2|0:2,0:0:0:0:
388,81,102819,2,0,B|349:126|349:126|369:215,1,140,2|0,0:2|1:2,0:0:0:0:
492,130,103293,1,10,0:2:0:0:
492,130,103608,6,0,P|479:71|397:58,1,140,6|8,1:2|0:2,0:0:0:0:
322,127,104082,1,2,0:2:0:0:
161,69,104240,1,2,3:3:0:0:
216,149,104398,1,0,1:2:0:0:
123,248,104556,2,0,B|89:217|89:217|112:155,1,105,8|0,0:2|0:0,0:0:0:0:
102,151,104872,5,2,1:2:0:0:
11,180,105030,1,2,0:2:0:0:
58,287,105187,2,0,L|41:364,1,70,10|0,0:2|0:0,0:0:0:0:
169,312,105503,5,2,3:3:0:0:
198,221,105661,1,2,1:2:0:0:
299,233,105819,2,0,L|314:164,1,70,10|0,0:2|0:0,0:0:0:0:
439,280,106135,6,0,B|361:271|384:348|284:339,1,140,6|8,1:2|0:2,0:0:0:0:
169,312,106608,1,2,0:2:0:0:
169,312,106766,2,0,L|176:385,1,70,2|0,3:3|1:2,0:0:0:0:
311,259,107082,2,0,P|290:219|231:217,1,105,8|0,0:2|0:0,0:0:0:0:
235,215,107398,6,0,P|238:180|242:146,1,70,2|0,1:2|0:0,0:0:0:0:
124,42,107714,2,0,L|138:182,1,140,10|2,0:2|3:3,0:0:0:0:
20,227,108187,1,2,1:2:0:0:
29,153,108345,2,0,P|32:118|35:83,1,70,10|0,0:2|0:0,0:0:0:0:
138,182,108661,6,0,L|116:288,1,105,6|0,1:2|0:0,0:0:0:0:
129,298,108977,2,0,L|68:355,1,70,8|2,0:2|0:2,0:0:0:0:
234,235,109293,5,2,3:3:0:0:
271,307,109451,1,0,1:2:0:0:
392,248,109609,2,0,B|358:279|358:279|381:341,1,105,10|0,0:2|0:0,0:0:0:0:
406,335,109924,2,0,B|426:279|426:279|392:248,1,105,2|0,1:2|0:0,0:0:0:0:
332,205,110240,6,0,L|304:110,1,70,10|0,0:2|0:0,0:0:0:0:
479,136,110556,2,0,L|459:203,1,70,2|2,3:3|1:2,0:0:0:0:
305,48,110872,2,0,L|324:115,1,70,10|0,0:2|0:0,0:0:0:0:
271,307,111187,6,0,B|212:296|230:352|142:339,1,105,6|0,1:2|0:0,0:0:0:0:
154,334,111503,2,0,P|139:303|161:266,1,70,8|0,0:2|0:0,0:0:0:0:
21,164,111819,6,0,P|47:185|43:228,1,70,2|0,3:3|1:2,0:0:0:0:
210,104,112135,2,0,P|175:132|180:187,1,105,10|0,0:2|0:0,0:0:0:0:
195,196,112451,1,2,1:2:0:0:
195,196,112766,6,0,L|275:173,1,70,10|0,0:2|0:0,0:0:0:0:
361,42,113082,1,2,3:3:0:0:
299,92,113240,1,2,1:2:0:0:
440,25,113398,1,10,0:2:0:0:
502,75,113556,1,2,0:2:0:0:
404,244,113714,6,0,L|419:96,1,140,6|8,1:2|0:2,0:0:0:0:
299,92,114187,1,2,0:2:0:0:
261,175,114345,6,0,P|291:193|326:196,1,70,2|0,3:3|1:2,0:0:0:0:
495,249,114661,2,0,P|460:252|430:270,1,70,10|0,0:2|0:0,0:0:0:0:
241,190,114977,6,0,P|271:212|308:218,1,70,2|0,1:2|0:0,0:0:0:0:
493,289,115293,2,0,P|456:290|423:307,1,70,10|0,0:2|0:0,0:0:0:0:
214,212,115608,6,0,P|245:233|282:239,1,70,2|2,3:3|1:2,0:0:0:0:
496,315,115924,2,0,P|458:315|425:332,1,70,10|0,0:2|0:0,0:0:0:0:
275,162,116240,6,0,B|262:144|262:144|280:83|280:83|318:134|318:134|312:155,1,168,4|0,3:1|0:0,0:0:0:0:
215,213,116556,6,0,L|101:189,1,83.9999974365235,2|2,0:3|1:3,0:0:0:0:
75,84,116872,1,8,0:1:0:0:
11,139,117030,1,2,0:3:0:0:
115,209,117187,2,0,B|104:273|104:273|97:275|97:275|85:334,1,125.999996154785,4|0,1:3|0:0,0:0:0:0:
103,347,117503,5,2,0:3:0:0:
23,243,117661,1,8,0:1:0:0:
225,284,117819,5,2,0:3:0:0:
252,177,117977,1,4,1:3:0:0:
372,244,118135,6,0,B|326:223|326:223|217:290,1,167.999994873047,8|6,0:1|0:3,0:0:0:0:
290,336,118530,1,2,0:3:0:0:
302,329,118608,1,2,0:3:0:0:
314,322,118687,1,2,0:3:0:0:
326,315,118766,5,0,1:3:0:0:
416,352,118924,1,2,0:3:0:0:
462,207,119082,5,2,0:3:0:0:
372,244,119240,1,2,1:3:0:0:
301,105,119398,6,0,P|361:90|418:121,1,125.999996154785,8|0,0:1|0:0,0:0:0:0:
411,142,119714,1,6,1:3:0:0:
366,8,119872,1,2,0:3:0:0:
239,55,120030,5,2,0:3:0:0:
319,180,120188,1,8,0:1:0:0:
137,273,120346,5,6,0:3:0:0:
149,137,120504,1,4,1:3:0:0:
44,197,120661,6,0,B|115:195|80:151|156:136,1,125.999996154785,8|0,0:1|0:0,0:0:0:0:
159,124,120977,2,0,L|168:71,3,41.9999987182618,6|2|2|2,0:3|0:3|0:3|0:3,0:0:0:0:
200,214,121293,5,2,1:3:0:0:
137,273,121451,1,2,0:3:0:0:
208,374,121608,6,0,L|223:274,1,83.9999974365235,2|2,0:3|1:3,0:0:0:0:
303,219,121924,1,8,0:1:0:0:
220,290,122082,1,2,0:3:0:0:
363,349,122240,5,6,1:3:0:0:
403,185,122398,1,2,0:3:0:0:
379,368,122556,2,0,L|358:281,1,83.9999974365235,2|8,0:3|0:1,0:0:0:0:
493,152,122872,5,6,0:3:0:0:
440,82,123030,1,4,1:3:0:0:
209,135,123187,6,0,B|255:156|255:156|364:89,1,167.999994873047,8|6,0:1|0:3,0:0:0:0:
291,43,123582,1,2,0:3:0:0:
279,50,123660,1,2,0:3:0:0:
267,57,123739,1,2,0:3:0:0:
255,64,123819,5,2,1:3:0:0:
165,27,123977,1,2,0:3:0:0:
119,172,124135,5,2,0:3:0:0:
209,135,124293,1,2,1:3:0:0:
56,83,124451,5,8,0:1:0:0:
56,83,124608,1,2,0:3:0:0:
209,135,124766,5,6,1:3:0:0:
161,253,124924,1,2,0:3:0:0:
67,381,125082,5,2,0:3:0:0:
19,263,125240,1,8,0:1:0:0:
253,225,125398,5,6,0:3:0:0:
119,172,125556,1,4,1:3:0:0:
244,305,125714,6,0,B|314:304|289:258|360:254,1,125.999996154785,8|0,0:1|0:0,0:0:0:0:
375,237,126030,2,0,L|386:182,3,41.9999987182618,6|2|2|2,0:3|0:3|0:3|0:3,0:0:0:0:
421,297,126346,5,0,1:3:0:0:
421,297,126661,2,0,B|522:277|522:277|482:281|456:239,1,146.999995513916,2|0,0:3|0:0,0:0:0:0:
383,194,126977,2,2,B|338:130|353:54|437:40|436:124|373:148,1,195.999994018555,10|4,0:1|1:3,0:1:0:0:
276,52,127451,1,2,0:3:0:0:
210,156,127608,2,0,B|154:147|168:186|103:186,1,97.9999970092774,2|8,0:3|0:1,0:0:0:0:
280,73,127924,2,0,B|224:82|238:43|173:43,1,97.9999970092774,6|4,0:3|1:3,0:0:0:0:
15,118,128240,6,0,B|9:216|60:165|62:289,1,146.999995513916,8|0,0:1|0:0,0:0:0:0:
49,269,128556,2,0,L|38:324,3,48.9999985046387,6|2|2|2,0:3|0:3|0:3|0:3,0:0:0:0:
94,373,128872,5,0,1:3:0:0:
94,373,129187,2,0,B|122:321|191:359|191:359|156:342|133:355,1,146.999995513916,2|0,0:3|0:0,0:0:0:0:
188,271,129503,2,2,B|244:293|244:293|249:307|249:307|319:334,1,146.999995513916,10|0,0:1|0:0,0:1:0:0:
324,347,129819,2,0,L|353:249,1,97.9999970092774,4|2,1:3|0:3,0:0:0:0:
202,155,130135,2,0,B|258:146|244:185|309:185,1,97.9999970092774,2|8,0:3|0:1,0:0:0:0:
460,68,130451,2,0,B|404:59|418:98|353:98,1,97.9999970092774,6|4,0:3|1:3,0:0:0:0:
149,99,130766,6,2,B|133:83|133:83|149:50|140:20|140:20|149:50|186:63|186:63|184:85,1,168,10|0,0:1|0:0,0:1:0:0:
202,155,131082,2,0,L|144:182,3,56,6|2|2|2,0:3|0:3|0:3|0:3,0:0:0:0:
262,92,131398,5,0,1:3:0:0:
262,92,131714,6,2,B|318:53|351:123|385:193|467:129,1,195.999994018555,2|8,0:1|0:1,0:1:0:0:
460,68,132187,1,2,0:3:0:0:
334,141,132345,2,0,B|299:178|299:178|343:275,1,146.999995513916,6|0,1:3|0:0,0:0:0:0:
358,272,132661,2,0,L|340:376,1,97.9999970092774,2|8,0:3|0:1,0:0:0:0:
227,269,132977,5,6,0:3:0:0:
108,326,133135,1,6,1:3:0:0:
97,193,133293,2,0,B|71:237|71:237|115:343,1,146.999995513916,10|0,0:1|0:0,0:0:0:0:
119,351,133608,5,6,0:3:0:0:
88,343,133687,1,2,3:0:0:0:
63,338,133766,1,2,0:3:0:0:
38,332,133845,1,2,0:3:0:0:
10,323,133924,5,2,1:3:0:0:
159,248,134082,1,2,0:3:0:0:
110,78,134240,5,2,0:3:0:0:
195,156,134398,1,2,1:3:0:0:
274,115,134556,5,10,0:1:0:0:
97,193,134714,1,2,0:3:0:0:
352,76,134872,5,6,1:3:0:0:
370,275,135030,2,0,B|373:178|254:205|278:93,1,195.999994018555,2|8,0:1|0:1,0:0:0:0:
459,31,135503,6,0,P|496:71|459:118,1,105,6|0,0:3|0:0,0:0:0:0:
459,109,135819,1,10,0:1:0:0:
444,204,135977,1,2,0:3:0:0:
511,314,136135,1,6,0:3:0:0:
295,268,136293,1,2,0:3:0:0:
198,324,136451,6,2,L|420:299,1,199.499994672775,6|0,1:1|0:0,0:1:0:0:
397,302,136767,2,0,P|395:331|351:353,1,78.7500030040742,8|0,0:2|0:0,0:3:0:0:
274,341,137082,5,2,0:2:0:0:
198,324,137240,1,2,1:2:0:0:
32,321,137398,2,0,B|64:250|64:250|118:308,1,157.500006008148,8|0,0:2|0:0,0:0:0:0:
198,324,137714,6,0,B|220:306|220:283|220:283|132:185,1,157.500006008148,2|0,1:2|0:0,0:0:0:0:
127,185,138030,1,8,0:2:0:0:
234,112,138188,1,2,0:0:0:0:
342,228,138345,1,2,0:0:0:0:
395,168,138503,5,2,1:2:0:0:
234,112,138661,2,0,B|319:113|293:40|381:54,1,157.500006008148,10|0,0:0|0:0,0:0:0:0:
457,111,138977,6,2,B|478:159|478:159|424:313,1,199.499994672775,2|0,1:1|0:0,0:1:0:0:
429,297,139293,2,0,P|415:332|437:362,1,78.7500030040742,8|0,0:2|0:0,0:0:0:0:
499,318,139608,5,2,0:0:0:0:
335,352,139766,1,2,1:2:0:0:
213,284,139924,2,0,B|190:334|190:334|237:393,1,105.000004005432,10|2,0:2|0:0,0:0:0:0:
258,204,140240,6,0,B|187:195|187:195|175:205|175:205|93:199,1,157.500006008148,2|0,1:2|0:0,0:0:0:0:
88,185,140556,1,10,0:2:0:0:
123,17,140714,1,2,0:0:0:0:
234,128,140871,1,2,0:0:0:0:
297,65,141029,1,2,1:2:0:0:
460,197,141187,6,0,B|375:206|403:113|288:138,1,157.500006008148,10|0,2:0|0:0,0:0:0:0:
404,68,141503,6,0,B|319:60|325:150|232:128,1,188.999994232178,6|0,1:2|0:0,0:0:0:0:
224,117,141818,1,8,0:2:0:0:
332,219,141976,1,2,0:0:0:0:
460,197,142135,6,0,B|423:231|423:231|448:295,1,105.000004005432,2|0,3:0|1:0,0:0:0:0:
231,320,142451,2,0,B|250:269|250:269|213:235,1,105.000004005432,10|0,0:2|0:0,0:0:0:0:
34,230,142766,6,0,B|138:254|112:126|249:150,1,210.000008010865,2|10,1:2|0:2,0:0:0:0:
129,59,143240,2,0,L|31:3,1,105.000004005432,2|2,0:0|3:3,0:0:0:0:
214,147,143555,1,2,1:2:0:0:
302,54,143714,2,0,L|404:31,1,105.000004005432,10|0,0:2|0:0,0:0:0:0:
396,294,144030,6,0,B|322:292|322:292|306:106,1,210.000008010865,6|10,1:2|0:2,0:0:0:0:
482,61,144503,1,2,0:0:0:0:
390,221,144661,1,2,3:0:0:0:
491,179,144819,1,0,3:0:0:0:
310,156,144977,2,0,L|201:149,1,105.000004005432,10|0,0:2|0:0,0:0:0:0:
95,41,145293,5,6,1:2:0:0:
205,149,145451,1,4,0:3:0:0:
84,252,145609,5,2,1:2:0:0:
124,139,145767,1,4,0:3:0:0:
245,278,145924,1,2,1:2:0:0:
42,341,146082,1,4,0:3:0:0:
216,205,146240,5,4,0:3:0:0:
266,200,146318,1,4,0:3:0:0:
307,230,146397,1,4,0:3:0:0:
319,281,146476,1,4,0:3:0:0:
292,325,146556,6,2,B|390:349|367:237|484:258,1,199.499994672775,6|0,1:1|0:0,0:1:0:0:
467,255,146872,2,0,P|487:233|471:186,1,78.7500030040742,8|0,0:2|0:0,0:0:0:0:
391,168,147188,5,2,0:0:0:0:
282,222,147346,1,2,1:2:0:0:
96,251,147503,2,0,B|147:224|147:224|231:329,1,157.500006008148,8|0,0:2|0:0,0:0:0:0:
94,360,147819,6,0,B|43:338|43:338|31:270|106:223,1,157.500006008148,2|0,1:2|0:0,0:0:0:0:
110,148,148135,1,8,0:2:0:0:
241,210,148293,1,2,0:0:0:0:
364,109,148450,1,2,0:0:0:0:
400,180,148608,5,2,1:2:0:0:
240,71,148766,2,0,B|232:107|268:128|268:128|380:100,1,157.500006008148,10|0,0:0|0:0,0:0:0:0:
459,67,149082,6,2,B|445:153|445:153|430:168|430:168|409:280,1,199.499994672775,2|0,1:3|0:3,0:3:0:0:
413,257,149398,2,0,P|386:270|345:243,1,78.7500030040742,8|0,0:2|0:0,0:0:0:0:
392,189,149714,5,2,0:0:0:0:
272,213,149872,1,2,1:2:0:0:
189,334,150030,2,0,P|156:290|186:215,1,105.000004005432,10|2,0:2|0:0,0:0:0:0:
8,198,150345,6,0,B|24:148|24:148|151:121,1,157.500006008148,2|0,1:2|0:0,0:0:0:0:
154,143,150661,1,8,0:2:0:0:
224,56,150819,1,2,0:0:0:0:
338,152,150976,1,2,0:0:0:0:
362,78,151135,1,2,1:2:0:0:
487,127,151293,6,0,B|407:96|410:193|305:139,1,157.500006008148,10|0,2:0|0:0,0:0:0:0:
272,206,151608,6,0,B|261:257|303:279|303:279|444:253,1,188.999994232178,6|0,1:2|0:0,0:0:0:0:
421,271,151923,1,8,0:2:0:0:
338,152,152081,1,2,0:0:0:0:
399,344,152239,1,2,0:0:0:0:
399,344,152397,1,2,1:2:0:0:
500,217,152556,2,0,P|512:160|473:119,1,105.000004005432,10|0,0:2|0:0,0:0:0:0:
215,153,152872,6,0,B|313:168|289:30|409:69,2,210.000008010865,6|8|2,1:2|0:0|3:0,0:0:0:0:
118,87,153661,1,0,1:0:0:0:
41,274,153819,2,0,P|66:201|132:161,1,157.500006008148,10|0,0:2|0:0,0:0:0:0:
374,147,154135,6,0,B|389:198|352:215|340:220|340:220|216:260,1,210.000008010865,6|8,1:2|0:0,0:0:0:0:
41,274,154609,1,2,0:0:0:0:
215,153,154767,1,2,3:0:0:0:
126,247,154925,1,2,1:2:0:0:
246,361,155082,2,0,L|223:240,1,105.000004005432,10|2,0:0|0:0,0:0:0:0:
374,147,155398,5,6,1:2:0:0:
314,306,155556,1,4,0:3:0:0:
454,311,155714,5,0,1:2:0:0:
400,263,155872,1,4,0:3:0:0:
487,78,156030,1,6,0:3:0:0:
288,192,156187,1,4,0:3:0:0:
89,50,156345,5,4,0:3:0:0:
137,32,156423,1,4,0:3:0:0:
184,50,156502,1,4,0:3:0:0:
209,96,156581,1,4,0:3:0:0:
194,146,156661,5,6,0:3:0:0:
469,66,166766,6,0,P|435:67|465:70,1,105.000004005432,6|2,3:1|0:2,0:0:0:0:
501,141,167082,5,2,0:3:0:0:
501,141,167240,1,2,0:3:0:0:
445,203,167398,2,0,L|368:191,1,62.9999980773926,8|2,0:1|0:3,0:0:0:0:
503,265,167714,1,4,0:3:0:0:
463,331,167872,1,2,0:3:0:0:
327,307,168030,6,0,L|389:297,1,62.9999980773926,2|8,0:3|0:1,0:0:0:0:
185,307,168345,2,0,L|122:297,1,62.9999980773926,6|2,0:3|0:3,0:0:0:0:
250,360,168661,2,0,P|260:286|266:251,1,94.499997116089,8|0,0:1|0:0,0:0:0:0:
253,249,168977,2,0,L|246:210,3,31.4999990386963,4|2|2|2,0:3|0:3|0:3|0:3,0:0:0:0:
183,178,169293,6,0,B|134:177|144:214|73:215,1,94.499997116089,4|0,0:3|0:0,0:0:0:0:
72,208,169608,1,2,0:3:0:0:
98,130,169766,1,2,0:3:0:0:
11,59,169924,6,0,B|-4:87|-4:87|24:150,1,94.499997116089,8|0,0:1|0:0,0:0:0:0:
98,130,170240,2,0,P|113:97|79:49,1,94.499997116089,4|0,0:3|0:0,0:0:0:0:
92,37,170556,6,0,L|156:23,1,62.9999980773926,2|8,0:3|0:1,0:0:0:0:
251,118,170872,2,0,L|187:104,1,62.9999980773926,6|2,0:3|0:3,0:0:0:0:
351,27,171187,2,0,L|364:88,1,62.9999980773926,8|2,0:1|0:3,0:0:0:0:
472,167,171503,2,0,L|484:129,3,31.4999990386963,4|2|2|2,0:3|0:3|0:3|0:3,0:0:0:0:
377,205,171819,6,0,P|389:168|361:195,1,105.000004005432,6|2,3:1|0:2,0:0:0:0:
375,329,172135,5,2,0:3:0:0:
375,329,172293,1,2,0:3:0:0:
319,267,172451,2,0,L|242:279,1,62.9999980773926,8|2,0:1|0:3,0:0:0:0:
133,220,172767,1,4,0:3:0:0:
173,286,172925,1,2,0:3:0:0:
84,357,173083,6,0,L|93:294,1,62.9999980773926,2|8,0:3|0:1,0:0:0:0:
226,152,173398,2,0,L|216:214,1,62.9999980773926,6|2,0:3|0:3,0:0:0:0:
89,154,173714,1,8,0:1:0:0:
89,154,173872,1,2,0:3:0:0:
142,71,174030,2,0,L|135:32,3,31.4999990386963,4|2|2|2,0:3|0:3|0:3|0:3,0:0:0:0:
220,77,174345,6,0,B|267:73|249:35|320:34,1,94.499997116089,4|0,0:3|0:0,0:0:0:0:
339,28,174660,1,2,0:3:0:0:
313,106,174818,1,2,0:3:0:0:
434,147,174977,1,8,0:1:0:0:
434,147,175135,1,2,0:3:0:0:
333,179,175293,1,4,0:3:0:0:
359,257,175451,1,2,0:3:0:0:
466,340,175608,6,0,L|480:276,1,62.9999980773926,2|8,0:3|0:1,0:0:0:0:
281,252,175924,2,0,L|295:316,1,62.9999980773926,6|2,0:3|0:3,0:0:0:0:
150,384,176240,2,0,L|163:322,1,62.9999980773926,8|2,0:1|0:3,0:0:0:0:
37,216,176556,2,0,L|25:178,3,31.4999990386963,4|2|2|2,0:3|0:3|0:3|0:3,0:0:0:0:
122,256,176872,6,2,L|147:34,1,199.499994672775,6|0,1:1|0:0,0:1:0:0:
144,57,177188,2,0,P|115:59|93:103,1,78.7500030040742,8|0,0:2|0:3,0:3:0:0:
105,180,177503,5,2,0:2:0:0:
122,256,177661,1,2,1:2:0:0:
236,324,177819,2,0,B|207:300|205:256|205:256|199:300|159:324,1,157.500006008148,8|0,0:2|0:0,0:0:0:0:
280,267,178135,6,0,B|384:235|384:235|403:246|412:272,1,157.500006008148,2|0,1:2|0:0,0:0:0:0:
407,298,178451,1,8,0:2:0:0:
317,151,178609,1,2,0:0:0:0:
205,256,178766,1,2,0:0:0:0:
155,192,178924,5,2,1:2:0:0:
317,151,179082,2,0,B|243:139|243:139|234:130|234:130|158:116,1,157.500006008148,10|0,0:0|0:0,0:0:0:0:
23,138,179398,6,2,B|3:110|3:110|31:16|31:16|90:94|90:94|80:127,1,265.999992897034,2|2,1:0|3:0,0:1:0:0:
219,32,179872,1,2,0:0:0:0:
317,151,180030,1,2,3:0:0:0:
409,105,180187,2,0,B|432:55|432:55|385:-4,1,105.000004005432,2|8,1:2|2:0,0:0:0:0:
263,95,180503,1,2,0:0:0:0:
82,192,180661,6,0,B|153:183|153:183|165:193|165:193|247:187,1,157.500006008148,2|0,1:2|0:0,0:0:0:0:
246,207,180977,1,8,0:2:0:0:
192,114,181135,1,2,0:0:0:0:
124,267,181292,1,2,0:0:0:0:
82,192,181450,5,2,1:2:0:0:
215,290,181608,1,8,0:2:0:0:
163,346,181766,1,2,0:0:0:0:
385,230,181924,6,0,B|300:222|306:312|213:290,1,188.999994232178,6|0,1:2|0:0,0:0:0:0:
238,215,182239,1,8,0:2:0:0:
368,307,182397,1,2,0:0:0:0:
476,92,182556,6,2,B|445:124|445:124|435:168|464:190,1,105.000004005432,2|0,0:0|1:0,0:1:0:0:
238,215,182872,2,0,B|269:183|269:183|279:139|250:117,1,105.000004005432,10|0,0:0|0:0,0:0:0:0:
74,123,183187,6,0,B|178:134|137:-4|274:20,1,210.000008010865,2|10,1:2|0:2,0:0:0:0:
111,232,183661,2,0,L|13:176,1,105.000004005432,2|2,0:0|3:3,0:0:0:0:
238,215,183977,1,2,1:2:0:0:
310,317,184135,2,0,L|408:260,1,105.000004005432,10|0,0:2|0:0,0:0:0:0:
408,73,184451,6,0,B|345:69|345:69|318:261,1,210.000008010865,6|10,1:2|0:2,0:0:0:0:
479,311,184924,1,2,0:0:0:0:
407,147,185082,1,2,3:0:0:0:
487,323,185240,1,0,3:0:0:0:
415,160,185398,2,0,L|307:151,1,105.000004005432,10|0,0:2|0:0,0:0:0:0:
164,115,185714,5,6,1:2:0:0:
249,251,185872,1,4,0:3:0:0:
82,322,186030,5,2,1:2:0:0:
202,185,186188,1,4,0:3:0:0:
16,156,186345,1,2,1:2:0:0:
185,332,186503,1,4,0:3:0:0:
278,65,186661,5,4,0:3:0:0:
228,60,186739,1,4,0:3:0:0:
187,90,186818,1,4,0:3:0:0:
175,141,186897,1,4,0:3:0:0:
202,185,186977,6,2,B|234:210|234:210|402:150,1,199.499994672775,6|0,1:1|0:0,0:1:0:0:
383,156,187293,2,0,P|381:185|337:207,1,78.7500030040742,8|0,0:2|0:0,0:0:0:0:
292,150,187608,5,2,0:2:0:0:
256,86,187766,1,2,1:2:0:0:
94,2,187924,2,0,B|201:-22|201:-22|231:41,1,157.500006008148,8|0,0:2|0:0,0:0:0:0:
163,73,188240,6,0,B|99:50|89:143|-1:115,1,157.500006008148,2|0,1:2|0:0,0:0:0:0:
1,116,188557,1,8,0:2:0:0:
82,231,188715,1,2,0:0:0:0:
145,151,188873,1,2,0:0:0:0:
210,204,189030,5,2,1:2:0:0:
97,368,189188,2,0,B|57:333|57:333|85:221,1,157.500006008148,10|0,0:0|0:0,0:0:0:0:
171,296,189503,6,2,L|393:271,1,199.499994672775,6|0,1:1|0:0,0:1:0:0:
369,274,189819,2,0,P|367:303|323:325,1,78.7500030040742,8|0,0:2|0:0,0:0:0:0:
292,257,190134,5,2,0:2:0:0:
260,148,190292,1,2,1:2:0:0:
322,71,190450,2,0,B|309:-2|309:-2|214:51,1,157.500006008148,8|0,0:2|0:0,0:0:0:0:
260,148,190766,6,0,B|304:189|304:189|405:130,1,157.500006008148,2|0,1:2|0:0,0:0:0:0:
382,120,191082,1,8,0:2:0:0:
449,223,191240,1,2,0:0:0:0:
304,287,191397,1,2,0:0:0:0:
361,348,191555,5,2,1:2:0:0:
171,254,191714,2,0,B|217:229|217:229|313:293,1,157.500006008148,10|0,0:0|0:0,0:0:0:0:
211,321,192030,6,0,B|165:358|111:308|111:308|117:253|161:248,1,188.999994232178,6|0,1:2|0:0,0:0:0:0:
171,254,192345,1,8,0:2:0:0:
85,175,192503,1,2,0:0:0:0:
117,72,192661,1,2,0:0:0:0:
117,72,192819,1,2,1:2:0:0:
188,156,192977,2,0,L|85:175,1,105.000004005432,10|0,0:2|0:0,0:0:0:0:
329,19,193293,6,0,B|322:44|334:73|334:73|244:106|244:106|272:136|264:196,2,210.000008010865,6|8|2,1:2|0:0|3:0,0:0:0:0:
418,30,194082,1,0,1:0:0:0:
495,109,194240,2,0,L|327:160,1,157.500006008148,10|0,0:2|0:0,0:0:0:0:
264,159,194556,6,0,B|291:276|291:276|294:288|304:327|361:316,1,210.000008010865,6|8,1:2|0:0,0:0:0:0:
417,226,195030,1,2,0:0:0:0:
199,267,195188,1,2,3:0:0:0:
161,355,195346,1,2,1:2:0:0:
8,215,195503,2,0,L|29:334,1,105.000004005432,10|2,0:0|0:0,0:0:0:0:
154,93,195819,5,6,1:2:0:0:
264,218,195977,1,4,0:3:0:0:
130,226,196135,5,0,1:2:0:0:
317,119,196293,1,4,0:3:0:0:
74,31,196451,1,6,0:3:0:0:
209,160,196608,1,4,0:3:0:0:
440,27,196766,5,4,0:3:0:0:
392,9,196844,1,4,0:3:0:0:
345,27,196923,1,4,0:3:0:0:
320,73,197002,1,4,0:3:0:0:
335,123,197082,6,2,P|428:146|505:88,1,199.499994672775,6|0,1:1|0:0,0:1:0:0:
505,88,197398,2,0,P|478:75|437:102,1,78.7500030040742,8|0,0:2|0:0,0:3:0:0:
460,173,197714,5,2,0:2:0:0:
481,263,197872,1,2,1:2:0:0:
351,332,198030,2,0,B|431:296|425:404|533:330,1,157.500006008148,8|0,0:2|0:0,0:0:0:0:
358,254,198345,6,0,B|337:229|306:233|306:233|262:271|280:359,1,157.500006008148,2|0,1:2|0:0,0:0:0:0:
258,340,198661,1,8,0:2:0:0:
179,244,198819,1,2,0:0:0:0:
315,156,198976,1,2,0:0:0:0:
275,80,199134,5,2,1:2:0:0:
358,254,199293,2,0,B|408:238|408:238|431:185|372:104,1,157.500006008148,10|0,0:0|0:0,0:0:0:0:
275,80,199609,6,2,B|177:56|193:162|83:147,1,199.499994672775,2|0,1:1|0:0,0:1:0:0:
98,149,199925,2,0,P|78:127|94:80,1,78.7500030040742,8|0,0:2|0:0,0:0:0:0:
166,85,200241,5,2,0:0:0:0:
198,194,200399,1,2,1:2:0:0:
142,319,200557,2,0,P|201:324|218:273,1,105.000004005432,10|2,0:2|0:0,0:0:0:0:
348,229,200873,6,0,B|278:216|278:216|267:205|267:205|198:194,1,157.500006008148,2|0,1:2|0:0,0:0:0:0:
181,204,201187,1,10,0:2:0:0:
330,94,201345,1,2,0:0:0:0:
404,322,201503,1,2,0:0:0:0:
467,274,201661,1,2,1:2:0:0:
412,92,201820,6,0,B|421:177|328:149|353:264,1,157.500006008148,10|0,2:0|0:0,0:0:0:0:
282,151,202135,6,0,B|274:236|367:208|342:323,1,188.999994232178,6|0,1:2|0:0,0:0:0:0:
332,328,202451,1,8,0:2:0:0:
467,274,202609,1,2,0:0:0:0:
265,286,202767,6,0,L|163:263,1,105.000004005432,2|0,3:0|1:0,0:0:0:0:
365,158,203083,2,0,L|467:135,1,105.000004005432,10|0,0:2|0:0,0:0:0:0:
213,99,203399,6,0,B|120:82|120:82|53:120|54:216,1,210.000008010865,2|10,1:2|0:2,0:0:0:0:
173,338,203872,2,0,L|271:282,1,105.000004005432,2|2,0:0|3:3,0:0:0:0:
141,164,204188,1,2,1:2:0:0:
23,346,204346,2,0,L|0:244,1,105.000004005432,10|0,0:2|0:0,0:0:0:0:
230,84,204662,6,0,B|150:50|134:201|47:171,1,210.000008010865,6|10,1:2|0:2,0:0:0:0:
79,41,205135,1,2,0:0:0:0:
214,166,205293,1,2,3:0:0:0:
316,63,205451,1,0,3:0:0:0:
316,275,205609,2,0,L|309:166,1,105.000004005432,10|0,0:2|0:0,0:0:0:0:
505,98,205925,5,6,1:2:0:0:
397,209,206083,1,4,0:3:0:0:
316,63,206241,5,2,1:2:0:0:
387,93,206399,1,4,0:3:0:0:
387,378,206556,1,2,1:2:0:0:
316,275,206714,1,4,0:3:0:0:
63,224,206872,5,4,0:3:0:0:
113,219,206950,1,4,0:3:0:0:
154,249,207029,1,4,0:3:0:0:
166,300,207108,1,4,0:3:0:0:
139,344,207188,6,2,B|235:360|216:246|331:277,1,199.499994672775,6|0,1:1|0:0,0:1:0:0:
314,273,207504,2,0,P|312:302|268:324,1,78.7500030040742,8|0,0:2|0:0,0:0:0:0:
235,259,207819,5,2,0:0:0:0:
284,174,207977,1,2,1:2:0:0:
453,28,208135,2,0,B|408:18|408:18|327:112,1,157.500006008148,8|0,0:2|0:0,0:0:0:0:
284,174,208451,6,0,B|233:152|233:152|221:84|296:37,1,157.500006008148,2|0,1:2|0:0,0:0:0:0:
259,50,208766,1,8,0:2:0:0:
392,165,208924,1,2,0:0:0:0:
453,28,209082,1,2,0:0:0:0:
504,94,209240,5,2,1:2:0:0:
395,320,209399,2,0,B|388:247|388:247|398:230|398:230|392:165,1,157.500006008148,10|0,0:0|0:0,0:0:0:0:
335,102,209715,6,2,B|287:81|287:81|133:135,1,199.499994672775,2|0,1:3|0:3,0:3:0:0:
149,130,210031,2,0,P|114:144|84:122,1,78.7500030040742,8|0,0:2|0:0,0:0:0:0:
38,59,210346,5,2,0:0:0:0:
72,223,210504,1,2,1:2:0:0:
4,345,210662,2,0,B|54:368|54:368|113:321,1,105.000004005432,10|2,0:2|0:0,0:0:0:0:
226,234,210978,6,0,B|156:233|156:233|144:223|144:223|60:224,1,157.500006008148,2|0,1:2|0:0,0:0:0:0:
58,242,211294,1,8,0:2:0:0:
222,343,211452,1,2,0:0:0:0:
332,200,211609,1,2,0:0:0:0:
397,251,211767,1,2,1:2:0:0:
266,160,211925,6,0,B|275:74|182:102|207:-12,1,157.500006008148,10|0,2:0|0:0,0:0:0:0:
277,29,212240,6,0,B|288:80|246:102|246:102|105:76,1,188.999994232178,6|0,1:2|0:0,0:0:0:0:
120,75,212555,1,8,0:2:0:0:
17,164,212713,1,2,0:0:0:0:
50,22,212871,1,2,0:0:0:0:
50,22,213029,1,2,1:2:0:0:
141,170,213188,2,0,L|245:189,1,105.000004005432,10|0,0:2|0:0,0:0:0:0:
106,338,213504,6,0,B|121:240|-17:264|22:144,2,210.000008010865,6|8|2,1:2|0:0|3:0,0:0:0:0:
20,372,214293,1,0,1:0:0:0:
103,179,214451,2,0,P|162:221|194:307,1,157.500006008148,10|0,0:2|0:0,0:0:0:0:
397,230,214767,6,0,B|346:215|329:252|324:264|324:264|284:388,1,210.000008010865,6|8,1:2|0:0,0:0:0:0:
260,183,215241,1,2,0:0:0:0:
434,62,215399,1,2,3:0:0:0:
345,156,215557,1,2,1:2:0:0:
465,270,215714,2,0,L|442:149,1,105.000004005432,10|2,0:0|0:0,0:0:0:0:
174,104,216030,6,0,B|274:121|249:-23|385:28,1,210.000008010865,2|2,3:3|0:0,0:0:0:0:
351,18,216661,1,0,0:0:0:0:
351,18,217293,5,2,0:0:0:0:
361,86,217451,1,2,0:0:0:0:
361,86,217766,1,2,0:0:0:0:
429,76,217924,1,2,0:0:0:0:
429,76,218240,1,2,0:0:0:0:
288,191,218556,5,2,0:0:0:0:
220,181,218713,1,2,0:0:0:0:
220,181,219029,1,2,0:0:0:0:
210,249,219186,1,2,0:0:0:0:
210,249,219503,1,2,0:0:0:0:
405,260,219819,5,2,0:0:0:0:
473,250,219976,1,2,0:0:0:0:
473,250,220292,1,2,0:0:0:0:
483,318,220451,1,2,0:0:0:0:
483,318,220766,1,2,0:0:0:0:
276,322,221082,5,2,0:0:0:0:
344,312,221239,1,2,0:0:0:0:
227,378,221398,5,2,0:0:0:0:
206,307,221556,2,0,P|137:320|61:333,1,140,2|0,0:0|0:0,0:0:0:0:
0,349,222029,1,2,0:0:0:0:
0,349,222187,1,2,0:0:0:0:
123,244,222345,5,2,0:0:0:0:
113,176,222503,1,2,0:0:0:0:
113,176,222818,1,2,0:0:0:0:
45,186,222977,1,2,0:0:0:0:
45,186,223292,1,2,0:0:0:0:
186,71,223608,5,2,0:0:0:0:
254,81,223765,1,2,0:0:0:0:
254,81,224081,1,2,0:0:0:0:
264,13,224240,1,2,0:0:0:0:
264,13,224556,1,2,0:0:0:0:
443,117,224871,5,2,0:0:0:0:
375,107,225030,1,2,0:0:0:0:
375,107,225345,1,2,0:0:0:0:
365,175,225503,1,2,0:0:0:0:
365,175,225819,1,2,0:0:0:0:
487,343,226135,5,2,0:0:0:0:
419,333,226293,1,2,0:0:0:0:
314,272,226451,5,2,0:0:0:0:
348,346,226609,2,0,P|276:339|234:287,1,140,2|0,0:0|0:0,0:0:0:0:
261,213,227082,1,2,0:0:0:0:
261,213,227240,1,2,0:0:0:0:
157,360,227398,5,2,0:0:0:0:
147,292,227556,1,2,0:0:0:0:
147,292,227871,1,2,0:0:0:0:
79,302,228029,1,2,0:0:0:0:
79,302,228345,1,2,0:0:0:0:
193,203,228661,5,2,0:0:0:0:
261,213,228818,1,2,0:0:0:0:
261,213,229134,1,2,0:0:0:0:
271,145,229293,1,2,0:0:0:0:
271,145,229608,1,2,0:0:0:0:
79,130,229924,5,2,0:0:0:0:
11,140,230082,1,2,0:0:0:0:
11,140,230397,1,2,0:0:0:0:
1,72,230556,1,2,0:0:0:0:
1,72,230872,1,2,0:0:0:0:
208,68,231187,5,2,0:0:0:0:
140,78,231345,1,2,0:0:0:0:
257,12,231503,5,2,0:0:0:0:
278,83,231661,2,0,P|347:70|423:57,1,140,2|0,0:0|0:0,0:0:0:0:
484,41,232134,1,2,0:0:0:0:
484,41,232292,1,2,0:0:0:0:
385,134,232450,5,2,0:0:0:0:
395,202,232608,1,2,0:0:0:0:
395,202,232923,1,2,0:0:0:0:
463,192,233082,1,2,0:0:0:0:
463,192,233397,1,2,0:0:0:0:
322,307,233713,5,2,0:0:0:0:
254,297,233872,1,2,0:0:0:0:
254,297,234187,1,2,0:0:0:0:
244,365,234345,1,2,0:0:0:0:
244,365,234661,1,2,0:0:0:0:
65,261,234976,5,2,0:0:0:0:
133,271,235135,1,2,0:0:0:0:
133,271,235451,1,2,0:0:0:0:
143,203,235608,1,2,0:0:0:0:
143,203,235924,1,2,0:0:0:0:
21,35,236240,5,2,0:0:0:0:
89,45,236397,1,2,0:0:0:0:
194,106,236556,5,2,0:0:0:0:
160,32,236714,2,0,P|232:39|274:91,1,140,2|0,0:0|0:0,0:0:0:0:
247,165,237187,1,2,0:0:0:0:
247,165,237345,1,2,0:0:0:0:
